osu file format v13

[General]
AudioFilename: galaxias!.mp3
AudioLeadIn: 474
PreviewTime: 55665
Countdown: 0
SampleSet: Normal
StackLeniency: 0.7
Mode: 0
LetterboxInBreaks: 1
WidescreenStoryboard: 1

[Editor]
DistanceSpacing: 1.5
BeatDivisor: 4
GridSize: 8
TimelineZoom: 1.2

[Metadata]
Title:galaxias!
TitleUnicode:galaxias!
Artist:galaxias!
ArtistUnicode:galaxias!
Creator:Colo Links
Version:Sun!
Source:galaxias
Tags:galaxias!
BeatmapID:449254
BeatmapSetID:188497

[Difficulty]
HPDrainRate:6
CircleSize:4
OverallDifficulty:4
ApproachRate:5
SliderMultiplier:1
SliderTickRate:2

[Events]
//Background and Video events
0,0,"79020fa85edf8db11c4921d80923dd54574e748d.jpg",0,0
//Break Periods
2,83054,85799
2,127067,143346
//Storyboard Layer 0 (Background)
//Storyboard Layer 1 (Fail)
//Storyboard Layer 2 (Pass)
//Storyboard Layer 3 (Foreground)
//Storyboard Sound Samples
//Background Colour Transformations
3,100,163,162,255

[TimingPoints]
16772.8643067033,487.685930260912,4,2,0,100,1,0
32378,-100,4,3,0,60,0,0
47984,-100,4,1,0,80,0,0
55787,-80,4,2,0,100,0,1
70418,-100,4,2,0,100,0,0
86999,-100,4,3,0,60,0,0
102605,-100,4,1,0,80,0,0
108457,-80,4,3,0,90,0,0
112359,-66.6666666666667,4,2,0,100,0,1
126989,-133.333333333333,4,1,0,75,0,0
144546,-100,4,1,0,50,0,0
150398,-100,4,1,0,10,0,0
154300,-133.333333333333,4,1,0,40,0,0
169906,-80,4,3,0,60,0,0
170881,-66.6666666666667,4,3,0,80,0,0
171856,-57.1428571428571,4,2,0,100,0,1
187462,-100,4,1,0,100,0,0

[Colours]
Combo1 : 253,175,32
Combo2 : 221,84,11
Combo3 : 97,65,101
Combo4 : 252,109,84

[HitObjects]
80,208,1166,5,0,0:0:0:0:
120,272,1410,1,0,0:0:0:0:
192,280,1654,5,0,0:0:0:0:
264,272,1898,1,2,0:0:0:0:
264,272,2020,1,2,0:0:0:0:
264,272,2142,1,2,0:0:0:0:
328,232,2386,5,0,0:0:0:0:
344,160,2630,5,0,0:0:0:0:
336,88,2873,1,2,0:0:0:0:
336,88,2995,1,2,0:0:0:0:
336,88,3117,1,2,0:0:0:0:
280,40,3361,5,0,0:0:0:0:
208,24,3605,5,0,0:0:0:0:
144,64,3849,2,0,P|160:40|176:40,1,25,2|2,0:0|0:0,0:0:0:0:
200,88,4214,1,0,0:0:0:0:
184,160,4458,5,2,0:0:0:0:
184,160,4580,1,2,0:0:0:0:
184,232,4824,5,0,0:0:0:0:
256,208,5068,5,0,0:0:0:0:
328,208,5312,1,0,0:0:0:0:
384,264,5556,2,0,L|336:312,1,50,0|2,0:0|0:0,0:0:0:0:
328,328,5921,1,2,0:0:0:0:
328,328,6043,1,2,0:0:0:0:
256,336,6287,5,0,0:0:0:0:
184,328,6531,5,0,0:0:0:0:
112,304,6775,1,0,0:0:0:0:
120,232,7019,2,0,P|120:184|136:168,2,50
192,232,7750,1,2,0:0:0:0:
192,232,7872,5,2,0:0:0:0:
176,160,8116,5,0,0:0:0:0:
232,112,8360,5,2,0:0:0:0:
232,112,8482,1,2,0:0:0:0:
248,40,8726,6,0,P|208:32|184:40,1,50
248,40,9213,1,0,0:0:0:0:
288,96,9457,5,0,0:0:0:0:
320,152,9701,2,0,L|352:152,1,25,2|2,0:0|0:0,0:0:0:0:
384,152,9945,1,2,0:0:0:0:
352,224,10189,5,0,0:0:0:0:
280,216,10432,5,0,0:0:0:0:
208,216,10676,2,0,L|176:216,1,25,2|2,0:0|0:0,0:0:0:0:
144,216,10920,1,2,0:0:0:0:
144,288,11164,5,0,0:0:0:0:
216,288,11408,6,0,L|280:288|288:288,2,50
272,240,12139,1,2,0:0:0:0:
272,200,12261,2,0,P|216:184|184:192,1,75,2|2,0:0|0:0,0:0:0:0:
272,200,12871,2,0,P|312:208|336:200,1,50
376,256,13359,5,0,0:0:0:0:
328,312,13602,1,2,0:0:0:0:
288,320,13724,1,2,0:0:0:0:
248,320,13846,1,2,0:0:0:0:
176,296,14090,5,0,0:0:0:0:
120,240,14334,6,0,P|104:200|112:176,2,50
264,200,15309,6,0,P|262:157|248:136,1,50,2|0,0:0|0:0,0:0:0:0:
200,192,15797,6,0,P|208:240|216:256,1,50,2|0,0:0|0:0,0:0:0:0:
152,184,16285,6,4,L|104:184,2,25
256,192,16772,5,0,0:0:0:0:
256,192,17016,1,0,0:0:0:0:
184,192,17260,6,0,P|144:184|128:160,1,50
88,120,17748,5,0,0:0:0:0:
152,64,17992,1,0,0:0:0:0:
216,24,18235,6,2,L|256:24,2,25,2|0|2,0:0|0:0|0:0,0:0:0:0:
288,40,18723,6,0,P|328:24|352:32,2,50
240,96,19455,5,0,0:0:0:0:
256,168,19698,5,0,0:0:0:0:
320,208,19942,5,0,0:0:0:0:
392,216,20186,5,0,0:0:0:0:
392,216,20308,1,0,0:0:0:0:
392,216,20430,1,4,0:0:0:0:
448,272,20674,6,0,P|448:224|456:208,1,50
464,152,21162,2,0,P|456:200|440:208,2,50,0|0|0,0:0|0:0|0:0,0:0:0:0:
400,192,21893,6,0,L|328:192,1,50,0|2,0:0|0:0,0:0:0:0:
312,192,22259,1,2,0:0:0:0:
312,192,22381,1,0,0:0:0:0:
312,264,22625,6,0,P|296:304|312:320,1,50
224,304,23112,2,0,L|232:232,1,50
152,240,23600,2,0,P|152:296|168:296,1,75
112,304,24088,5,0,0:0:0:0:
80,280,24210,5,0,0:0:0:0:
64,248,24331,5,4,0:0:0:0:
64,176,24575,5,0,0:0:0:0:
96,112,24819,1,0,0:0:0:0:
152,64,25063,6,0,P|192:48|216:48,1,50
256,96,25551,2,0,P|248:144|256:160,1,50
280,216,26038,2,2,L|296:256,2,25,0|0|4,0:0|0:0|0:0,0:0:0:0:
240,152,26526,5,0,0:0:0:0:
168,152,26770,6,0,L|104:152,1,50
136,224,27258,5,0,0:0:0:0:
136,296,27501,2,0,P|112:320|88:312,1,50
64,256,27989,1,0,0:0:0:0:
80,224,28111,1,0,0:0:0:0:
96,192,28233,1,4,0:0:0:0:
104,120,28477,5,0,0:0:0:0:
144,56,28721,2,0,P|184:40|200:56,1,50
248,88,29208,5,0,0:0:0:0:
272,160,29452,2,0,P|304:176|328:168,1,50
368,120,29940,5,2,0:0:0:0:
384,88,30062,1,2,0:0:0:0:
392,48,30184,2,0,P|352:32|336:40,1,50,2|0,0:0|0:0,0:0:0:0:
288,80,30671,5,0,0:0:0:0:
288,152,30915,2,0,P|288:184|264:208,1,50
280,272,31403,1,0,0:0:0:0:
336,320,31647,1,0,0:0:0:0:
408,288,31891,5,0,0:0:0:0:
408,288,32013,1,0,0:0:0:0:
408,288,32134,1,4,0:0:0:0:
336,272,32378,6,0,P|312:240|288:224,1,50
248,216,32866,2,0,P|272:184|296:176,1,50
304,144,33354,6,0,P|272:112|256:112,1,50
224,80,33841,2,0,P|256:48|280:40,1,50
336,40,34329,5,0,0:0:0:0:
400,72,34573,1,0,0:0:0:0:
432,136,34817,1,0,0:0:0:0:
384,192,35061,5,0,0:0:0:0:
312,200,35304,1,0,0:0:0:0:
240,192,35548,1,0,0:0:0:0:
192,136,35792,1,0,0:0:0:0:
192,64,36036,5,2,0:0:0:0:
192,64,36158,5,6,0:0:0:0:
192,64,36280,5,6,0:0:0:0:
256,24,36524,6,0,P|280:16|304:16,2,50
128,64,37255,1,0,0:0:0:0:
88,128,37499,6,0,P|70:163|88:184,2,50
160,104,38230,1,0,0:0:0:0:
232,96,38474,6,0,P|248:72|224:48,1,50
312,48,38962,5,0,0:0:0:0:
376,88,39206,5,0,0:0:0:0:
416,152,39450,5,0,0:0:0:0:
416,224,39694,5,0,0:0:0:0:
376,288,39937,5,2,0:0:0:0:
376,288,40059,5,6,0:0:0:0:
376,288,40181,5,6,0:0:0:0:
336,224,40425,6,0,P|324:189|304:176,1,50
264,192,40913,2,0,P|232:176|232:144,1,50
176,104,41401,6,0,P|176:64|200:56,2,50
176,176,42132,5,0,0:0:0:0:
240,144,42376,5,0,0:0:0:0:
168,320,42620,5,0,0:0:0:0:
96,320,42864,5,0,0:0:0:0:
64,256,43107,5,0,0:0:0:0:
128,216,43351,1,0,0:0:0:0:
64,256,43595,1,0,0:0:0:0:
240,256,43839,5,6,0:0:0:0:
240,208,43961,1,6,0:0:0:0:
240,152,44083,1,2,0:0:0:0:
168,176,44327,5,0,0:0:0:0:
96,176,44570,2,0,P|80:216|88:232,2,50
152,120,45302,2,0,P|176:120|212:121,1,50
264,168,45790,5,0,0:0:0:0:
280,240,46034,2,0,P|320:240|344:224,1,50
392,200,46521,5,0,0:0:0:0:
360,136,46765,5,0,0:0:0:0:
392,200,47009,5,0,0:0:0:0:
392,272,47253,5,4,0:0:0:0:
320,264,47497,5,6,0:0:0:0:
288,280,47618,1,6,0:0:0:0:
320,264,47740,1,6,0:0:0:0:
360,304,47984,6,0,P|400:272|392:232,1,75
392,216,48472,2,0,P|392:168|408:152,1,50
368,96,48960,2,0,P|321:123|288:168,1,100
256,168,49569,1,8,0:0:0:0:
256,168,49691,1,8,0:0:0:0:
216,104,49935,5,0,0:0:0:0:
152,64,50179,1,0,0:0:0:0:
104,120,50423,2,0,P|64:136|48:120,2,50
64,224,51276,1,0,0:0:0:0:
128,264,51520,1,8,0:0:0:0:
160,288,51642,1,8,0:0:0:0:
208,232,51886,5,0,0:0:0:0:
176,168,52130,1,0,0:0:0:0:
248,160,52374,1,0,0:0:0:0:
224,88,52617,1,0,0:0:0:0:
296,72,52861,2,0,P|346:51|360:56,2,50
160,64,53836,6,0,P|120:48|96:56,1,50,2|0,0:0|0:0,0:0:0:0:
112,144,54324,2,0,P|160:152|176:144,1,50,2|0,0:0|0:0,0:0:0:0:
160,224,54812,2,0,P|200:216|224:232,1,50,2|8,0:0|0:0,0:0:0:0:
112,312,55300,1,8,0:0:0:0:
256,192,55543,12,0,55665,0:0:0:0:
384,304,55787,5,0,0:0:0:0:
384,208,56031,5,0,0:0:0:0:
288,208,56275,1,0,0:0:0:0:
352,144,56519,1,0,0:0:0:0:
288,80,56763,1,0,0:0:0:0:
368,32,57006,1,0,0:0:0:0:
272,24,57250,2,0,L|224:24,2,31.25,2|2|2,0:0|0:0|0:0,0:0:0:0:
184,64,57738,6,0,B|132:63|132:63|136:96,1,62.5
144,168,58226,2,0,B|94:167|94:167|96:128,1,62.5
184,120,58713,2,0,B|248:128|248:160,1,62.5
288,224,59201,5,2,0:0:0:0:
328,200,59323,1,2,0:0:0:0:
360,168,59445,1,2,0:0:0:0:
424,96,59689,6,0,P|472:104|472:136,1,62.5
472,208,60176,1,0,0:0:0:0:
392,248,60420,1,0,0:0:0:0:
416,160,60664,2,0,B|467:160|467:160|464:128,1,62.5
464,56,61152,2,0,L|464:0,2,31.25,2|2|2,0:0|0:0|0:0,0:0:0:0:
368,64,61639,5,0,0:0:0:0:
280,80,61883,1,0,0:0:0:0:
208,144,62127,2,0,P|248:128|280:152,2,62.5
160,216,62859,1,0,0:0:0:0:
160,344,63103,2,2,L|160:304,2,31.25
64,336,63590,5,0,0:0:0:0:
72,240,63834,1,0,0:0:0:0:
168,248,64078,2,0,P|208:272|216:312,1,62.5
280,352,64566,1,0,0:0:0:0:
360,312,64809,1,0,0:0:0:0:
424,240,65053,2,2,L|464:240,2,31.25
368,168,65541,6,0,P|344:120|320:112,1,62.5
248,104,66029,2,0,P|256:152|280:168,1,62.5
440,96,66516,1,0,0:0:0:0:
384,32,66760,1,0,0:0:0:0:
304,32,67004,2,2,L|256:32,2,31.25
208,32,67492,5,0,0:0:0:0:
264,112,67736,1,0,0:0:0:0:
168,136,67979,2,0,P|128:152|120:192,2,62.5
104,80,68711,5,2,0:0:0:0:
56,152,68955,1,2,0:0:0:0:
104,224,69199,1,2,0:0:0:0:
56,296,69442,1,2,0:0:0:0:
256,192,69564,12,0,70418,0:0:0:0:
152,320,71393,5,0,0:0:0:0:
152,320,71637,1,0,0:0:0:0:
224,328,71881,2,0,P|264:336|264:352,1,50
232,320,72247,2,0,B|112:320|96:232|96:216,1,175,2|0,0:0|0:0,0:0:0:0:
208,104,73344,5,0,0:0:0:0:
208,104,73588,2,0,P|192:144|200:160,2,50
160,48,74319,1,0,0:0:0:0:
152,160,74685,5,2,0:0:0:0:
152,160,74807,5,2,0:0:0:0:
152,232,75051,5,4,0:0:0:0:
152,304,75295,6,0,P|112:320|96:312,1,50
152,304,75782,5,0,0:0:0:0:
224,288,76026,1,2,0:0:0:0:
224,288,76148,1,2,0:0:0:0:
376,296,76636,5,2,0:0:0:0:
376,296,76758,1,2,0:0:0:0:
424,240,77002,1,4,0:0:0:0:
432,168,77245,5,0,0:0:0:0:
384,112,77489,2,0,P|368:80|384:56,1,50
304,40,77977,2,0,B|280:24|256:16|240:24,1,50
176,104,78587,5,2,0:0:0:0:
144,128,78708,1,2,0:0:0:0:
112,192,78952,1,4,0:0:0:0:
96,264,79196,6,0,P|85:299|93:335,1,75
128,352,79684,1,0,0:0:0:0:
200,336,79928,1,2,0:0:0:0:
200,336,80050,1,2,0:0:0:0:
296,224,80537,5,2,0:0:0:0:
296,224,80659,1,2,0:0:0:0:
368,208,80903,1,4,0:0:0:0:
368,208,81147,1,0,0:0:0:0:
360,136,81391,2,0,P|304:120|288:152,1,75,0|0,0:0|0:0,0:0:0:0:
296,128,81878,5,2,0:0:0:0:
296,128,82000,5,2,0:0:0:0:
168,208,82488,5,2,0:0:0:0:
192,232,82610,5,2,0:0:0:0:
248,280,82854,5,4,0:0:0:0:
232,24,86999,5,0,0:0:0:0:
176,80,87243,1,0,0:0:0:0:
168,152,87487,1,0,0:0:0:0:
216,208,87731,6,0,P|232:248|224:272,2,50
144,184,88462,1,0,0:0:0:0:
128,256,88706,6,0,P|136:304|152:312,1,50
192,344,89194,1,0,0:0:0:0:
264,312,89438,2,0,P|288:344|288:368,1,50
328,288,89925,2,0,P|336:248|320:232,1,50
296,176,90413,1,0,0:0:0:0:
224,176,90657,6,4,P|248:192|256:184,2,25,6|4|4,0:0|0:0|0:0,0:0:0:0:
240,104,91144,5,0,0:0:0:0:
288,48,91388,1,0,0:0:0:0:
360,24,91632,6,0,P|393:9|424:24,1,50
448,72,92120,1,0,0:0:0:0:
456,144,92364,1,0,0:0:0:0:
392,184,92608,2,0,P|377:217|392:240,1,50
424,288,93095,6,0,P|456:272|464:240,2,50
424,288,93827,1,0,0:0:0:0:
424,288,94071,1,0,0:0:0:0:
352,288,94314,5,0,0:0:0:0:
288,256,94558,1,4,0:0:0:0:
288,288,94680,1,2,0:0:0:0:
288,320,94802,1,2,0:0:0:0:
216,312,95046,5,0,0:0:0:0:
144,304,95290,2,0,P|104:296|80:296,2,50
192,248,96021,5,0,0:0:0:0:
224,176,96265,1,0,0:0:0:0:
160,144,96509,2,0,P|120:128|120:104,1,50
128,48,96997,1,0,0:0:0:0:
192,16,97241,6,0,P|224:0|248:8,2,50
120,24,97972,1,0,0:0:0:0:
64,72,98216,1,0,0:0:0:0:
128,112,98460,2,4,L|192:112,1,37.5,4|2,0:0|0:0,0:0:0:0:
144,112,98704,1,4,0:0:0:0:
200,160,98947,6,0,P|184:168|168:208,2,50
240,96,99679,1,0,0:0:0:0:
312,72,99923,1,0,0:0:0:0:
384,88,100167,5,0,0:0:0:0:
416,160,100411,2,0,L|352:160,1,50
312,208,100898,5,0,0:0:0:0:
256,256,101142,2,0,P|223:278|208:304,1,50
264,344,101630,1,0,0:0:0:0:
336,344,101874,5,4,0:0:0:0:
392,296,102117,1,4,0:0:0:0:
400,264,102239,1,4,0:0:0:0:
400,224,102361,1,4,0:0:0:0:
392,152,102605,6,0,L|448:128|448:128,1,50,0|8,0:0|0:0,0:0:0:0:
376,88,103093,2,0,P|416:80|432:64,1,50,0|8,0:0|0:0,0:0:0:0:
352,40,103581,2,0,P|305:67|248:64,1,100
224,72,104190,1,8,0:0:0:0:
224,72,104312,1,8,0:0:0:0:
152,80,104556,5,0,0:0:0:0:
176,152,104800,1,0,0:0:0:0:
104,136,105044,1,0,0:0:0:0:
128,208,105287,2,0,P|112:216|80:208,1,50
56,280,105775,1,0,0:0:0:0:
104,336,106019,1,0,0:0:0:0:
144,336,106141,2,8,L|176:336,1,25
248,336,106507,6,0,L|320:336,1,50,2|0,0:0|0:0,0:0:0:0:
360,304,106994,2,0,L|360:240,1,50,2|0,0:0|0:0,0:0:0:0:
312,200,107482,2,0,L|240:200,1,50,2|0,0:0|0:0,0:0:0:0:
200,160,107970,2,0,L|200:96,1,50,2|0,0:0|0:0,0:0:0:0:
272,48,108457,5,0,0:0:0:0:
368,48,108701,1,0,0:0:0:0:
336,136,108945,1,0,0:0:0:0:
240,128,109189,1,0,0:0:0:0:
200,208,109433,1,0,0:0:0:0:
296,216,109677,1,0,0:0:0:0:
264,304,109920,1,0,0:0:0:0:
168,296,110164,1,0,0:0:0:0:
240,360,110408,6,0,P|120:328|64:264,1,187.5
136,208,111383,5,0,0:0:0:0:
136,208,111627,1,0,0:0:0:0:
224,232,111871,2,8,L|264:232,2,31.25
296,320,112359,5,4,0:0:0:0:
360,224,112603,6,0,P|392:184|376:144,1,75.0000028610231
408,48,113091,1,0,0:0:0:0:
320,120,113335,1,0,0:0:0:0:
320,8,113578,1,0,0:0:0:0:
216,40,113822,2,2,P|184:56|160:40,2,37.5000014305115
280,136,114310,5,0,0:0:0:0:
168,136,114553,1,0,0:0:0:0:
248,216,114797,1,0,0:0:0:0:
136,216,115041,1,0,0:0:0:0:
216,296,115285,1,0,0:0:0:0:
104,264,115529,1,0,0:0:0:0:
168,352,115773,6,2,L|136:320,1,37.5000014305115
144,328,116017,1,2,0:0:0:0:
248,280,116261,6,0,P|240:232|256:208,1,75.0000028610231
312,200,116748,2,0,B|312:256|312:256|336:264|336:264|336:280|336:280|336:280,2,75.0000028610231
424,208,117480,1,0,0:0:0:0:
432,96,117723,2,0,L|432:32,2,37.5000014305115,2|2|2,0:0|0:0|0:0,0:0:0:0:
424,208,118211,6,0,P|352:208|328:192,1,75.0000028610231
248,168,118699,2,0,P|208:152|152:168,2,75.0000028610231
360,176,119431,1,0,0:0:0:0:
264,112,119675,2,2,L|264:72,2,37.5000014305115,2|2|2,0:0|0:0|0:0,0:0:0:0:
168,168,120162,6,0,P|104:192|80:168,1,75.0000028610231
176,280,120650,2,0,P|216:304|216:352,1,75.0000028610231
336,312,121138,1,0,0:0:0:0:
264,224,121381,1,0,0:0:0:0:
376,200,121625,5,2,0:0:0:0:
416,160,121747,1,2,0:0:0:0:
400,104,121869,1,2,0:0:0:0:
296,64,122113,5,0,0:0:0:0:
184,48,122356,2,0,P|136:72|136:96,1,75.0000028610231
168,192,122844,1,0,0:0:0:0:
264,248,123088,2,0,P|312:240|336:200,1,75.0000028610231
320,112,123576,2,2,L|296:80,2,37.5000014305115
208,104,124063,6,0,P|144:104|128:136,1,75.0000028610231
192,208,124551,2,0,P|152:224|136:280,2,75.0000028610231
304,208,125283,5,2,0:0:0:0:
408,248,125527,1,2,0:0:0:0:
464,344,125771,1,2,0:0:0:0:
408,248,126014,1,2,0:0:0:0:
256,192,126136,12,0,126867,0:0:0:0:
432,192,144546,6,0,L|464:232|464:232,2,50
360,168,145278,5,8,0:0:0:0:
288,136,145521,6,0,L|256:96|256:96,2,50
360,168,146253,5,8,0:0:0:0:
336,240,146497,6,0,P|296:256|272:264,1,50
224,224,146985,1,0,0:0:0:0:
160,184,147228,2,0,P|120:208|112:232,1,50,8|0,0:0|0:0,0:0:0:0:
104,280,147716,5,0,0:0:0:0:
176,280,147960,2,0,L|184:336,1,50,0|8,0:0|0:0,0:0:0:0:
112,344,148448,5,0,0:0:0:0:
48,304,148691,1,0,0:0:0:0:
32,232,148935,2,0,P|40:184|48:168,1,50,0|8,0:0|0:0,0:0:0:0:
88,120,149423,5,0,0:0:0:0:
160,112,149667,1,0,0:0:0:0:
216,160,149911,2,0,P|256:176|272:168,1,50,0|8,0:0|0:0,0:0:0:0:
304,112,150398,5,0,0:0:0:0:
216,160,150642,1,0,0:0:0:0:
312,176,150886,1,0,0:0:0:0:
248,96,151130,1,0,0:0:0:0:
256,192,151374,1,0,0:0:0:0:
256,296,151618,5,0,0:0:0:0:
328,224,151861,1,0,0:0:0:0:
232,232,152105,1,0,0:0:0:0:
320,272,152349,1,0,0:0:0:0:
256,192,152593,1,0,0:0:0:0:
160,176,152837,6,0,L|136:112,1,50
64,192,153325,2,0,L|24:248,1,50
128,264,153812,2,0,L|200:256,1,50
216,216,154300,5,0,0:0:0:0:
248,168,154544,1,0,0:0:0:0:
296,144,154788,5,0,0:0:0:0:
352,144,155031,1,0,0:0:0:0:
352,144,155154,1,8,0:0:0:0:
352,144,155276,1,8,0:0:0:0:
392,184,155520,5,0,0:0:0:0:
392,240,155764,5,0,0:0:0:0:
368,288,156007,1,8,0:0:0:0:
368,288,156129,1,8,0:0:0:0:
368,288,156251,1,0,0:0:0:0:
352,232,156495,5,0,0:0:0:0:
264,280,156739,5,0,0:0:0:0:
216,248,156983,2,8,P|199:239|192:232,1,18.7500007152558
184,184,157348,1,0,0:0:0:0:
176,128,157592,5,8,0:0:0:0:
192,104,157714,1,8,0:0:0:0:
232,64,157958,5,0,0:0:0:0:
288,48,158202,5,0,0:0:0:0:
320,96,158446,1,0,0:0:0:0:
368,128,158689,2,0,L|392:96,1,37.5000014305115
416,112,159055,1,8,0:0:0:0:
432,136,159177,1,8,0:0:0:0:
440,192,159421,5,0,0:0:0:0:
384,208,159665,5,0,0:0:0:0:
328,216,159909,1,0,0:0:0:0:
328,272,160153,2,0,L|360:272|368:272,2,37.5000014305115
288,312,160884,1,8,0:0:0:0:
288,312,161005,5,8,0:0:0:0:
232,304,161249,5,0,0:0:0:0:
176,304,161494,5,8,0:0:0:0:
176,304,161616,1,8,0:0:0:0:
120,304,161860,6,0,L|80:296|80:296,1,37.5000014305115
96,240,162347,1,0,0:0:0:0:
96,208,162591,5,0,0:0:0:0:
152,192,162835,2,0,L|176:192,1,18.7500007152558
200,192,163079,1,8,0:0:0:0:
224,144,163323,5,0,0:0:0:0:
184,104,163566,5,0,0:0:0:0:
128,96,163810,2,0,L|104:96,1,18.7500007152558
80,96,164054,1,8,0:0:0:0:
80,40,164298,5,0,0:0:0:0:
136,40,164542,6,0,L|184:40|184:40,2,37.5000014305115
152,96,165273,1,0,0:0:0:0:
192,136,165517,2,0,L|232:136|232:136,1,37.5000014305115
232,192,166005,2,0,L|192:200|192:200,1,37.5000014305115
224,256,166493,5,0,0:0:0:0:
176,232,166736,1,0,0:0:0:0:
152,248,166858,1,8,0:0:0:0:
128,256,166980,1,8,0:0:0:0:
168,296,167224,5,0,0:0:0:0:
224,312,167467,2,0,L|272:320,1,37.5000014305115
256,192,167955,12,0,169784,0:0:0:0:
256,264,169906,5,4,0:0:0:0:
160,264,170150,5,4,0:0:0:0:
160,264,170272,2,0,L|160:184,1,62.5
264,128,170881,6,0,L|256:232,1,75.0000028610231
264,312,171369,2,4,L|192:312,2,37.5000014305115
392,320,171856,5,4,0:0:0:0:
464,208,172100,6,0,P|448:144|400:128,1,87.500000834465
304,160,172588,2,0,P|280:112|288:80,1,87.500000834465
160,64,173075,1,0,0:0:0:0:
176,192,173319,2,2,P|136:208|112:200,2,43.7500004172325
160,64,173807,5,0,0:0:0:0:
80,80,174051,2,0,P|40:152|48:192,1,87.500000834465
168,168,174538,1,0,0:0:0:0:
280,232,174782,1,0,0:0:0:0:
328,352,175026,1,0,0:0:0:0:
200,360,175270,6,0,L|160:312,1,43.7500004172325
120,280,175514,1,2,0:0:0:0:
248,304,175758,6,0,P|216:272|216:224,2,87.500000834465
376,304,176490,1,0,0:0:0:0:
288,208,176733,1,0,0:0:0:0:
416,240,176977,1,0,0:0:0:0:
416,112,177221,2,0,L|416:48,2,43.7500004172325,2|2|2,0:0|0:0|0:0,0:0:0:0:
288,112,177709,5,0,0:0:0:0:
176,176,177953,1,0,0:0:0:0:
160,64,178196,2,0,P|120:48|64:96,2,87.500000834465
96,176,178928,1,0,0:0:0:0:
224,200,179172,2,2,L|224:121,2,65.6250006258488
176,248,179659,6,0,P|192:192|160:144,1,87.500000834465
96,264,180147,2,0,P|56:288|56:344,1,87.500000834465
176,344,180635,1,0,0:0:0:0:
304,304,180878,1,0,0:0:0:0:
416,232,181123,5,2,0:0:0:0:
360,200,181244,5,2,0:0:0:0:
304,168,181366,5,2,0:0:0:0:
192,104,181610,6,0,P|160:72|88:56,1,87.500000834465
192,168,182098,2,0,P|232:152|272:104,1,87.500000834465
368,40,182585,1,0,0:0:0:0:
464,128,182829,1,0,0:0:0:0:
368,40,183073,2,2,L|304:40,2,43.7500004172325
240,24,183560,6,0,P|240:88|192:104,1,87.500000834465
96,80,184048,2,0,P|80:40|16:48,2,87.500000834465
96,80,184780,5,2,0:0:0:0:
40,200,185024,1,2,0:0:0:0:
160,144,185268,1,2,0:0:0:0:
40,200,185512,1,2,0:0:0:0:
256,192,185634,12,0,187463,0:0:0:0:
