osu file format v12

[General]
AudioFilename: galaxias!.mp3
AudioLeadIn: 474
PreviewTime: 55665
Countdown: 0
SampleSet: Soft
StackLeniency: 0.7
Mode: 0
LetterboxInBreaks: 1
WidescreenStoryboard: 1

[Editor]
DistanceSpacing: 0.8
BeatDivisor: 4
GridSize: 8
TimelineZoom: 1

[Metadata]
Title:galaxias!
TitleUnicode:galaxias!
Artist:galaxias!
ArtistUnicode:galaxias!
Creator:Colo Links
Version:Star!
Source:galaxias
Tags:galaxias!
BeatmapID:449253
BeatmapSetID:188497

[Difficulty]
HPDrainRate:3
CircleSize:3
OverallDifficulty:2
ApproachRate:4
SliderMultiplier:1.5
SliderTickRate:1

[Events]
//Background and Video events
0,0,"79020fa85edf8db11c4921d80923dd54574e748d.jpg",0,0
//Break Periods
//Storyboard Layer 0 (Background)
//Storyboard Layer 1 (Fail)
//Storyboard Layer 2 (Pass)
//Storyboard Layer 3 (Foreground)
//Storyboard Sound Samples
//Background Colour Transformations
3,100,163,162,255

[TimingPoints]
16772.8643067033,487.685930260912,4,1,0,100,1,0
32378,-100,4,3,0,60,0,0
47984,-100,4,1,0,80,0,0
55787,-80,4,2,0,100,0,1
70418,-100,4,2,0,100,0,0
86999,-100,4,3,0,60,0,0
102605,-100,4,1,0,80,0,0
108457,-80,4,3,0,90,0,0
112359,-66.6666666666667,4,2,0,100,0,1
126989,-133.333333333333,4,1,0,75,0,0
144546,-100,4,1,0,50,0,0
150398,-100,4,1,0,10,0,0
154300,-133.333333333333,4,1,0,40,0,0
169906,-80,4,3,0,60,0,0
170881,-66.6666666666667,4,3,0,80,0,0
171856,-57.1428571428571,4,2,0,100,0,1
187462,-100,4,1,0,100,0,0

[Colours]
Combo1 : 253,175,32
Combo2 : 221,84,11
Combo3 : 97,65,101
Combo4 : 252,109,84

[HitObjects]
256,248,16772,6,0,B|264:296|226:314|152:320|104:288|128:184|184:160|248:200,1,300
264,224,18235,1,0,0:0:0:0:
320,272,18723,6,0,B|256:264|256:264|144:256|144:256|160:128,1,300
64,64,20186,1,0,0:0:0:0:
184,72,20674,6,0,B|279:74|360:152|352:232|312:288,1,300
240,184,22137,5,0,0:0:0:0:
176,280,22625,5,0,0:0:0:0:
120,176,23112,1,0,0:0:0:0:
96,56,23600,1,0,0:0:0:0:
208,96,24088,5,0,0:0:0:0:
320,136,24575,6,0,L|424:168,2,75
280,248,25551,1,0,0:0:0:0:
160,264,26038,1,0,0:0:0:0:
248,184,26526,5,0,0:0:0:0:
192,184,26770,6,0,L|88:184,1,75
192,88,27501,1,0,0:0:0:0:
312,88,27989,1,0,0:0:0:0:
280,200,28477,5,0,0:0:0:0:
312,152,28721,1,0,0:0:0:0:
280,200,28965,1,0,0:0:0:0:
240,312,29452,2,0,P|272:328|312:304,1,75
328,256,29940,5,0,0:0:0:0:
344,136,30428,1,0,0:0:0:0:
400,136,30671,5,0,0:0:0:0:
440,184,30915,1,0,0:0:0:0:
352,264,31403,5,0,0:0:0:0:
232,296,31891,5,0,0:0:0:0:
128,232,32378,5,0,0:0:0:0:
144,112,32866,1,0,0:0:0:0:
248,56,33354,6,0,P|328:32|408:72,1,150
424,168,34329,5,0,0:0:0:0:
304,200,34817,1,0,0:0:0:0:
208,272,35304,6,0,P|128:240|128:160,1,150
200,104,36280,6,0,P|288:112|344:176,2,150
200,104,37743,5,0,0:0:0:0:
144,208,38231,5,0,0:0:0:0:
208,304,38718,5,0,0:0:0:0:
328,312,39206,5,0,0:0:0:0:
424,240,39694,1,0,0:0:0:0:
392,120,40181,6,0,P|320:160|280:232,1,150
264,336,41157,5,0,0:0:0:0:
152,288,41644,2,0,P|88:256|64:160,2,150
256,224,43107,5,0,0:0:0:0:
264,104,43595,5,0,0:0:0:0:
384,96,44083,6,0,P|338:162|256:176,1,150
152,192,45058,6,0,P|176:272|248:304,1,150
344,264,46034,6,0,P|320:184|368:112,2,150
448,320,47497,5,0,0:0:0:0:
368,232,47984,5,0,0:0:0:0:
312,200,48228,1,0,0:0:0:0:
256,176,48472,1,0,0:0:0:0:
136,152,48960,6,0,P|56:192|32:272,1,150
120,328,49935,6,0,L|208:336,2,75
88,216,50910,5,0,0:0:0:0:
120,104,51398,5,0,0:0:0:0:
232,72,51886,5,0,0:0:0:0:
352,96,52373,5,0,0:0:0:0:
232,72,52861,5,0,0:0:0:0:
352,96,53349,5,0,0:0:0:0:
368,216,53836,5,0,0:0:0:0:
280,296,54324,1,0,0:0:0:0:
160,272,54812,6,0,L|96:232,2,75
208,128,55787,5,0,0:0:0:0:
360,104,56275,1,0,0:0:0:0:
424,240,56763,5,0,0:0:0:0:
368,288,57006,1,0,0:0:0:0:
296,288,57250,1,0,0:0:0:0:
144,312,57738,6,0,P|80:240|120:136,1,187.5
216,64,58713,6,0,L|312:24,2,93.75
152,200,59689,5,0,0:0:0:0:
256,312,60176,1,0,0:0:0:0:
344,192,60664,6,0,L|320:96,1,93.75
256,64,61152,5,0,0:0:0:0:
128,144,61639,5,0,0:0:0:0:
184,280,62127,5,0,0:0:0:0:
328,312,62615,5,0,0:0:0:0:
392,272,62859,5,0,0:0:0:0:
448,224,63103,5,0,0:0:0:0:
400,80,63590,6,0,P|352:168|272:200,1,187.5
128,208,64566,5,0,0:0:0:0:
64,168,64809,5,0,0:0:0:0:
72,96,65053,1,0,0:0:0:0:
208,32,65541,5,0,0:0:0:0:
360,48,66029,5,0,0:0:0:0:
456,160,66516,5,0,0:0:0:0:
416,304,67004,1,0,0:0:0:0:
264,304,67492,6,0,L|64:256,3,187.5
256,192,69442,12,0,70418,0:0:0:0:
