osu file format v10

[General]
AudioFilename: Roboticssssss.mp3
AudioLeadIn: 2000
PreviewTime: 55306
Countdown: 0
SampleSet: Soft
StackLeniency: 0.6
Mode: 0
LetterboxInBreaks: 0

[Editor]
Bookmarks: 53532
DistanceSpacing: 1.2
BeatDivisor: 2
GridSize: 8

[Metadata]
Title:Umikaze no Brave (TV Size)
TitleUnicode:Umikaze no Brave (TV Size)
Artist:fumika
ArtistUnicode:fumika
Creator:Wataru
Version:Easy
Source:Robotics;Notes
Tags:ending robot - t e n n y a -
BeatmapID:191561
BeatmapSetID:64789

[Difficulty]
HPDrainRate:2
CircleSize:2
OverallDifficulty:2
ApproachRate:3
SliderMultiplier:0.8
SliderTickRate:1

[Events]
//Background and Video events
Video,0,"Roboticssssss.avi"
0,0,"roboticssssss.jpg"
//Break Periods
2,27044,28481
//Storyboard Layer 0 (Background)
//Storyboard Layer 1 (Fail)
//Storyboard Layer 2 (Pass)
//Storyboard Layer 3 (Foreground)
//Storyboard Sound Samples
//Background Colour Transformations
3,100,163,162,255

[TimingPoints]
691,384.615384615385,4,2,1,100,1,0
691,-100,4,2,1,50,0,0
1075,-100,4,2,2,50,0,0
1460,-100,4,2,1,50,0,0
2037,-100,4,2,1,70,0,0
2137,-100,4,2,1,70,0,0
2614,-100,4,2,2,70,0,0
2998,-100,4,2,1,70,0,0
5306,-100,4,2,1,90,0,0
5402,-100,4,2,1,50,0,0
14921,-100,4,2,2,50,0,0
15114,-100,4,2,1,50,0,0
16460,-100,4,2,2,50,0,0
16556,-100,4,2,1,90,0,0
20306,-100,4,2,2,90,0,0
20406,-100,4,2,1,90,0,0
21075,-100,4,2,2,90,0,0
21175,-100,4,2,1,90,0,0
22614,-100,4,2,2,90,0,0
22714,-100,4,2,1,90,0,0
29441,-100,4,2,1,90,0,0
30278,-100,4,2,2,90,0,0
30378,-100,4,2,1,90,0,0
34152,-100,4,2,2,90,0,0
34252,-100,4,2,1,90,0,0
40306,-100,4,2,2,90,0,0
40406,-100,4,2,1,90,0,0
43383,-100,4,2,2,90,0,0
43575,-100,4,2,1,90,0,0
44921,-100,4,2,2,90,0,0
45021,-100,4,2,1,90,0,0
52998,-100,4,2,2,90,0,0
53098,-100,4,2,1,90,0,0
56075,-100,4,2,1,90,0,1
57037,-100,4,2,1,90,0,1
58767,-100,4,2,2,90,0,1
58867,-100,4,2,1,90,0,1
61075,-100,4,2,2,90,0,1
61267,-100,4,2,1,90,0,1
64921,-100,4,2,2,90,0,1
65021,-100,4,2,1,90,0,1
68767,-100,4,2,2,90,0,1
68867,-100,4,2,1,90,0,1
77614,-100,4,2,2,90,0,1
77806,-100,4,2,1,90,0,1
78383,-100,4,2,2,90,0,1
78483,-100,4,2,1,90,0,1
78575,-100,4,2,2,90,0,1
78675,-100,4,2,1,90,0,1
81838,-100,4,2,2,90,0,1
81938,-100,4,2,1,90,0,1
89120,-100,4,2,1,90,0,0

[HitObjects]
272,72,691,2,0,P|200:80|176:64|176:64|176:120|152:136,1,160,2|0,0:0|0:0,0:0:0
248,176,1844,1,8,0:0:0
232,272,2229,2,0,P|304:264|328:280|328:280|328:224|352:208,1,160,0|2,0:0|0:0,0:0:0
432,200,3383,6,8,P|464:168|464:168|432:128,1,80,8|0,0:0|0:0,0:0:0
344,136,4152,1,8,0:0:0
264,80,4537,2,0,P|240:152,1,40,2|4,0:0|0:0,0:0:0
144,216,5306,5,4,0:0:0
144,216,6844,1,4,0:0:0
144,216,8383,1,4,0:0:0
320,304,9152,2,0,P|344:328|400:336,2,80,0|8|2,0:0|0:0|0:0,0:0:0
232,264,10306,1,8,0:0:0
192,176,10691,1,2,0:0:0
288,184,11075,1,8,0:0:0
384,176,11460,6,0,P|408:232|408:272,2,80,0|8|0,0:0|0:0|0:0,0:0:0
464,128,12614,2,0,P|408:72|384:72,1,80,8|0,0:0|0:0,0:0:0
320,96,13383,2,0,P|280:48|240:40,1,80,8|0,0:0|0:0,0:0:0
192,104,14152,1,8,0:0:0
104,144,14537,2,0,P|64:192|64:192|80:248|72:296,1,160
168,256,15691,1,8,0:0:0
224,328,16075,2,0,P|304:328|336:304,1,120
432,320,17037,2,0,P|448:264,1,40,0|8,0:0|0:0,0:0:0
376,216,17614,6,0,P|416:184|448:176,1,80,0|8,0:0|0:0,0:0:0
448,80,18383,1,2,0:0:0
352,104,18767,2,0,P|320:80|296:48,2,80,8|0|8,0:0|0:0|0:0,0:0:0
264,152,19921,6,0,P|160:128|120:96,2,160
320,216,21844,1,10,0:0:0
416,232,22229,2,0,P|416:112,2,120,2|0|8,0:0|0:0|0:0,0:0:0
392,328,23767,5,4,0:0:0
312,280,24152,2,0,P|224:312|136:272,1,160,8|2,0:0|0:0,0:0:0
240,208,25306,1,8,0:0:0
312,144,25691,1,0,0:0:0
216,120,26075,2,0,P|136:96,2,80,0|8|4,0:0|0:0|0:0,0:0:0
224,88,29921,6,0,P|200:136|200:136|168:144|168:144|120:208,1,160
216,232,31075,2,0,P|168:288|168:288|184:320,1,80,8|0,0:0|0:0,0:0:0
264,312,31844,2,0,P|320:272|320:272|320:256,1,80
336,168,32614,6,0,P|312:144|288:72,2,80,8|2|8,0:0|0:0|0:0,0:0:0
416,224,33767,2,0,P|440:136|400:80,1,160
320,40,34921,2,0,P|264:32,1,40
72,160,36075,6,0,P|24:264,1,80,2|8,0:0|0:0,0:0:0
136,224,36844,2,0,P|136:312,1,80,0|8,0:0|0:0,0:0:0
224,264,37614,2,0,P|272:344,2,80,2|8|0,0:0|0:0|0:0,0:0:0
256,176,38767,1,8,0:0:0
344,232,39152,1,4,0:0:0
360,136,39537,2,0,P|416:144|448:216,2,120,8|2|0,0:0|0:0|0:0,0:0:0
264,304,41460,6,0,P|192:272|176:248,1,80,2|8,0:0|0:0,0:0:0
176,176,42229,1,4,0:0:0
272,184,42614,1,0,0:0:0
368,176,42998,2,0,P|328:88|256:88,1,160,2|0,0:0|0:0,0:0:0
176,80,44152,2,0,P|136:40,1,40
160,224,44729,6,0,P|56:288,2,120,0|0|8,0:0|0:0|0:0,0:0:0
224,288,46267,1,0,0:0:0
368,304,46844,2,0,P|376:280|488:304,1,160,8|2,0:0|0:0,0:0:0
454,107,48383,2,0,P|414:55|414:55|320:48,1,160,8|8,0:0|0:0,0:0:0
256,120,49537,1,2,0:0:0
192,48,49921,2,0,P|98:55|98:55|48:120,1,160,8|8,0:0|0:0,0:0:0
152,152,51075,1,2,0:0:0
88,232,51460,2,2,P|80:264|80:312,2,80,8|0|8,0:0|0:0|0:0,0:0:0
176,272,52614,2,0,P|207:292|207:292|336:296,1,160,0|0,0:0|0:0,0:0:0
256,192,53767,12,4,55306,0:0:0
96,152,56075,6,0,P|128:112|128:112|200:96,2,120,8|10|8,0:0|0:0|0:0,0:0:0
48,232,57614,1,0,0:0:0
88,320,57998,1,8,0:0:0
176,304,58383,2,0,P|224:264|224:264|256:304|320:304,1,160
392,240,59537,2,0,P|416:288|408:328,2,80,8|0|8,0:0|0:0|0:0,0:0:0
432,152,60691,2,0,P|432:112|432:112|336:64,1,120,0|2,0:0|0:0,0:0:0
224,88,61844,21,8,0:0:0
224,88,62229,2,0,P|200:64|200:64|112:64,2,120,4|8|8,0:0|0:0|0:0,0:0:0
168,152,63767,1,0,0:0:0
72,144,64152,1,8,0:0:0
48,240,64537,6,0,P|72:264|72:264|136:280|136:280|208:240,1,160
264,312,65691,2,0,P|368:272,1,80,4|0,0:0|0:0,0:0:0
336,184,66460,2,0,P|424:152,1,80,8|4,0:0|0:0,0:0:0
392,64,67229,1,8,0:0:0
296,48,67614,2,0,P|208:64,1,80,0|2,0:0|0:0,0:0:0
128,104,68383,6,0,P|88:160|88:160|88:200|88:200|136:272,1,160,4|0,0:0|0:0,0:0:0
184,176,69537,1,8,0:0:0
256,120,69921,6,0,P|312:168|336:240,2,120
320,48,71460,2,0,P|376:88|464:136,1,160
408,216,72614,5,0,0:0:0
320,248,72998,2,0,P|256:296,1,80,2|8,0:0|0:0,0:0:0
216,208,73767,1,0,0:0:0
216,208,74152,1,8,0:0:0
136,264,74537,6,0,P|80:328,2,80,0|8|0,0:0|0:0|0:0,0:0:0
56,208,75691,1,8,0:0:0
120,136,76075,2,0,P|40:80,2,80,0|8|0,0:0|0:0|0:0,0:0:0
224,112,77229,2,0,P|304:72|304:56|304:56|376:104,1,160
392,120,78191,2,0,P|448:208|416:232,1,160
288,208,79537,6,0,P|320:232|344:312,2,120
216,272,81075,2,0,P|144:240|64:248,1,160
48,152,82229,5,8,0:0:0
144,144,82614,2,0,P|232:184,1,80
216,272,83383,2,0,P|272:336,2,80,8|0|8,0:0|0:0|0:0,0:0:0
224,176,84537,2,0,P|200:136|216:88,1,80,0|8,0:0|0:0,0:0:0
296,56,85306,2,0,P|320:80|320:128,3,80,0|8|0|8,0:0|0:0|0:0|0:0,0:0:0
312,216,86844,5,0,0:0:0
312,216,87229,1,8,0:0:0
256,192,87614,12,4,88960,0:0:0
