osu file format v12

[General]
AudioFilename: Hanakage OP.mp3
AudioLeadIn: 2500
PreviewTime: 51793
Countdown: 0
SampleSet: Soft
StackLeniency: 0.7
Mode: 0
LetterboxInBreaks: 0
WidescreenStoryboard: 0

[Editor]
DistanceSpacing: 0.9
BeatDivisor: 4
GridSize: 32

[Metadata]
Title:fate
TitleUnicode:フェイト
Artist:fromnou
ArtistUnicode:フロムナウ
Creator:Konei
Version:Insane
Source:Hanakage -Ochita Mitsuka-
Tags:bl yaoi boys love vn visual novel vivid color kizawa irreversible
BeatmapID:296287
BeatmapSetID:114411

[Difficulty]
HPDrainRate:7
CircleSize:4
OverallDifficulty:7
ApproachRate:7
SliderMultiplier:1.8
SliderTickRate:1

[Events]
//Background and Video events
Video,0,"Hanakage.flv"
0,0,"aww.jpg",0,0
//Break Periods
//Storyboard Layer 0 (Background)
//Storyboard Layer 1 (Fail)
//Storyboard Layer 2 (Pass)
//Storyboard Layer 3 (Foreground)
//Storyboard Sound Samples
//Background Colour Transformations
3,100,163,162,255

[TimingPoints]
128.79059350504,631.578947368421,4,2,1,50,1,0
11497,631.578947368421,4,2,1,50,1,1
11654,-100,4,2,1,50,0,0
51918,-100,4,2,1,50,0,1
61707,-100,4,2,1,50,0,1
61865,-100,4,2,1,50,0,0
62023,-100,4,2,1,50,0,1
67075,-100,4,2,1,50,0,0
74023,631.578947368421,4,2,1,50,1,1
74180,-100,4,2,1,50,0,0
96444,-100,4,2,1,5,0,0

[Colours]
Combo1 : 224,65,124
Combo2 : 245,22,22
Combo3 : 237,228,63
Combo4 : 243,75,27

[HitObjects]
51,101,128,2,0,P|66:164|173:199,1,180,2|0,0:0|0:0,0:0:0:0:
255,82,1234,1,0,0:0:0:0:
255,82,1391,2,0,P|323:94|357:140,1,90
374,198,2023,1,0,0:0:0:0:
323,283,2339,1,0,0:0:0:0:
227,256,2549,1,0,0:0:0:0:
227,256,2655,6,0,P|172:232|133:232,1,90
56,262,3286,2,0,P|61:187|117:142,1,150
146,134,3918,1,0,0:0:0:0:
216,70,4128,2,0,L|204:33,1,30
308,100,4549,1,0,0:0:0:0:
303,311,5181,6,0,P|361:296|391:187,1,180,0|0,0:0|0:0,0:0:0:0:
295,77,6286,1,0,0:0:0:0:
295,77,6444,2,0,P|251:83|199:73,1,90
358,35,7076,2,0,P|369:92|348:133,1,90
281,180,7602,1,0,0:0:0:0:
281,180,7707,6,0,P|237:186|185:176,1,90
98,146,8339,1,0,0:0:0:0:
43,63,8655,1,0,0:0:0:0:
136,48,8865,2,0,L|176:43,1,30
233,109,9181,2,0,L|273:104,1,30
401,152,9602,1,0,0:0:0:0:
401,152,10234,5,0,1:0:0:0:
186,314,10549,1,0,1:0:0:0:
160,59,10865,1,0,1:0:0:0:
160,59,10970,1,0,0:0:0:0:
160,59,11076,1,0,0:0:0:0:
160,59,11181,1,2,0:0:0:0:
257,194,11497,6,0,P|197:210|117:185,1,135,4|0,0:0|0:0,0:0:0:0:
257,194,12128,2,0,P|274:244|264:286,1,90,0|0,1:0|1:0,0:0:0:0:
199,310,12602,2,0,P|244:349|285:353,1,90
200,310,13075,2,0,P|155:271|114:267,1,90,0|0,0:0|1:0,0:0:0:0:
31,237,13707,1,0,0:0:0:0:
31,237,13865,1,0,0:0:0:0:
31,237,14023,6,0,P|23:187|38:141,1,90
113,91,14654,1,0,1:0:0:0:
222,166,14970,1,0,1:0:0:0:
222,166,15128,2,0,L|227:210,1,45
318,200,15444,2,0,L|327:279,1,45
460,328,15918,1,0,1:0:0:0:
181,99,16549,6,0,P|151:135|169:220,1,135
181,99,17181,2,0,P|142:66|103:59,1,90,0|0,1:0|1:0,0:0:0:0:
166,217,17812,2,0,P|205:250|244:257,1,90,0|0,0:0|0:0,0:0:0:0:
329,209,18444,1,0,1:0:0:0:
390,131,18760,1,0,0:0:0:0:
390,131,18918,1,0,0:0:0:0:
390,131,19075,6,0,P|437:145|478:133,1,90
505,39,19707,1,0,1:0:0:0:
341,82,20023,1,0,1:0:0:0:
259,79,20181,2,0,L|210:85,1,45
182,167,20497,2,0,L|133:173,1,45
21,289,20970,1,0,1:0:0:0:
296,263,21602,6,0,P|361:278|424:233,1,135,4|0,0:0|0:0,0:0:0:0:
296,263,22233,2,0,P|310:328|334:345,1,90,0|0,1:0|1:0,0:0:0:0:
425,345,22865,1,0,0:0:0:0:
425,345,23023,1,0,0:0:0:0:
426,344,23181,2,0,P|454:310|455:266,1,90,0|0,0:0|1:0,0:0:0:0:
379,203,23812,1,0,0:0:0:0:
339,141,23970,1,0,0:0:0:0:
266,126,24128,6,0,P|221:133|166:120,1,90
91,74,24760,1,0,1:0:0:0:
162,201,25075,1,0,1:0:0:0:
87,238,25233,2,0,L|50:271,1,45
132,324,25549,2,0,L|95:357,1,45
19,171,26023,1,0,1:0:0:0:
195,145,26654,6,0,P|260:176|313:141,1,135
195,145,27286,2,0,P|188:184|208:239,1,90,0|0,1:0|1:0,0:0:0:0:
254,281,27760,1,0,0:0:0:0:
305,231,27918,2,0,P|319:188|309:145,1,90,0|0,0:0|0:0,0:0:0:0:
255,62,28549,1,0,1:0:0:0:
159,88,28865,1,0,0:0:0:0:
93,130,29023,1,0,0:0:0:0:
25,169,29181,6,0,P|37:216|71:247,1,90
159,277,29812,1,0,1:0:0:0:
231,209,30128,2,0,L|266:180,1,45,0|0,0:0|1:0,0:0:0:0:
409,186,30602,2,0,L|374:215,1,45,0|0,0:0|1:0,0:0:0:0:
322,299,31075,1,0,1:0:0:0:
238,352,31391,1,0,0:0:0:0:
102,179,31707,6,0,P|66:137|63:95,1,90,4|0,0:0|0:0,0:0:0:0:
173,199,32339,2,0,P|147:240|108:251,1,90,0|0,0:0|1:0,0:0:0:0:
223,90,33286,2,0,P|249:49|288:38,1,90,0|0,0:0|1:0,0:0:0:0:
382,63,33918,1,0,0:0:0:0:
472,171,34233,6,0,P|475:218|460:262,1,90,0|0,0:0|0:0,0:0:0:0:
403,301,34707,1,0,0:0:0:0:
337,271,34865,2,0,P|287:279|244:270,1,90,0|0,0:0|1:0,0:0:0:0:
158,231,35497,2,0,L|108:265,2,45,0|0|0,0:0|1:0|0:0,0:0:0:0:
242,179,36128,1,0,1:0:0:0:
151,138,36444,1,0,0:0:0:0:
270,249,36760,6,0,P|312:208|316:177,1,90,4|0,0:0|0:0,0:0:0:0:
203,282,37391,2,0,P|244:318|293:319,1,90,0|0,0:0|1:0,0:0:0:0:
374,299,38023,1,0,0:0:0:0:
431,218,38339,1,0,0:0:0:0:
352,158,38654,1,0,1:0:0:0:
292,237,38970,1,0,0:0:0:0:
168,162,39286,5,0,0:0:0:0:
108,117,39444,1,0,0:0:0:0:
82,186,39602,1,0,0:0:0:0:
30,304,39918,6,0,P|77:326|119:326,1,90,0|0,0:0|1:0,0:0:0:0:
152,254,40391,1,0,0:0:0:0:
223,295,40549,2,0,L|246:344,1,45
299,256,40865,2,0,L|322:305,1,45
404,315,41181,1,0,1:0:0:0:
404,315,41497,1,0,1:0:0:0:
460,167,41654,1,0,1:0:0:0:
387,91,41812,6,0,P|345:100|297:89,1,90,4|0,0:0|0:0,0:0:0:0:
254,35,42286,1,0,0:0:0:0:
212,90,42444,2,0,P|168:99|125:91,1,90,0|0,0:0|1:0,0:0:0:0:
33,53,43075,2,0,L|-1:102,1,45,0|0,0:0|1:0,0:0:0:0:
38,214,43549,2,0,L|64:178,1,45,0|0,0:0|1:0,0:0:0:0:
161,160,44023,1,0,0:0:0:0:
325,204,44339,6,0,P|372:212|414:203,1,90,2|0,0:0|0:0,0:0:0:0:
265,161,44970,2,0,P|254:210|272:252,1,90,0|0,0:0|1:0,0:0:0:0:
278,344,45602,2,0,L|207:346,1,45,0|0,0:0|1:0,0:0:0:0:
132,269,46075,2,0,L|61:271,1,45,0|0,0:0|1:0,0:0:0:0:
31,188,46549,1,0,0:0:0:0:
112,53,46865,6,0,P|170:46|207:57,1,90,4|0,0:0|0:0,0:0:0:0:
256,104,47339,1,0,0:0:0:0:
268,182,47497,2,0,P|319:155|334:116,1,90,0|0,1:0|1:0,0:0:0:0:
386,184,47970,2,0,P|355:222|309:244,1,90,0|0,0:0|1:0,0:0:0:0:
236,255,48444,1,0,0:0:0:0:
79,132,48760,1,0,1:0:0:0:
52,236,49075,1,0,0:0:0:0:
253,328,49391,6,0,P|297:303|311:268,1,90,0|0,1:0|0:0,0:0:0:0:
194,218,50023,1,0,1:0:0:0:
110,124,50339,2,0,L|66:92,1,45,0|0,1:0|0:0,0:0:0:0:
186,121,50654,2,0,L|180:63,2,45,0|0|0,1:0|0:0|0:0,0:0:0:0:
268,194,51128,6,0,L|317:231,1,45,0|0,1:0|1:0,0:0:0:0:
414,178,51444,2,0,L|365:141,1,45,0|0,0:0|0:0,0:0:0:0:
286,86,51760,1,0,0:0:0:0:
109,68,51918,6,0,P|91:115|43:132,2,90,4|2|0,0:0|0:0|1:0,0:0:0:0:
205,46,52865,1,2,0:0:0:0:
237,113,53023,2,0,P|273:147|334:158,1,90,0|0,0:0|1:0,0:0:0:0:
366,211,53497,2,0,L|354:260,1,45,2|0,0:0|0:0,0:0:0:0:
294,340,53812,2,0,B|251:338|251:338|230:356|180:351,1,90,0|2,1:0|0:0,0:0:0:0:
207,278,54286,1,0,0:0:0:0:
146,183,54444,6,0,P|123:142|101:126,1,45,4|0,0:0|0:0,0:0:0:0:
49,105,54760,2,0,P|82:71|124:60,1,90,2|0,0:0|1:0,0:0:0:0:
224,102,55391,1,2,0:0:0:0:
290,148,55549,2,0,P|355:157|413:118,1,135,2|2,0:0|0:0,0:0:0:0:
442,49,56181,1,0,0:0:0:0:
489,116,56339,2,0,P|495:164|483:220,1,90,0|2,1:0|0:0,0:0:0:0:
315,224,56970,6,0,P|266:229|221:206,1,90,4|0,0:0|0:0,0:0:0:0:
166,136,57602,1,0,1:0:0:0:
67,131,57918,2,0,L|57:187,1,45,2|0,0:0|0:0,0:0:0:0:
180,300,58391,2,0,L|172:255,1,45,0|2,1:0|0:0,0:0:0:0:
166,136,58865,1,0,1:0:0:0:
232,62,59181,1,2,0:0:0:0:
332,174,59497,6,0,P|370:200|418:206,1,90,2|0,0:0|0:0,0:0:0:0:
296,111,60128,2,0,P|262:157|262:198,1,90,0|0,1:0|0:0,0:0:0:0:
280,260,60602,1,0,0:0:0:0:
211,291,60760,2,0,L|161:314,1,45,0|0,0:0|1:0,0:0:0:0:
108,249,61075,2,0,L|58:272,1,45,0|0,0:0|0:0,0:0:0:0:
8,198,61391,1,0,1:0:0:0:
119,51,61707,5,6,0:0:0:0:
312,176,62023,6,0,P|354:193|412:188,1,90,4|2,0:0|0:0,0:0:0:0:
477,133,62654,1,0,1:0:0:0:
386,92,62970,1,2,0:0:0:0:
312,62,63128,2,0,L|272:89,1,45
187,64,63444,2,0,L|147:91,1,45,0|2,1:0|0:0,0:0:0:0:
66,54,63760,2,0,L|26:81,1,45,0|0,0:0|1:0,0:0:0:0:
21,208,64233,2,0,L|56:239,1,45,2|0,0:0|0:0,0:0:0:0:
147,282,64549,6,0,L|217:286,1,45,4|0,0:0|0:0,0:0:0:0:
320,229,64865,2,0,L|250:233,1,45,2|0,0:0|0:0,0:0:0:0:
192,204,65181,2,0,L|99:169,1,90,0|2,1:0|0:0,0:0:0:0:
140,90,65654,2,0,L|233:125,1,90,0|0,1:0|1:0,0:0:0:0:
299,150,66128,1,2,0:0:0:0:
413,37,66444,1,0,1:0:0:0:
447,189,66760,1,2,0:0:0:0:
241,287,67075,6,0,P|188:315|153:315,1,90,4|0,0:0|0:0,0:0:0:0:
85,248,67707,1,0,1:0:0:0:
23,84,68023,2,0,P|76:99|161:80,1,135,2|0,0:0|1:0,0:0:0:0:
174,29,68654,2,0,L|219:116,1,90,0|0,0:0|1:0,0:0:0:0:
269,192,69286,1,0,0:0:0:0:
378,276,69602,6,0,P|439:282|475:271,1,90,4|0,0:0|0:0,0:0:0:0:
432,150,70233,2,0,P|371:144|335:155,1,90,0|0,1:0|0:0,0:0:0:0:
229,129,70865,2,0,P|224:174|247:215,1,90,0|0,1:0|0:0,0:0:0:0:
379,276,71497,2,0,P|384:231|361:190,1,90,0|0,1:0|0:0,0:0:0:0:
154,90,72128,5,0,1:0:0:0:
118,272,72444,1,0,1:0:0:0:
312,213,72760,1,0,1:0:0:0:
413,169,72918,6,0,L|448:204,1,45,0|0,1:0|1:0,0:0:0:0:
362,346,73391,1,0,1:0:0:0:
232,283,73549,2,0,L|197:248,2,45,0|0|0,1:0|1:0|1:0,0:0:0:0:
362,346,74023,6,0,P|417:329|435:296,1,90,4|0,0:0|0:0,0:0:0:0:
452,166,74654,2,0,P|396:181|373:213,1,90,0|0,1:0|0:0,0:0:0:0:
367,277,75128,2,0,P|321:250|303:212,1,90,0|0,0:0|1:0,0:0:0:0:
277,145,75601,2,0,P|246:171|243:180,1,45
233,245,75917,2,0,P|189:219|175:180,1,90,0|0,1:0|0:0,0:0:0:0:
58,78,76549,5,2,0:0:0:0:
46,224,76865,1,0,0:0:0:0:
178,164,77180,1,0,1:0:0:0:
44,61,77496,1,0,0:0:0:0:
64,253,77812,6,0,L|86:308,1,45,0|0,0:0|1:0,0:0:0:0:
176,290,78128,2,0,L|198:345,1,45,0|0,0:0|0:0,0:0:0:0:
284,304,78444,2,0,L|262:249,1,45,0|0,1:0|0:0,0:0:0:0:
347,210,78759,2,0,L|330:168,1,45,0|0,0:0|0:0,0:0:0:0:
282,62,79075,6,0,P|239:79|193:77,1,90,4|0,0:0|0:0,0:0:0:0:
26,53,79707,2,0,P|69:36|115:38,1,90,0|0,1:0|0:0,0:0:0:0:
130,108,80180,2,0,P|117:154|80:183,1,90,0|0,0:0|1:0,0:0:0:0:
15,205,80654,2,0,P|35:237|45:244,1,45
48,314,80970,2,0,P|90:296|112:257,1,90,0|0,1:0|0:0,0:0:0:0:
211,149,81601,6,0,P|256:157|310:147,1,90
403,56,82233,1,4,1:2:0:0:
354,241,82549,2,0,L|319:283,1,45,0|0,1:0|0:0,0:0:0:0:
211,272,82865,2,0,L|246:230,1,45,0|0,0:0|1:0,0:0:0:0:
176,143,83180,2,0,L|141:185,1,45,0|0,1:0|0:0,0:0:0:0:
34,196,83496,2,0,L|69:154,1,45,0|0,1:0|0:0,0:0:0:0:
154,70,83812,6,0,P|205:73|225:85,1,45
296,166,84128,6,0,P|341:159|382:129,1,90,4|0,0:0|0:0,0:0:0:0:
221,152,84759,2,0,P|231:208|266:235,1,90,0|0,1:0|0:0,0:0:0:0:
324,252,85233,2,0,P|294:292|256:301,1,90,0|0,0:0|1:0,0:0:0:0:
181,288,85707,2,0,P|183:322|192:338,1,45
305,365,86023,2,0,P|345:345|382:303,1,90,0|0,1:0|0:0,0:0:0:0:
430,138,86654,5,2,0:0:0:0:
256,65,86970,1,0,0:0:0:0:
264,250,87286,1,0,1:0:0:0:
450,162,87601,1,0,0:0:0:0:
228,40,87917,6,0,L|190:67,1,45,0|0,0:0|1:0,0:0:0:0:
155,185,88233,2,0,L|192:159,1,45,0|0,0:0|0:0,0:0:0:0:
301,223,88549,2,0,L|263:250,1,45,0|0,1:0|0:0,0:0:0:0:
227,366,88865,2,0,L|263:339,1,45,0|0,0:0|0:0,0:0:0:0:
365,264,89180,6,0,P|377:216|365:177,1,90,4|0,0:0|0:0,0:0:0:0:
312,94,89812,1,0,1:0:0:0:
108,67,90128,1,4,1:2:0:0:
42,128,90286,2,0,L|36:184,1,45
116,217,90601,2,0,L|110:273,1,45,0|0,1:0|0:0,0:0:0:0:
202,251,90917,2,0,L|196:307,1,45,0|0,0:0|1:0,0:0:0:0:
276,340,91232,2,0,L|270:396,2,45
372,277,91707,6,0,P|428:260|449:237,1,90,4|0,0:0|0:0,0:0:0:0:
394,116,92338,2,0,P|338:133|317:156,1,90,0|0,1:0|0:0,0:0:0:0:
179,202,92970,2,0,L|136:168,1,45,0|0,1:0|0:0,0:0:0:0:
128,308,93286,2,0,L|170:281,2,45,0|0|0,0:0|0:0|1:0,0:0:0:0:
100,305,93707,1,0,0:0:0:0:
74,296,93812,1,0,0:0:0:0:
49,284,93917,1,0,0:0:0:0:
30,264,94023,1,0,0:0:0:0:
22,238,94128,1,0,0:0:0:0:
19,211,94233,5,4,0:0:0:0:
255,37,94707,1,4,0:0:0:0:
493,211,95180,1,4,0:0:0:0:
204,203,95496,6,0,L|204:264,1,45,0|0,3:0|0:0,0:0:0:0:
308,181,95812,2,0,L|308:120,2,45,0|0|0,3:0|0:0|3:0,0:0:0:0:
256,192,96444,12,0,97391,0:0:0:0:
