osu file format v9

[General]
AudioFilename: 01.way to answer.mp3
AudioLeadIn: 2000
PreviewTime: 35044
Countdown: 0
SampleSet: Normal
StackLeniency: 0.7
Mode: 0
LetterboxInBreaks: 0

[Editor]
DistanceSpacing: 0.7
BeatDivisor: 4
GridSize: 8

[Metadata]
Title:way to answer
Artist:fripSide
Creator:kioukiou
Version:Easy
Source:To Aru Kagaku no Railgun
Tags:PSP wcx19911123 climbb65588 KanaRin

[Difficulty]
HPDrainRate:3
CircleSize:4
OverallDifficulty:3
ApproachRate:3
SliderMultiplier:1
SliderTickRate:1

[Events]
//Background and Video events
0,0,"BG.jpg"
//Break Periods
2,95693,99801
2,118686,128544
//Storyboard Layer 0 (Background)
//Storyboard Layer 1 (Fail)
//Storyboard Layer 2 (Pass)
//Storyboard Layer 3 (Foreground)
//Storyboard Sound Samples
//Background Colour Transformations
3,100,163,162,255

[TimingPoints]
643,359.281437125748,4,2,1,70,1,0
6660,-100,4,1,1,70,0,0
10433,-100,4,2,1,70,0,0
12140,-100,4,1,1,70,0,0
35044,-100,4,2,1,70,0,0
35403,-100,4,1,1,70,0,0
35583,-100,4,2,1,70,0,0
36122,-100,4,1,1,70,0,0
36301,-100,4,2,1,70,0,0
36840,-100,4,1,1,70,0,0
37020,-100,4,2,1,70,0,0
37559,-100,4,1,1,70,0,0
37738,-100,4,2,1,70,0,0
38277,-100,4,1,1,70,0,0
38457,-100,4,2,1,70,0,0
38996,-100,4,1,1,70,0,0
40613,-100,4,2,1,70,0,0
41151,-100,4,1,1,70,0,0
41331,-100,4,2,1,70,0,0
41870,-100,4,1,1,70,0,0
42050,-100,4,2,1,70,0,0
42589,-100,4,1,1,70,0,0
42768,-100,4,2,1,70,0,0
43307,-100,4,1,1,70,0,0
43487,-100,4,2,1,70,0,0
44026,-100,4,1,1,70,0,0
44205,-100,4,2,1,70,0,0
44744,-100,4,1,1,70,0,0
44924,-100,4,2,1,70,0,0
45463,-100,4,1,1,70,0,0
45642,-100,4,2,1,70,0,0
46181,-100,4,1,1,70,0,0
46361,-100,4,2,1,70,0,0
46900,-100,4,1,1,70,0,0
47080,-100,4,2,1,70,0,0
47619,-100,4,1,1,70,0,0
47798,-100,4,2,1,70,0,0
48337,-100,4,1,1,70,0,0
48517,-100,4,2,1,70,0,0
49056,-100,4,1,1,70,0,0
49235,-100,4,2,1,70,0,0
49774,-100,4,1,1,70,0,0
49954,-100,4,2,1,70,0,0
50493,-100,4,1,1,70,0,0
52110,-100,4,2,1,70,0,0
52648,-100,4,1,1,70,0,0
52828,-100,4,2,1,70,0,0
53367,-100,4,1,1,70,0,0
53547,-100,4,2,1,70,0,0
54086,-100,4,1,1,70,0,0
54265,-100,4,2,1,70,0,0
54804,-100,4,1,1,70,0,0
54984,-100,4,2,1,70,0,0
55523,-100,4,1,1,70,0,0
55702,-100,4,2,1,70,0,0
56241,-100,4,1,1,70,0,0
57229,-100,4,2,1,70,0,0
58397,-100,4,1,1,70,0,0
58577,-100,4,2,1,70,0,0
59116,-100,4,1,1,70,0,0
59295,-100,4,2,1,70,0,0
59834,-100,4,1,1,70,0,0
60014,-100,4,2,1,70,0,0
60553,-100,4,1,1,70,0,0
60732,-100,4,2,1,70,0,0
61271,-100,4,1,1,70,0,0
61451,-100,4,2,1,70,0,0
61990,-100,4,1,1,70,0,0
62169,-100,4,2,1,70,0,0
62708,-100,4,1,1,70,0,0
62888,-100,4,2,1,70,0,0
63427,-100,4,1,1,70,0,0
63607,-100,4,2,1,70,0,0
64145,-100,4,1,1,70,0,0
69625,-100,4,2,1,90,0,0
71601,-100,4,2,1,75,0,0
72768,-100,4,1,1,85,0,0
95493,-100,4,2,1,70,0,0
101511,-100,4,1,1,70,0,0
104026,-100,4,2,1,70,0,0
104205,-100,4,1,1,70,0,0
105283,-100,4,2,1,70,0,0
107169,-100,4,1,1,70,0,0
109684,-100,4,2,1,70,0,0
110044,-100,4,1,1,70,0,0
112648,-100,4,2,1,70,0,0
112918,-100,4,1,1,70,0,0
115523,-100,4,2,1,70,0,0
115702,-100,4,1,1,70,0,0
116780,-100,4,2,1,70,0,0
118756,-100,4,2,1,55,0,0
143996,-100,4,1,1,65,0,0
146331,-100,4,1,1,70,0,0
149205,-100,4,1,1,75,0,0
151361,-100,4,1,1,80,0,0
152798,-100,4,1,1,85,0,0
155852,-100,4,2,1,90,0,0
156122,-100,4,1,1,90,0,0
178846,-100,4,1,1,70,0,0
201750,-100,4,2,1,50,0,0
208846,-100,4,2,1,5,0,0

[Colours]
Combo1 : 255,255,113
Combo2 : 128,128,255
Combo3 : 255,128,192
Combo4 : 255,255,255

[HitObjects]
256,48,643,1,4
256,48,3337,6,0,B|256:112,1,50,4|4
400,152,6391,6,0,B|472:152|472:304|384:304,1,200,4|0
328,304,7469,1,0
256,304,7828,1,0
184,304,8187,2,0,B|72:304,2,100
184,232,9265,5,0
144,168,9625,1,0
184,104,9984,1,0
224,168,10343,1,0
224,168,10523,2,0,B|336:168,1,100,4|4
320,240,11241,2,0,B|200:240,1,100,4|4
216,312,11960,2,0,B|272:312,1,50,4|4
406,312,12858,5,0
480,192,13577,1,0
406,72,14295,1,0
336,192,15014,1,0
280,152,15373,6,0,B|228:129|177:156,2,100
280,224,16451,1,0
280,296,16810,1,0
208,296,17169,1,0
208,224,17529,1,0
208,152,17888,6,0,B|114:88|21:147,3,200,4|0|0|0
20,217,20403,5,0
24,296,20762,2,0,B|112:368,1,100
160,312,21481,2,0,B|72:240,1,100
120,184,22199,2,0,B|208:256,1,100
256,200,22918,2,0,B|168:128,1,100
240,96,23637,5,4
368,32,24355,1,0
496,104,25074,1,0
368,160,25792,1,0
368,232,26151,5,0
440,232,26511,2,0,B|464:280|438:334,2,100
368,232,27589,1,0
296,232,27948,2,0,B|272:280|298:334,2,100
368,232,29026,1,0
368,152,29385,6,0,B|351:84|228:82|209:162,1,200,4|0
216,224,30463,1,0
216,296,30822,2,0,B|199:364|76:366|57:286,1,200
56,224,31900,1,0
96,160,32259,5,0
168,160,32619,1,0
240,160,32978,2,0,B|336:136,1,100
336,64,33696,1,0
260,80,34056,1,0
188,80,34415,2,0,B|84:80,1,100
88,152,35134,6,0,B|56:200|93:256,1,100,4|0
160,248,35852,1,0
232,248,36211,2,0,B|344:248,2,100
232,320,37289,2,0,B|232:368,2,50
304,320,38008,5,0
368,360,38367,1,0
432,320,38726,1,0
368,288,39086,1,0
368,144,39804,2,0,B|384:88|440:80,2,100
368,216,40882,6,0,B|256:216,1,100,4|0
192,216,41601,1,0
192,216,41960,1,0
192,136,42319,2,0,B|296:136,1,100
368,136,43038,1,0
368,136,43397,1,0
368,64,43756,6,0,B|424:40|481:75,2,100
296,64,44834,1,0
224,64,45193,1,0
152,64,45553,1,0
80,64,45912,2,0,B|24:64,2,50
80,136,46631,6,0,B|80:248,1,100,4|0
144,272,47349,1,0
208,240,47708,1,0
368,272,48427,1,0
304,240,48786,1,0
256,184,49145,1,0
256,112,49505,6,0,B|224:64|264:16,2,100
328,112,50583,1,0
464,112,51301,1,0
464,184,51660,1,0
464,256,52020,1,0
392,256,52379,6,0,B|288:256,3,100,4|0|0|0
232,216,53816,2,0,B|112:216,3,100
80,168,55253,5,4
144,136,55613,2,0,B|192:112|241:137,1,100
240,208,56331,2,0,B|240:320,2,100
312,208,57409,5,0
376,176,57768,1,0
440,208,58128,1,4
376,176,58487,2,0,B|376:64,1,100
304,72,59205,1,0
232,72,59565,1,0
160,72,59924,2,0,B|108:72,1,50
160,164,60643,5,0
232,164,61002,1,0
304,164,61361,2,0,B|352:164,1,50
304,256,62080,5,0
232,256,62439,1,0
160,256,62798,2,0,B|112:256,1,50
110,357,63517,5,0
179,357,63876,2,0,B|284:358,1,100,4|0
416,328,64954,1,0
465,193,65672,1,0
417,58,66391,1,0
376,192,67110,1,0
416,328,67828,1,0
256,192,68187,12,4,69625
432,48,71780,6,0,B|320:48,2,100,0|0|4
384,184,73217,1,0
320,216,73577,1,0
256,184,73936,1,0
128,184,74654,5,0
192,152,75014,1,0
256,184,75373,1,0
256,256,75732,2,0,B|256:368,2,100
256,184,76810,2,0,B|256:72,2,100
320,216,77888,5,0
384,184,78247,1,4
384,112,78607,1,0
320,80,78966,1,0
256,112,79325,1,0
256,184,79684,5,0
192,216,80044,1,0
128,184,80403,1,0
128,112,80762,1,0
192,80,81122,1,0
320,80,81840,1,0
320,216,82559,1,0
192,216,83277,6,0,B|137:194|82:222,2,100,0|0|4
320,216,84714,2,0,B|375:238|430:210,2,100
320,72,86151,5,0
248,72,86511,2,0,B|144:40,1,100
152,120,87229,2,0,B|256:152,1,100
320,152,87948,1,0
392,152,88307,1,0
392,224,88666,1,0
320,224,89026,6,0,B|248:312,1,100
200,256,89744,2,0,B|272:168,1,100,4|0
200,136,90463,2,0,B|128:224,1,100
80,168,91181,2,0,B|152:80,1,100
80,48,91900,2,0,B|8:136,1,100
256,192,92619,12,4,95493
144,120,101241,6,0,B|88:96|29:122,2,100,4|0|0
144,264,102678,1,0
256,344,103397,1,0
368,264,104116,6,0,B|424:288|483:262,2,100,4|0|0
368,192,105193,1,0
368,192,105373,2,0,B|317:177|267:192,1,100,4|4
224,248,106092,2,0,B|173:233|123:248,1,100,4|4
88,312,106810,2,0,B|16:312,1,50,4|4
40,240,107349,6,0,B|-12:185|40:86|122:102,2,200
112,240,109145,2,0,B|144:336,1,100
224,336,109864,2,0,B|192:240,1,100,4|0
272,240,110583,2,0,B|304:336,1,100
384,336,111301,2,0,B|352:240,1,100
432,240,112020,2,0,B|464:336,2,100,0|0|4
432,168,113098,5,0
432,96,113457,1,0
304,32,114175,1,0
304,104,114535,1,0
304,176,114894,1,0
304,248,115253,6,0,B|248:352,1,100,0|4
192,304,115972,2,0,B|248:200,1,100,0|0
176,184,116690,1,0
176,184,116870,2,0,B|120:288,1,100,4|4
64,240,117589,2,0,B|120:136,1,100,4|4
48,120,118307,2,0,B|16:176,1,50,4|4
256,192,129984,12,4,132858
120,320,134295,5,2
392,320,135732,5,2
256,264,136451,1,2
256,112,137169,1,2
392,320,138607,5,2
120,320,140044,5,2
120,56,141481,5,2
256,112,142200,1,2
256,264,142918,1,2
336,64,144355,6,0,B|384:88|440:96,3,100
432,168,145792,5,0
432,240,146151,1,0
360,240,146511,1,0
360,168,146870,1,0
288,168,147229,6,0,B|240:192|184:200,3,100
192,272,148666,5,0
192,344,149026,1,0
264,344,149385,1,0
264,272,149744,1,0
336,272,150104,6,0,B|456:272,1,100
464,200,150822,2,0,B|364:200,1,100
336,128,151541,2,0,B|436:128,1,100
464,56,152259,2,0,B|344:56,1,100
288,56,152978,5,0
221,31,153337,1,0
195,98,153696,1,0
263,124,154056,1,0
256,192,154415,12,4,155852
256,336,156571,5,0
296,272,156930,1,0
216,272,157289,1,0
392,216,158008,6,0,B|472:216|472:352|384:352,2,200
320,216,159804,1,0
256,248,160163,1,0
192,216,160523,1,0
120,216,160882,6,0,B|40:216|40:352|128:352,2,200,0|4|0
192,216,162678,1,0
256,248,163038,5,0
320,216,163397,1,0
256,176,163756,1,0
256,104,164116,1,0
256,32,164475,1,0
120,32,165193,1,0
120,176,165912,1,0
256,176,166631,6,0,B|368:176,2,100,0|0|4
152,264,168068,2,0,B|40:264,2,100,0|0|0
256,352,169505,6,0,B|296:304|360:320,3,100
416,320,170942,2,0,B|464:333|504:285,3,100
504,216,172379,5,0
504,144,172738,1,0
504,72,173098,1,4
368,72,173816,1,0
256,160,174535,1,0
144,72,175253,1,0
256,160,175972,1,0
256,192,176151,12,0,178846
256,40,179565,5,0
256,192,180283,1,0
256,344,181002,1,0
120,304,181720,6,0,B|16:224|160:224|48:128,2,200
192,304,183517,1,0
256,264,183876,1,0
320,304,184235,1,0
256,344,184595,5,4
408,192,185313,1,0
256,40,186032,1,0
104,192,186750,1,0
256,192,187469,5,0
312,144,187828,2,0,B|344:88|408:88,2,100
256,192,188906,1,0
200,240,189265,2,0,B|168:296|104:296,2,100
192,168,190343,5,4
128,128,190702,1,0
64,168,191062,1,0
128,200,191421,1,0
128,128,191780,2,0,B|128:24,2,100
128,200,192858,1,0
128,272,193217,6,0,B|176:368,1,100
240,328,193936,2,0,B|192:232,1,100
264,208,194654,2,0,B|312:304,1,100
376,264,195373,2,0,B|328:168,1,100
328,104,196092,6,0,B|320:32|456:0|480:80,1,200,4|0
496,208,197529,2,0,B|504:280|368:312|344:232,1,200
256,352,198966,5,0
120,352,199684,1,0
120,208,200403,1,0
256,208,201122,1,0
256,352,201840,5,4
184,352,202199,1,4
184,280,202559,1,4
256,280,202918,1,4
256,192,203277,12,0,208846
