osu file format v14

[General]
AudioFilename: fripSide - sword of virgin (Short ver_) (PV).mp3
AudioLeadIn: 0
PreviewTime: 85061
Countdown: 0
SampleSet: None
StackLeniency: 0.7
Mode: 3
LetterboxInBreaks: 0
SpecialStyle: 0
WidescreenStoryboard: 0

[Editor]
DistanceSpacing: 1.2
BeatDivisor: 4
GridSize: 4
TimelineZoom: 1.5

[Metadata]
Title:sword of virgin (Short ver)
TitleUnicode:sword of virgin (Short ver)
Artist:fripSide
ArtistUnicode:fripSide
Creator:[EF]reet
Version:Virgin!!! >\\\<
Source:
Tags:
BeatmapID:816744
BeatmapSetID:346890

[Difficulty]
HPDrainRate:8
CircleSize:4
OverallDifficulty:8
ApproachRate:5
SliderMultiplier:1.4
SliderTickRate:1

[Events]
//Background and Video events
0,0,"otome.jpg",0,0
//Break Periods
//Storyboard Layer 0 (Background)
//Storyboard Layer 1 (Fail)
//Storyboard Layer 2 (Pass)
//Storyboard Layer 3 (Foreground)
//Storyboard Sound Samples

[TimingPoints]
8350,402.684563758389,4,2,1,0,1,0
84054,-133.333333333333,4,2,1,0,0,0
85665,-100,4,2,1,0,0,0

[HitObjects]
64,192,8349,5,0,0:0:0:0:
192,192,8349,1,0,0:0:0:0:
320,192,8349,1,0,0:0:0:0:
448,192,8551,1,0,0:0:0:0:
320,192,8752,1,0,0:0:0:0:
64,192,8752,1,0,0:0:0:0:
192,192,9054,1,0,0:0:0:0:
64,192,9155,1,0,0:0:0:0:
448,192,9155,1,0,0:0:0:0:
320,192,9356,1,0,0:0:0:0:
192,192,9558,1,0,0:0:0:0:
64,192,9558,1,0,0:0:0:0:
448,192,9658,1,0,0:0:0:0:
320,192,9960,1,0,0:0:0:0:
192,192,9960,1,0,0:0:0:0:
64,192,9960,1,0,0:0:0:0:
320,192,10262,1,0,0:0:0:0:
64,192,10363,1,0,0:0:0:0:
448,192,10363,1,0,0:0:0:0:
448,192,10564,1,0,0:0:0:0:
192,192,10766,1,0,0:0:0:0:
64,192,10766,1,0,0:0:0:0:
320,192,10866,1,0,0:0:0:0:
320,192,11168,1,0,0:0:0:0:
448,192,11168,1,0,0:0:0:0:
64,192,11168,1,0,0:0:0:0:
192,192,11269,1,0,0:0:0:0:
320,192,11370,1,0,0:0:0:0:
448,192,11370,1,0,0:0:0:0:
64,192,11470,1,0,0:0:0:0:
448,192,11571,1,0,0:0:0:0:
320,192,11571,1,0,0:0:0:0:
192,192,11672,1,0,0:0:0:0:
64,192,11672,1,0,0:0:0:0:
448,192,11772,1,0,0:0:0:0:
64,192,11873,1,0,0:0:0:0:
320,192,11873,1,0,0:0:0:0:
192,192,11974,1,0,0:0:0:0:
448,192,11974,1,0,0:0:0:0:
64,192,12074,1,0,0:0:0:0:
320,192,12175,1,0,0:0:0:0:
448,192,12175,1,0,0:0:0:0:
64,192,12276,1,0,0:0:0:0:
192,192,12276,1,0,0:0:0:0:
320,192,12376,1,0,0:0:0:0:
448,192,12376,1,0,0:0:0:0:
64,192,12477,1,0,0:0:0:0:
448,192,12578,1,0,0:0:0:0:
320,192,12678,1,0,0:0:0:0:
64,192,12678,1,0,0:0:0:0:
192,192,12779,1,0,0:0:0:0:
448,192,12779,1,0,0:0:0:0:
64,192,12880,1,0,0:0:0:0:
192,192,12980,1,0,0:0:0:0:
320,192,12980,1,0,0:0:0:0:
448,192,13081,1,0,0:0:0:0:
320,192,13182,1,0,0:0:0:0:
64,192,13182,1,0,0:0:0:0:
192,192,13182,1,0,0:0:0:0:
192,192,13282,1,0,0:0:0:0:
64,192,13282,1,0,0:0:0:0:
448,192,13383,1,0,0:0:0:0:
320,192,13484,1,0,0:0:0:0:
64,192,13484,1,0,0:0:0:0:
192,192,13584,1,0,0:0:0:0:
448,192,13584,1,0,0:0:0:0:
64,192,13685,1,0,0:0:0:0:
320,192,13786,1,0,0:0:0:0:
448,192,13786,1,0,0:0:0:0:
192,192,13886,1,0,0:0:0:0:
64,192,13886,1,0,0:0:0:0:
448,192,13987,1,0,0:0:0:0:
320,192,13987,1,0,0:0:0:0:
192,192,14088,1,0,0:0:0:0:
320,192,14188,1,0,0:0:0:0:
64,192,14188,1,0,0:0:0:0:
448,192,14289,1,0,0:0:0:0:
192,192,14289,1,0,0:0:0:0:
448,192,14390,1,0,0:0:0:0:
320,192,14390,1,0,0:0:0:0:
64,192,14390,1,0,0:0:0:0:
192,192,14490,1,0,0:0:0:0:
320,192,14591,1,0,0:0:0:0:
448,192,14591,1,0,0:0:0:0:
64,192,14591,1,0,0:0:0:0:
192,192,14692,1,0,0:0:0:0:
64,192,14792,128,0,14994:0:0:0:0:
320,192,14792,1,0,0:0:0:0:
448,192,14792,1,0,0:0:0:0:
192,192,14893,128,0,15094:0:0:0:0:
320,192,14994,128,0,15195:0:0:0:0:
64,192,15094,128,0,15296:0:0:0:0:
448,192,15094,128,0,15296:0:0:0:0:
192,192,15195,128,0,15396:0:0:0:0:
320,192,15296,128,0,15497:0:0:0:0:
448,192,15396,128,0,15598:0:0:0:0:
192,192,15598,1,0,0:0:0:0:
64,192,15598,1,0,0:0:0:0:
320,192,15698,1,0,0:0:0:0:
64,192,15799,1,0,0:0:0:0:
192,192,15900,1,0,0:0:0:0:
448,192,16001,1,0,0:0:0:0:
320,192,16001,1,0,0:0:0:0:
192,192,16101,1,0,0:0:0:0:
64,192,16202,1,0,0:0:0:0:
320,192,16303,1,0,0:0:0:0:
64,192,16403,1,0,0:0:0:0:
192,192,16403,1,0,0:0:0:0:
448,192,16403,128,0,16605:0:0:0:0:
320,192,16504,128,0,16705:0:0:0:0:
192,192,16605,128,0,16806:0:0:0:0:
64,192,16705,128,0,16907:0:0:0:0:
448,192,16705,128,0,16907:0:0:0:0:
320,192,16806,128,0,17007:0:0:0:0:
192,192,16907,128,0,17108:0:0:0:0:
64,192,17007,128,0,17209:0:0:0:0:
320,192,17209,1,0,0:0:0:0:
448,192,17209,1,0,0:0:0:0:
192,192,17309,1,0,0:0:0:0:
64,192,17410,1,0,0:0:0:0:
192,192,17511,1,0,0:0:0:0:
320,192,17611,1,0,0:0:0:0:
448,192,17611,1,0,0:0:0:0:
64,192,17712,1,0,0:0:0:0:
192,192,17813,1,0,0:0:0:0:
448,192,17813,1,0,0:0:0:0:
320,192,17913,1,0,0:0:0:0:
192,192,18014,1,0,0:0:0:0:
64,192,18014,1,0,0:0:0:0:
448,192,18014,128,0,18215:0:0:0:0:
192,192,18115,128,0,18316:0:0:0:0:
320,192,18215,128,0,18417:0:0:0:0:
64,192,18316,128,0,18517:0:0:0:0:
192,192,18417,128,0,18618:0:0:0:0:
448,192,18517,128,0,18719:0:0:0:0:
320,192,18618,128,0,18819:0:0:0:0:
192,192,18819,1,0,0:0:0:0:
64,192,18819,1,0,0:0:0:0:
320,192,18920,1,0,0:0:0:0:
192,192,19021,1,0,0:0:0:0:
64,192,19021,1,0,0:0:0:0:
448,192,19121,1,0,0:0:0:0:
192,192,19222,1,0,0:0:0:0:
320,192,19222,1,0,0:0:0:0:
448,192,19323,1,0,0:0:0:0:
320,192,19423,1,0,0:0:0:0:
64,192,19423,1,0,0:0:0:0:
192,192,19524,1,0,0:0:0:0:
320,192,19625,1,0,0:0:0:0:
448,192,19625,1,0,0:0:0:0:
64,192,19725,1,0,0:0:0:0:
192,192,19826,1,0,0:0:0:0:
448,192,19826,1,0,0:0:0:0:
64,192,19927,1,0,0:0:0:0:
320,192,20027,1,0,0:0:0:0:
448,192,20027,1,0,0:0:0:0:
192,192,20128,1,0,0:0:0:0:
64,192,20128,1,0,0:0:0:0:
448,192,20229,1,0,0:0:0:0:
192,192,20329,1,0,0:0:0:0:
64,192,20329,1,0,0:0:0:0:
320,192,20430,1,0,0:0:0:0:
192,192,20531,1,0,0:0:0:0:
448,192,20531,1,0,0:0:0:0:
64,192,20631,1,0,0:0:0:0:
320,192,20631,1,0,0:0:0:0:
448,192,20732,1,0,0:0:0:0:
192,192,20833,1,0,0:0:0:0:
64,192,20833,1,0,0:0:0:0:
320,192,20933,1,0,0:0:0:0:
448,192,20933,1,0,0:0:0:0:
192,192,21034,1,0,0:0:0:0:
64,192,21034,1,0,0:0:0:0:
320,192,21135,1,0,0:0:0:0:
448,192,21135,1,0,0:0:0:0:
192,192,21235,1,0,0:0:0:0:
64,192,21235,1,0,0:0:0:0:
448,192,21235,128,0,21437:0:0:0:0:
320,192,21336,128,0,21537:0:0:0:0:
64,192,21437,128,0,21638:0:0:0:0:
192,192,21537,128,0,21739:0:0:0:0:
448,192,21638,128,0,21839:0:0:0:0:
320,192,21739,128,0,21940:0:0:0:0:
64,192,21839,128,0,22041:0:0:0:0:
192,192,21940,128,0,22141:0:0:0:0:
320,192,22041,1,0,0:0:0:0:
448,192,22041,128,0,22846:0:0:0:0:
64,192,22141,1,0,0:0:0:0:
320,192,22242,1,0,0:0:0:0:
192,192,22343,1,0,0:0:0:0:
320,192,22443,1,0,0:0:0:0:
64,192,22544,1,0,0:0:0:0:
192,192,22645,1,0,0:0:0:0:
320,192,22745,1,0,0:0:0:0:
192,192,22846,128,0,23652:0:0:0:0:
64,192,22846,1,0,0:0:0:0:
320,192,22947,1,0,0:0:0:0:
64,192,23047,1,0,0:0:0:0:
448,192,23148,1,0,0:0:0:0:
320,192,23249,1,0,0:0:0:0:
64,192,23249,1,0,0:0:0:0:
448,192,23349,1,0,0:0:0:0:
64,192,23450,1,0,0:0:0:0:
320,192,23551,1,0,0:0:0:0:
64,192,23652,128,0,23853:0:0:0:0:
448,192,23652,1,0,0:0:0:0:
192,192,23752,128,0,23954:0:0:0:0:
448,192,23853,128,0,24054:0:0:0:0:
320,192,23954,128,0,24155:0:0:0:0:
192,192,24054,128,0,24256:0:0:0:0:
64,192,24155,128,0,24356:0:0:0:0:
448,192,24256,128,0,24457:0:0:0:0:
320,192,24356,128,0,24558:0:0:0:0:
192,192,24457,1,0,0:0:0:0:
64,192,24457,128,0,25262:0:0:0:0:
448,192,24558,1,0,0:0:0:0:
192,192,24658,1,0,0:0:0:0:
320,192,24759,1,0,0:0:0:0:
448,192,24860,1,0,0:0:0:0:
192,192,24960,1,0,0:0:0:0:
448,192,25061,1,0,0:0:0:0:
192,192,25162,1,0,0:0:0:0:
320,192,25262,128,0,26068:0:0:0:0:
448,192,25262,1,0,0:0:0:0:
64,192,25363,1,0,0:0:0:0:
192,192,25464,1,0,0:0:0:0:
448,192,25564,1,0,0:0:0:0:
64,192,25665,1,0,0:0:0:0:
192,192,25665,1,0,0:0:0:0:
448,192,25766,1,0,0:0:0:0:
192,192,25866,1,0,0:0:0:0:
64,192,25967,1,0,0:0:0:0:
448,192,26068,128,0,26873:0:0:0:0:
192,192,26068,1,0,0:0:0:0:
64,192,26168,1,0,0:0:0:0:
320,192,26269,1,0,0:0:0:0:
192,192,26370,1,0,0:0:0:0:
64,192,26470,1,0,0:0:0:0:
320,192,26470,1,0,0:0:0:0:
192,192,26571,1,0,0:0:0:0:
64,192,26672,1,0,0:0:0:0:
320,192,26772,1,0,0:0:0:0:
64,192,26873,128,0,27074:0:0:0:0:
192,192,26873,1,0,0:0:0:0:
192,192,26974,128,0,27175:0:0:0:0:
320,192,27074,128,0,27276:0:0:0:0:
448,192,27175,128,0,27376:0:0:0:0:
192,192,27276,128,0,27477:0:0:0:0:
64,192,27376,128,0,27578:0:0:0:0:
320,192,27477,128,0,27678:0:0:0:0:
448,192,27578,128,0,27779:0:0:0:0:
192,192,27678,1,0,0:0:0:0:
64,192,27678,128,0,28484:0:0:0:0:
320,192,27779,1,0,0:0:0:0:
192,192,27880,1,0,0:0:0:0:
448,192,27980,1,0,0:0:0:0:
320,192,28081,1,0,0:0:0:0:
192,192,28081,1,0,0:0:0:0:
448,192,28182,1,0,0:0:0:0:
192,192,28282,1,0,0:0:0:0:
320,192,28383,1,0,0:0:0:0:
192,192,28484,128,0,29289:0:0:0:0:
448,192,28484,1,0,0:0:0:0:
320,192,28584,1,0,0:0:0:0:
64,192,28685,1,0,0:0:0:0:
448,192,28786,1,0,0:0:0:0:
64,192,28886,1,0,0:0:0:0:
320,192,28886,1,0,0:0:0:0:
448,192,28987,1,0,0:0:0:0:
320,192,29088,1,0,0:0:0:0:
64,192,29188,1,0,0:0:0:0:
448,192,29289,128,0,30094:0:0:0:0:
320,192,29289,1,0,0:0:0:0:
64,192,29390,1,0,0:0:0:0:
320,192,29490,1,0,0:0:0:0:
192,192,29591,1,0,0:0:0:0:
64,192,29692,1,0,0:0:0:0:
320,192,29692,1,0,0:0:0:0:
192,192,29792,1,0,0:0:0:0:
320,192,29893,1,0,0:0:0:0:
192,192,29994,1,0,0:0:0:0:
320,192,30094,128,0,30900:0:0:0:0:
64,192,30094,1,0,0:0:0:0:
448,192,30195,1,0,0:0:0:0:
64,192,30296,1,0,0:0:0:0:
192,192,30396,1,0,0:0:0:0:
64,192,30497,1,0,0:0:0:0:
448,192,30497,1,0,0:0:0:0:
192,192,30598,1,0,0:0:0:0:
64,192,30698,1,0,0:0:0:0:
448,192,30698,1,0,0:0:0:0:
192,192,30799,1,0,0:0:0:0:
64,192,30900,128,0,31705:0:0:0:0:
448,192,30900,1,0,0:0:0:0:
192,192,31001,1,0,0:0:0:0:
320,192,31101,1,0,0:0:0:0:
448,192,31202,1,0,0:0:0:0:
320,192,31303,1,0,0:0:0:0:
192,192,31303,1,0,0:0:0:0:
448,192,31403,1,0,0:0:0:0:
320,192,31504,1,0,0:0:0:0:
192,192,31605,1,0,0:0:0:0:
448,192,31705,128,0,32511:0:0:0:0:
320,192,31705,1,0,0:0:0:0:
64,192,31806,1,0,0:0:0:0:
192,192,31907,1,0,0:0:0:0:
320,192,32007,1,0,0:0:0:0:
192,192,32108,1,0,0:0:0:0:
64,192,32108,1,0,0:0:0:0:
320,192,32209,1,0,0:0:0:0:
64,192,32309,1,0,0:0:0:0:
320,192,32410,1,0,0:0:0:0:
192,192,32511,1,0,0:0:0:0:
64,192,32511,1,0,0:0:0:0:
320,192,32611,1,0,0:0:0:0:
192,192,32712,1,0,0:0:0:0:
64,192,32712,1,0,0:0:0:0:
448,192,32813,1,0,0:0:0:0:
320,192,32913,1,0,0:0:0:0:
192,192,32913,1,0,0:0:0:0:
64,192,33014,1,0,0:0:0:0:
192,192,33115,1,0,0:0:0:0:
448,192,33115,1,0,0:0:0:0:
64,192,33215,1,0,0:0:0:0:
320,192,33215,1,0,0:0:0:0:
448,192,33316,1,0,0:0:0:0:
192,192,33316,1,0,0:0:0:0:
64,192,33417,1,0,0:0:0:0:
192,192,33517,1,0,0:0:0:0:
320,192,33618,1,0,0:0:0:0:
448,192,33618,1,0,0:0:0:0:
192,192,33719,1,0,0:0:0:0:
64,192,33719,1,0,0:0:0:0:
448,192,33819,1,0,0:0:0:0:
64,192,33920,1,0,0:0:0:0:
192,192,33920,1,0,0:0:0:0:
448,192,34021,1,0,0:0:0:0:
320,192,34071,1,0,0:0:0:0:
192,192,34121,1,0,0:0:0:0:
64,192,34121,1,0,0:0:0:0:
448,192,34222,1,0,0:0:0:0:
192,192,34323,1,0,0:0:0:0:
64,192,34423,1,0,0:0:0:0:
320,192,34423,1,0,0:0:0:0:
192,192,34524,1,0,0:0:0:0:
448,192,34524,1,0,0:0:0:0:
320,192,34625,1,0,0:0:0:0:
64,192,34725,1,0,0:0:0:0:
192,192,34725,1,0,0:0:0:0:
320,192,34826,1,0,0:0:0:0:
64,192,34927,1,0,0:0:0:0:
192,192,34927,128,0,35128:0:0:0:0:
448,192,34927,1,0,0:0:0:0:
448,192,35027,128,0,35229:0:0:0:0:
320,192,35128,128,0,35329:0:0:0:0:
192,192,35229,128,0,35430:0:0:0:0:
64,192,35329,128,0,35531:0:0:0:0:
320,192,35430,128,0,35631:0:0:0:0:
448,192,35531,128,0,35732:0:0:0:0:
192,192,35732,1,0,0:0:0:0:
320,192,35732,1,0,0:0:0:0:
64,192,35833,1,0,0:0:0:0:
320,192,35933,1,0,0:0:0:0:
448,192,36034,1,0,0:0:0:0:
192,192,36034,1,0,0:0:0:0:
320,192,36135,1,0,0:0:0:0:
64,192,36135,1,0,0:0:0:0:
192,192,36235,1,0,0:0:0:0:
448,192,36336,1,0,0:0:0:0:
64,192,36336,1,0,0:0:0:0:
320,192,36437,1,0,0:0:0:0:
192,192,36537,1,0,0:0:0:0:
64,192,36537,128,0,36739:0:0:0:0:
448,192,36537,1,0,0:0:0:0:
320,192,36638,128,0,36839:0:0:0:0:
448,192,36739,128,0,36940:0:0:0:0:
192,192,36839,128,0,37041:0:0:0:0:
320,192,36940,128,0,37141:0:0:0:0:
64,192,37041,128,0,37242:0:0:0:0:
192,192,37141,128,0,37343:0:0:0:0:
320,192,37343,1,0,0:0:0:0:
448,192,37343,1,0,0:0:0:0:
192,192,37443,1,0,0:0:0:0:
448,192,37544,1,0,0:0:0:0:
64,192,37645,1,0,0:0:0:0:
320,192,37645,1,0,0:0:0:0:
448,192,37745,1,0,0:0:0:0:
192,192,37745,1,0,0:0:0:0:
64,192,37846,1,0,0:0:0:0:
320,192,37947,1,0,0:0:0:0:
448,192,37947,1,0,0:0:0:0:
192,192,38047,1,0,0:0:0:0:
64,192,38148,1,0,0:0:0:0:
320,192,38148,1,0,0:0:0:0:
448,192,38148,128,0,38349:0:0:0:0:
192,192,38249,128,0,38450:0:0:0:0:
64,192,38349,128,0,38551:0:0:0:0:
320,192,38450,128,0,38652:0:0:0:0:
192,192,38551,128,0,38752:0:0:0:0:
448,192,38652,128,0,38853:0:0:0:0:
320,192,38752,128,0,38954:0:0:0:0:
192,192,38954,1,0,0:0:0:0:
64,192,38954,1,0,0:0:0:0:
448,192,39054,1,0,0:0:0:0:
192,192,39155,1,0,0:0:0:0:
64,192,39256,1,0,0:0:0:0:
320,192,39356,1,0,0:0:0:0:
448,192,39356,1,0,0:0:0:0:
192,192,39457,1,0,0:0:0:0:
320,192,39558,1,0,0:0:0:0:
448,192,39558,1,0,0:0:0:0:
192,192,39658,1,0,0:0:0:0:
448,192,39759,1,0,0:0:0:0:
320,192,39759,128,0,39960:0:0:0:0:
64,192,39759,1,0,0:0:0:0:
64,192,39860,128,0,40061:0:0:0:0:
192,192,39960,128,0,40162:0:0:0:0:
320,192,40061,128,0,40262:0:0:0:0:
448,192,40162,128,0,40363:0:0:0:0:
192,192,40262,128,0,40464:0:0:0:0:
64,192,40363,128,0,40564:0:0:0:0:
320,192,40564,1,0,0:0:0:0:
448,192,40564,1,0,0:0:0:0:
192,192,40665,1,0,0:0:0:0:
64,192,40665,1,0,0:0:0:0:
448,192,40766,1,0,0:0:0:0:
320,192,40866,1,0,0:0:0:0:
64,192,40866,1,0,0:0:0:0:
192,192,40967,1,0,0:0:0:0:
448,192,40967,1,0,0:0:0:0:
64,192,41068,1,0,0:0:0:0:
320,192,41168,1,0,0:0:0:0:
448,192,41168,1,0,0:0:0:0:
192,192,41269,1,0,0:0:0:0:
448,192,41370,128,0,41571:0:0:0:0:
64,192,41370,1,0,0:0:0:0:
320,192,41470,128,0,41672:0:0:0:0:
64,192,41571,128,0,41772:0:0:0:0:
192,192,41672,128,0,41873:0:0:0:0:
320,192,41772,128,0,41974:0:0:0:0:
448,192,41873,128,0,42074:0:0:0:0:
64,192,41974,128,0,42175:0:0:0:0:
320,192,42175,1,0,0:0:0:0:
448,192,42175,1,0,0:0:0:0:
64,192,42276,1,0,0:0:0:0:
192,192,42276,1,0,0:0:0:0:
448,192,42376,1,0,0:0:0:0:
320,192,42477,1,0,0:0:0:0:
64,192,42477,1,0,0:0:0:0:
192,192,42578,1,0,0:0:0:0:
448,192,42578,1,0,0:0:0:0:
64,192,42678,1,0,0:0:0:0:
320,192,42779,1,0,0:0:0:0:
448,192,42779,1,0,0:0:0:0:
192,192,42880,1,0,0:0:0:0:
64,192,42880,1,0,0:0:0:0:
448,192,42980,1,0,0:0:0:0:
320,192,42980,128,0,43182:0:0:0:0:
64,192,43081,128,0,43282:0:0:0:0:
448,192,43182,128,0,43383:0:0:0:0:
192,192,43282,128,0,43484:0:0:0:0:
320,192,43383,128,0,43584:0:0:0:0:
64,192,43484,128,0,43685:0:0:0:0:
448,192,43584,128,0,43786:0:0:0:0:
192,192,43786,1,0,0:0:0:0:
64,192,43786,1,0,0:0:0:0:
320,192,43886,1,0,0:0:0:0:
448,192,43886,1,0,0:0:0:0:
64,192,43987,1,0,0:0:0:0:
192,192,44088,1,0,0:0:0:0:
448,192,44088,1,0,0:0:0:0:
320,192,44188,1,0,0:0:0:0:
64,192,44188,1,0,0:0:0:0:
448,192,44289,1,0,0:0:0:0:
192,192,44390,1,0,0:0:0:0:
64,192,44390,1,0,0:0:0:0:
320,192,44490,1,0,0:0:0:0:
448,192,44490,1,0,0:0:0:0:
64,192,44591,1,0,0:0:0:0:
192,192,44591,128,0,44792:0:0:0:0:
448,192,44692,128,0,44893:0:0:0:0:
64,192,44792,128,0,44994:0:0:0:0:
320,192,44893,128,0,45094:0:0:0:0:
192,192,44994,128,0,45195:0:0:0:0:
448,192,45094,128,0,45296:0:0:0:0:
64,192,45195,128,0,45396:0:0:0:0:
320,192,45396,1,0,0:0:0:0:
448,192,45396,1,0,0:0:0:0:
192,192,45497,1,0,0:0:0:0:
64,192,45497,1,0,0:0:0:0:
320,192,45598,1,0,0:0:0:0:
448,192,45598,1,0,0:0:0:0:
192,192,45698,1,0,0:0:0:0:
64,192,45698,1,0,0:0:0:0:
320,192,45799,1,0,0:0:0:0:
448,192,45799,1,0,0:0:0:0:
192,192,45900,1,0,0:0:0:0:
64,192,45900,1,0,0:0:0:0:
320,192,46001,1,0,0:0:0:0:
448,192,46001,1,0,0:0:0:0:
192,192,46101,1,0,0:0:0:0:
64,192,46101,1,0,0:0:0:0:
320,192,46202,1,0,0:0:0:0:
448,192,46202,1,0,0:0:0:0:
64,192,46252,1,0,0:0:0:0:
192,192,46303,1,0,0:0:0:0:
320,192,46353,1,0,0:0:0:0:
448,192,46403,1,0,0:0:0:0:
64,192,46454,1,0,0:0:0:0:
192,192,46504,1,0,0:0:0:0:
320,192,46554,1,0,0:0:0:0:
448,192,46605,1,0,0:0:0:0:
320,192,46655,1,0,0:0:0:0:
192,192,46705,1,0,0:0:0:0:
64,192,46756,1,0,0:0:0:0:
448,192,46806,1,0,0:0:0:0:
320,192,46856,1,0,0:0:0:0:
192,192,46907,1,0,0:0:0:0:
64,192,46957,1,0,0:0:0:0:
192,192,47007,1,0,0:0:0:0:
320,192,47007,1,0,0:0:0:0:
448,192,47007,128,0,47410:0:0:0:0:
192,192,47410,1,0,0:0:0:0:
448,192,47813,128,0,48215:0:0:0:0:
64,192,47813,1,0,0:0:0:0:
192,192,47813,1,0,0:0:0:0:
192,192,48115,1,0,0:0:0:0:
320,192,48215,1,0,0:0:0:0:
64,192,48417,1,0,0:0:0:0:
320,192,48618,128,0,49021:0:0:0:0:
192,192,48618,1,0,0:0:0:0:
192,192,49021,1,0,0:0:0:0:
320,192,49423,128,0,49826:0:0:0:0:
64,192,49423,1,0,0:0:0:0:
448,192,49423,1,0,0:0:0:0:
192,192,49725,1,0,0:0:0:0:
64,192,49826,1,0,0:0:0:0:
320,192,50027,1,0,0:0:0:0:
192,192,50027,1,0,0:0:0:0:
64,192,50229,128,0,50631:0:0:0:0:
448,192,50229,1,0,0:0:0:0:
320,192,50631,1,0,0:0:0:0:
64,192,51034,128,0,51437:0:0:0:0:
192,192,51034,1,0,0:0:0:0:
320,192,51034,1,0,0:0:0:0:
192,192,51336,1,0,0:0:0:0:
448,192,51437,1,0,0:0:0:0:
448,192,51638,1,0,0:0:0:0:
64,192,51839,128,0,52242:0:0:0:0:
192,192,51839,1,0,0:0:0:0:
320,192,51839,1,0,0:0:0:0:
448,192,52242,1,0,0:0:0:0:
192,192,52443,1,0,0:0:0:0:
64,192,52645,128,0,53047:0:0:0:0:
320,192,52645,1,0,0:0:0:0:
320,192,52947,1,0,0:0:0:0:
448,192,53047,1,0,0:0:0:0:
192,192,53047,1,0,0:0:0:0:
320,192,53249,1,0,0:0:0:0:
64,192,53249,1,0,0:0:0:0:
192,192,53450,128,0,53853:0:0:0:0:
448,192,53450,1,0,0:0:0:0:
320,192,53853,1,0,0:0:0:0:
192,192,54256,128,0,54658:0:0:0:0:
320,192,54256,1,0,0:0:0:0:
64,192,54256,1,0,0:0:0:0:
320,192,54558,1,0,0:0:0:0:
448,192,54658,1,0,0:0:0:0:
64,192,54860,1,0,0:0:0:0:
448,192,55061,128,0,55464:0:0:0:0:
192,192,55061,1,0,0:0:0:0:
192,192,55464,1,0,0:0:0:0:
448,192,55866,128,0,56269:0:0:0:0:
64,192,55866,1,0,0:0:0:0:
192,192,56168,1,0,0:0:0:0:
64,192,56269,1,0,0:0:0:0:
320,192,56470,1,0,0:0:0:0:
448,192,56470,1,0,0:0:0:0:
64,192,56672,128,0,57074:0:0:0:0:
192,192,56672,1,0,0:0:0:0:
448,192,56772,1,0,0:0:0:0:
320,192,56873,1,0,0:0:0:0:
192,192,56974,1,0,0:0:0:0:
448,192,57074,1,0,0:0:0:0:
320,192,57175,1,0,0:0:0:0:
192,192,57276,1,0,0:0:0:0:
64,192,57376,1,0,0:0:0:0:
320,192,57477,128,0,57880:0:0:0:0:
192,192,57477,1,0,0:0:0:0:
448,192,57578,1,0,0:0:0:0:
64,192,57678,1,0,0:0:0:0:
448,192,57779,1,0,0:0:0:0:
64,192,57880,1,0,0:0:0:0:
192,192,57980,1,0,0:0:0:0:
320,192,58081,1,0,0:0:0:0:
448,192,58182,1,0,0:0:0:0:
192,192,58282,128,0,58685:0:0:0:0:
64,192,58282,1,0,0:0:0:0:
448,192,58383,1,0,0:0:0:0:
64,192,58484,1,0,0:0:0:0:
448,192,58584,1,0,0:0:0:0:
320,192,58685,1,0,0:0:0:0:
64,192,58685,1,0,0:0:0:0:
192,192,58786,1,0,0:0:0:0:
320,192,58886,1,0,0:0:0:0:
192,192,58987,1,0,0:0:0:0:
448,192,59088,128,0,59490:0:0:0:0:
64,192,59088,1,0,0:0:0:0:
320,192,59188,1,0,0:0:0:0:
64,192,59289,1,0,0:0:0:0:
320,192,59390,1,0,0:0:0:0:
192,192,59490,1,0,0:0:0:0:
64,192,59490,1,0,0:0:0:0:
320,192,59591,1,0,0:0:0:0:
448,192,59591,1,0,0:0:0:0:
192,192,59692,1,0,0:0:0:0:
320,192,59792,1,0,0:0:0:0:
64,192,59893,1,0,0:0:0:0:
448,192,59893,1,0,0:0:0:0:
192,192,59893,128,0,60296:0:0:0:0:
448,192,60296,1,0,0:0:0:0:
320,192,60296,1,0,0:0:0:0:
192,192,60698,128,0,61101:0:0:0:0:
320,192,60698,1,0,0:0:0:0:
64,192,60698,1,0,0:0:0:0:
320,192,61001,1,0,0:0:0:0:
64,192,61101,1,0,0:0:0:0:
448,192,61101,1,0,0:0:0:0:
320,192,61303,1,0,0:0:0:0:
448,192,61504,128,0,61907:0:0:0:0:
192,192,61504,1,0,0:0:0:0:
64,192,61907,1,0,0:0:0:0:
320,192,61907,1,0,0:0:0:0:
192,192,62108,1,0,0:0:0:0:
448,192,62309,128,0,62712:0:0:0:0:
320,192,62309,1,0,0:0:0:0:
64,192,62309,1,0,0:0:0:0:
320,192,62611,1,0,0:0:0:0:
192,192,62712,1,0,0:0:0:0:
64,192,62712,1,0,0:0:0:0:
320,192,62913,1,0,0:0:0:0:
192,192,62913,1,0,0:0:0:0:
64,192,63115,128,0,63517:0:0:0:0:
448,192,63115,1,0,0:0:0:0:
192,192,63517,1,0,0:0:0:0:
448,192,63517,1,0,0:0:0:0:
64,192,63920,128,0,64323:0:0:0:0:
192,192,63920,1,0,0:0:0:0:
320,192,63920,1,0,0:0:0:0:
192,192,64222,1,0,0:0:0:0:
448,192,64323,1,0,0:0:0:0:
320,192,64323,1,0,0:0:0:0:
320,192,64524,1,0,0:0:0:0:
64,192,64725,128,0,65128:0:0:0:0:
192,192,64725,1,0,0:0:0:0:
320,192,64927,1,0,0:0:0:0:
448,192,65128,1,0,0:0:0:0:
192,192,65128,1,0,0:0:0:0:
320,192,65329,1,0,0:0:0:0:
64,192,65531,128,0,65933:0:0:0:0:
192,192,65531,1,0,0:0:0:0:
448,192,65531,1,0,0:0:0:0:
320,192,65631,1,0,0:0:0:0:
192,192,65833,1,0,0:0:0:0:
320,192,65933,1,0,0:0:0:0:
448,192,65933,1,0,0:0:0:0:
192,192,66135,1,0,0:0:0:0:
320,192,66135,1,0,0:0:0:0:
320,192,66336,128,0,66739:0:0:0:0:
64,192,66336,1,0,0:0:0:0:
448,192,66336,1,0,0:0:0:0:
192,192,66739,1,0,0:0:0:0:
448,192,66739,1,0,0:0:0:0:
320,192,67141,128,0,67544:0:0:0:0:
448,192,67141,1,0,0:0:0:0:
64,192,67141,1,0,0:0:0:0:
192,192,67443,1,0,0:0:0:0:
64,192,67544,1,0,0:0:0:0:
448,192,67544,1,0,0:0:0:0:
320,192,67745,1,0,0:0:0:0:
192,192,67947,128,0,68349:0:0:0:0:
64,192,67947,1,0,0:0:0:0:
320,192,67947,1,0,0:0:0:0:
448,192,68349,1,0,0:0:0:0:
64,192,68349,1,0,0:0:0:0:
320,192,68551,1,0,0:0:0:0:
192,192,68752,128,0,69155:0:0:0:0:
64,192,68752,1,0,0:0:0:0:
448,192,68752,1,0,0:0:0:0:
320,192,68853,1,0,0:0:0:0:
448,192,69054,1,0,0:0:0:0:
320,192,69155,1,0,0:0:0:0:
64,192,69155,1,0,0:0:0:0:
192,192,69356,1,0,0:0:0:0:
320,192,69356,1,0,0:0:0:0:
448,192,69558,128,0,69960:0:0:0:0:
64,192,69558,1,0,0:0:0:0:
192,192,69658,1,0,0:0:0:0:
320,192,69759,1,0,0:0:0:0:
192,192,69860,1,0,0:0:0:0:
64,192,69960,1,0,0:0:0:0:
320,192,69960,1,0,0:0:0:0:
448,192,70061,1,0,0:0:0:0:
192,192,70162,1,0,0:0:0:0:
320,192,70262,1,0,0:0:0:0:
192,192,70363,128,0,70766:0:0:0:0:
64,192,70363,1,0,0:0:0:0:
320,192,70464,1,0,0:0:0:0:
448,192,70564,1,0,0:0:0:0:
64,192,70665,1,0,0:0:0:0:
320,192,70766,1,0,0:0:0:0:
448,192,70766,1,0,0:0:0:0:
192,192,70866,1,0,0:0:0:0:
64,192,70967,1,0,0:0:0:0:
320,192,71068,1,0,0:0:0:0:
64,192,71168,128,0,71571:0:0:0:0:
192,192,71168,1,0,0:0:0:0:
448,192,71269,1,0,0:0:0:0:
320,192,71370,1,0,0:0:0:0:
192,192,71470,1,0,0:0:0:0:
320,192,71571,1,0,0:0:0:0:
448,192,71571,1,0,0:0:0:0:
64,192,71672,1,0,0:0:0:0:
192,192,71772,1,0,0:0:0:0:
320,192,71873,1,0,0:0:0:0:
448,192,72024,1,0,0:0:0:0:
320,192,72074,1,0,0:0:0:0:
192,192,72125,1,0,0:0:0:0:
64,192,72175,1,0,0:0:0:0:
64,192,72376,1,0,0:0:0:0:
192,192,72427,1,0,0:0:0:0:
320,192,72477,1,0,0:0:0:0:
448,192,72527,1,0,0:0:0:0:
448,192,72779,1,0,0:0:0:0:
64,192,72779,128,0,73081:0:0:0:0:
192,192,72880,1,0,0:0:0:0:
320,192,72980,1,0,0:0:0:0:
192,192,73081,1,0,0:0:0:0:
64,192,73182,128,0,73484:0:0:0:0:
448,192,73182,1,0,0:0:0:0:
320,192,73282,1,0,0:0:0:0:
192,192,73383,1,0,0:0:0:0:
320,192,73484,1,0,0:0:0:0:
64,192,73584,128,0,73886:0:0:0:0:
448,192,73584,1,0,0:0:0:0:
192,192,73685,1,0,0:0:0:0:
320,192,73786,1,0,0:0:0:0:
192,192,73886,1,0,0:0:0:0:
64,192,73987,128,0,74289:0:0:0:0:
448,192,73987,1,0,0:0:0:0:
320,192,74088,1,0,0:0:0:0:
192,192,74188,1,0,0:0:0:0:
320,192,74289,1,0,0:0:0:0:
448,192,74390,128,0,74692:0:0:0:0:
64,192,74390,1,0,0:0:0:0:
192,192,74490,1,0,0:0:0:0:
320,192,74591,1,0,0:0:0:0:
192,192,74692,1,0,0:0:0:0:
448,192,74792,128,0,75094:0:0:0:0:
64,192,74792,1,0,0:0:0:0:
320,192,74893,1,0,0:0:0:0:
192,192,74994,1,0,0:0:0:0:
320,192,75094,1,0,0:0:0:0:
448,192,75195,128,0,75497:0:0:0:0:
64,192,75195,1,0,0:0:0:0:
192,192,75296,1,0,0:0:0:0:
320,192,75396,1,0,0:0:0:0:
64,192,75497,1,0,0:0:0:0:
320,192,75598,1,0,0:0:0:0:
448,192,75598,1,0,0:0:0:0:
192,192,75698,1,0,0:0:0:0:
448,192,75799,1,0,0:0:0:0:
320,192,75799,1,0,0:0:0:0:
64,192,75900,1,0,0:0:0:0:
448,192,76001,1,0,0:0:0:0:
192,192,76001,1,0,0:0:0:0:
320,192,76001,1,0,0:0:0:0:
64,192,76101,1,0,0:0:0:0:
192,192,76202,1,0,0:0:0:0:
320,192,76303,1,0,0:0:0:0:
448,192,76403,1,0,0:0:0:0:
192,192,76403,1,0,0:0:0:0:
64,192,76403,1,0,0:0:0:0:
320,192,76504,1,0,0:0:0:0:
192,192,76605,1,0,0:0:0:0:
64,192,76705,1,0,0:0:0:0:
192,192,76806,1,0,0:0:0:0:
320,192,76806,1,0,0:0:0:0:
448,192,76806,1,0,0:0:0:0:
192,192,77007,1,0,0:0:0:0:
320,192,77108,1,0,0:0:0:0:
448,192,77108,1,0,0:0:0:0:
192,192,77209,1,0,0:0:0:0:
64,192,77209,1,0,0:0:0:0:
320,192,77309,1,0,0:0:0:0:
448,192,77309,1,0,0:0:0:0:
64,192,77410,1,0,0:0:0:0:
192,192,77511,1,0,0:0:0:0:
448,192,77511,1,0,0:0:0:0:
64,192,77611,1,0,0:0:0:0:
320,192,77611,1,0,0:0:0:0:
448,192,77712,1,0,0:0:0:0:
192,192,77813,1,0,0:0:0:0:
64,192,77813,1,0,0:0:0:0:
320,192,77913,1,0,0:0:0:0:
448,192,77913,1,0,0:0:0:0:
192,192,78014,1,0,0:0:0:0:
64,192,78014,1,0,0:0:0:0:
320,192,78115,1,0,0:0:0:0:
64,192,78215,1,0,0:0:0:0:
192,192,78316,1,0,0:0:0:0:
448,192,78316,1,0,0:0:0:0:
64,192,78417,1,0,0:0:0:0:
320,192,78417,1,0,0:0:0:0:
192,192,78517,1,0,0:0:0:0:
320,192,78618,1,0,0:0:0:0:
64,192,78719,1,0,0:0:0:0:
448,192,78819,1,0,0:0:0:0:
320,192,78819,1,0,0:0:0:0:
192,192,78920,1,0,0:0:0:0:
320,192,79021,1,0,0:0:0:0:
448,192,79021,1,0,0:0:0:0:
64,192,79121,1,0,0:0:0:0:
448,192,79222,128,0,79524:0:0:0:0:
320,192,79222,1,0,0:0:0:0:
192,192,79222,1,0,0:0:0:0:
64,192,79323,1,0,0:0:0:0:
192,192,79423,1,0,0:0:0:0:
320,192,79524,1,0,0:0:0:0:
448,192,79625,128,0,79927:0:0:0:0:
64,192,79625,1,0,0:0:0:0:
320,192,79725,1,0,0:0:0:0:
192,192,79826,1,0,0:0:0:0:
64,192,79927,1,0,0:0:0:0:
448,192,80027,128,0,80329:0:0:0:0:
320,192,80027,1,0,0:0:0:0:
64,192,80128,1,0,0:0:0:0:
192,192,80229,1,0,0:0:0:0:
320,192,80329,1,0,0:0:0:0:
448,192,80430,128,0,80732:0:0:0:0:
64,192,80430,1,0,0:0:0:0:
320,192,80531,1,0,0:0:0:0:
192,192,80631,1,0,0:0:0:0:
64,192,80732,1,0,0:0:0:0:
64,192,80833,128,0,81135:0:0:0:0:
448,192,80833,1,0,0:0:0:0:
192,192,80933,1,0,0:0:0:0:
320,192,81034,1,0,0:0:0:0:
448,192,81135,1,0,0:0:0:0:
64,192,81235,128,0,81537:0:0:0:0:
192,192,81235,1,0,0:0:0:0:
448,192,81336,1,0,0:0:0:0:
320,192,81437,1,0,0:0:0:0:
192,192,81537,1,0,0:0:0:0:
64,192,81638,128,0,81940:0:0:0:0:
448,192,81638,1,0,0:0:0:0:
192,192,81739,1,0,0:0:0:0:
320,192,81839,1,0,0:0:0:0:
448,192,81940,1,0,0:0:0:0:
192,192,82041,1,0,0:0:0:0:
64,192,82041,1,0,0:0:0:0:
320,192,82141,1,0,0:0:0:0:
192,192,82242,1,0,0:0:0:0:
64,192,82242,1,0,0:0:0:0:
448,192,82343,1,0,0:0:0:0:
320,192,82443,1,0,0:0:0:0:
192,192,82443,1,0,0:0:0:0:
64,192,82443,1,0,0:0:0:0:
448,192,82544,1,0,0:0:0:0:
64,192,82645,1,0,0:0:0:0:
320,192,82645,1,0,0:0:0:0:
192,192,82745,1,0,0:0:0:0:
320,192,82846,1,0,0:0:0:0:
448,192,82846,1,0,0:0:0:0:
192,192,82947,1,0,0:0:0:0:
64,192,83047,1,0,0:0:0:0:
192,192,83148,1,0,0:0:0:0:
448,192,83148,1,0,0:0:0:0:
320,192,83249,1,0,0:0:0:0:
64,192,83249,1,0,0:0:0:0:
192,192,83349,1,0,0:0:0:0:
320,192,83450,1,0,0:0:0:0:
448,192,83450,1,0,0:0:0:0:
64,192,83551,1,0,0:0:0:0:
320,192,83652,1,0,0:0:0:0:
448,192,83652,1,0,0:0:0:0:
192,192,83752,1,0,0:0:0:0:
64,192,83752,1,0,0:0:0:0:
320,192,83853,1,0,0:0:0:0:
448,192,83853,1,0,0:0:0:0:
192,192,83954,1,0,0:0:0:0:
64,192,83954,1,0,0:0:0:0:
64,192,84054,128,0,84256:0:0:0:0:
192,192,84054,128,0,84457:0:0:0:0:
320,192,84054,128,0,84658:0:0:0:0:
448,192,84054,128,0,84860:0:0:0:0:
64,192,85061,128,0,85665:0:0:0:0:
192,192,85262,128,0,85766:0:0:0:0:
320,192,85464,128,0,85866:0:0:0:0:
448,192,85665,128,0,85967:0:0:0:0:
64,192,85766,128,0,85967:0:0:0:0:
192,192,85866,128,0,86068:0:0:0:0:
320,192,85967,128,0,86168:0:0:0:0:
448,192,86068,128,0,86269:0:0:0:0:
192,192,86168,128,0,86370:0:0:0:0:
64,192,86269,128,0,86470:0:0:0:0:
320,192,86470,1,0,0:0:0:0:
448,192,86470,128,0,86672:0:0:0:0:
192,192,86571,128,0,86772:0:0:0:0:
320,192,86672,128,0,86873:0:0:0:0:
64,192,86772,128,0,86974:0:0:0:0:
192,192,86873,128,0,87074:0:0:0:0:
320,192,86974,128,0,87175:0:0:0:0:
448,192,87074,128,0,87276:0:0:0:0:
192,192,87276,1,0,0:0:0:0:
64,192,87276,128,0,87477:0:0:0:0:
320,192,87376,128,0,87578:0:0:0:0:
192,192,87477,128,0,87678:0:0:0:0:
64,192,87578,128,0,87779:0:0:0:0:
448,192,87678,128,0,87880:0:0:0:0:
320,192,87779,128,0,87980:0:0:0:0:
192,192,87880,128,0,88081:0:0:0:0:
64,192,88081,1,0,0:0:0:0:
448,192,88081,1,0,0:0:0:0:
320,192,88182,1,0,0:0:0:0:
192,192,88282,1,0,0:0:0:0:
64,192,88383,1,0,0:0:0:0:
320,192,88484,1,0,0:0:0:0:
448,192,88484,1,0,0:0:0:0:
192,192,88584,1,0,0:0:0:0:
448,192,88685,1,0,0:0:0:0:
320,192,88685,1,0,0:0:0:0:
64,192,88786,1,0,0:0:0:0:
320,192,88886,1,0,0:0:0:0:
192,192,88886,1,0,0:0:0:0:
448,192,88886,128,0,89088:0:0:0:0:
320,192,88987,128,0,89188:0:0:0:0:
64,192,89088,128,0,89289:0:0:0:0:
192,192,89188,128,0,89390:0:0:0:0:
320,192,89289,128,0,89490:0:0:0:0:
448,192,89390,128,0,89591:0:0:0:0:
192,192,89490,128,0,89692:0:0:0:0:
320,192,89692,1,0,0:0:0:0:
64,192,89692,128,0,89893:0:0:0:0:
448,192,89792,128,0,89994:0:0:0:0:
192,192,89893,128,0,90094:0:0:0:0:
320,192,89994,128,0,90195:0:0:0:0:
448,192,90094,128,0,90296:0:0:0:0:
64,192,90195,128,0,90396:0:0:0:0:
320,192,90296,128,0,90497:0:0:0:0:
192,192,90497,128,0,90698:0:0:0:0:
64,192,90497,1,0,0:0:0:0:
448,192,90598,128,0,90799:0:0:0:0:
320,192,90698,128,0,90900:0:0:0:0:
64,192,90799,128,0,91001:0:0:0:0:
192,192,90900,128,0,91101:0:0:0:0:
448,192,91001,128,0,91202:0:0:0:0:
320,192,91101,128,0,91303:0:0:0:0:
192,192,91303,1,0,0:0:0:0:
64,192,91303,1,0,0:0:0:0:
448,192,91353,1,0,0:0:0:0:
320,192,91403,1,0,0:0:0:0:
192,192,91454,1,0,0:0:0:0:
64,192,91504,1,0,0:0:0:0:
64,192,91705,1,0,0:0:0:0:
448,192,91705,1,0,0:0:0:0:
192,192,91756,1,0,0:0:0:0:
320,192,91806,1,0,0:0:0:0:
448,192,91856,1,0,0:0:0:0:
64,192,91907,1,0,0:0:0:0:
192,192,91907,1,0,0:0:0:0:
448,192,92007,1,0,0:0:0:0:
192,192,92108,1,0,0:0:0:0:
320,192,92108,1,0,0:0:0:0:
64,192,92108,128,0,92309:0:0:0:0:
192,192,92209,128,0,92410:0:0:0:0:
448,192,92309,128,0,92511:0:0:0:0:
320,192,92410,128,0,92611:0:0:0:0:
64,192,92511,128,0,92712:0:0:0:0:
192,192,92611,128,0,92813:0:0:0:0:
448,192,92712,128,0,92913:0:0:0:0:
64,192,92913,128,0,93115:0:0:0:0:
320,192,92913,1,0,0:0:0:0:
320,192,93014,128,0,93215:0:0:0:0:
192,192,93115,128,0,93316:0:0:0:0:
448,192,93215,128,0,93417:0:0:0:0:
64,192,93316,128,0,93517:0:0:0:0:
320,192,93417,128,0,93618:0:0:0:0:
192,192,93517,128,0,93719:0:0:0:0:
448,192,93719,128,0,93920:0:0:0:0:
64,192,93719,1,0,0:0:0:0:
320,192,93819,128,0,94021:0:0:0:0:
192,192,93920,128,0,94121:0:0:0:0:
64,192,94021,128,0,94222:0:0:0:0:
448,192,94121,128,0,94323:0:0:0:0:
320,192,94222,128,0,94423:0:0:0:0:
192,192,94323,128,0,94524:0:0:0:0:
64,192,94524,1,0,0:0:0:0:
448,192,94524,1,0,0:0:0:0:
320,192,94625,1,0,0:0:0:0:
64,192,94725,1,0,0:0:0:0:
192,192,94826,1,0,0:0:0:0:
320,192,94927,1,0,0:0:0:0:
448,192,94927,1,0,0:0:0:0:
192,192,95027,1,0,0:0:0:0:
448,192,95128,1,0,0:0:0:0:
64,192,95128,1,0,0:0:0:0:
320,192,95229,1,0,0:0:0:0:
192,192,95329,128,0,95531:0:0:0:0:
64,192,95329,1,0,0:0:0:0:
448,192,95430,128,0,95631:0:0:0:0:
64,192,95531,128,0,95732:0:0:0:0:
320,192,95631,128,0,95833:0:0:0:0:
192,192,95732,128,0,95933:0:0:0:0:
448,192,95833,128,0,96034:0:0:0:0:
64,192,95933,128,0,96135:0:0:0:0:
192,192,96135,1,0,0:0:0:0:
320,192,96135,128,0,96336:0:0:0:0:
448,192,96235,128,0,96437:0:0:0:0:
192,192,96336,128,0,96537:0:0:0:0:
64,192,96437,128,0,96638:0:0:0:0:
448,192,96537,128,0,96739:0:0:0:0:
320,192,96638,128,0,96839:0:0:0:0:
192,192,96739,128,0,96940:0:0:0:0:
448,192,96940,1,0,0:0:0:0:
64,192,96940,128,0,97141:0:0:0:0:
320,192,97041,128,0,97242:0:0:0:0:
192,192,97141,128,0,97343:0:0:0:0:
448,192,97242,128,0,97443:0:0:0:0:
320,192,97343,128,0,97544:0:0:0:0:
64,192,97443,128,0,97645:0:0:0:0:
192,192,97544,128,0,97745:0:0:0:0:
320,192,97745,1,0,0:0:0:0:
448,192,97745,1,0,0:0:0:0:
192,192,97846,1,0,0:0:0:0:
64,192,97846,1,0,0:0:0:0:
448,192,97947,1,0,0:0:0:0:
320,192,98047,1,0,0:0:0:0:
64,192,98047,1,0,0:0:0:0:
192,192,98148,1,0,0:0:0:0:
448,192,98148,1,0,0:0:0:0:
64,192,98249,1,0,0:0:0:0:
320,192,98349,1,0,0:0:0:0:
448,192,98349,1,0,0:0:0:0:
192,192,98450,1,0,0:0:0:0:
64,192,98450,1,0,0:0:0:0:
320,192,98551,1,0,0:0:0:0:
448,192,98551,128,0,98752:0:0:0:0:
320,192,98652,128,0,98853:0:0:0:0:
192,192,98752,128,0,98954:0:0:0:0:
64,192,98853,128,0,99054:0:0:0:0:
320,192,98954,128,0,99155:0:0:0:0:
448,192,99054,128,0,99256:0:0:0:0:
64,192,99155,1,0,0:0:0:0:
192,192,99256,1,0,0:0:0:0:
448,192,99356,1,0,0:0:0:0:
320,192,99356,128,0,99558:0:0:0:0:
64,192,99457,128,0,99658:0:0:0:0:
448,192,99558,128,0,99759:0:0:0:0:
192,192,99658,128,0,99860:0:0:0:0:
320,192,99759,128,0,99960:0:0:0:0:
64,192,99860,1,0,0:0:0:0:
448,192,99960,1,0,0:0:0:0:
320,192,100061,1,0,0:0:0:0:
192,192,100162,1,0,0:0:0:0:
64,192,100162,128,0,100363:0:0:0:0:
448,192,100262,128,0,100464:0:0:0:0:
192,192,100363,128,0,100564:0:0:0:0:
320,192,100464,128,0,100665:0:0:0:0:
448,192,100564,128,0,100766:0:0:0:0:
64,192,100665,1,0,0:0:0:0:
192,192,100766,1,0,0:0:0:0:
320,192,100866,1,0,0:0:0:0:
64,192,100967,1,0,0:0:0:0:
448,192,100967,1,0,0:0:0:0:
192,192,100967,1,0,0:0:0:0:
320,192,101068,1,0,0:0:0:0:
192,192,101168,1,0,0:0:0:0:
448,192,101269,1,0,0:0:0:0:
320,192,101370,1,0,0:0:0:0:
64,192,101370,1,0,0:0:0:0:
192,192,101470,1,0,0:0:0:0:
448,192,101571,1,0,0:0:0:0:
320,192,101571,1,0,0:0:0:0:
64,192,101672,1,0,0:0:0:0:
320,192,101772,1,0,0:0:0:0:
448,192,101772,1,0,0:0:0:0:
192,192,101772,128,0,101974:0:0:0:0:
320,192,101873,128,0,102074:0:0:0:0:
64,192,101974,128,0,102175:0:0:0:0:
448,192,102074,128,0,102276:0:0:0:0:
192,192,102175,128,0,102376:0:0:0:0:
320,192,102276,128,0,102477:0:0:0:0:
64,192,102376,1,0,0:0:0:0:
192,192,102477,1,0,0:0:0:0:
448,192,102578,1,0,0:0:0:0:
320,192,102578,128,0,102779:0:0:0:0:
192,192,102678,128,0,102880:0:0:0:0:
64,192,102779,128,0,102980:0:0:0:0:
448,192,102880,128,0,103081:0:0:0:0:
320,192,102980,128,0,103182:0:0:0:0:
192,192,103081,128,0,103282:0:0:0:0:
448,192,103182,1,0,0:0:0:0:
320,192,103282,1,0,0:0:0:0:
192,192,103383,1,0,0:0:0:0:
448,192,103383,128,0,103584:0:0:0:0:
64,192,103484,128,0,103685:0:0:0:0:
320,192,103584,128,0,103786:0:0:0:0:
192,192,103685,128,0,103886:0:0:0:0:
448,192,103786,128,0,103987:0:0:0:0:
64,192,103886,128,0,104088:0:0:0:0:
320,192,103987,1,0,0:0:0:0:
192,192,104088,1,0,0:0:0:0:
320,192,104188,1,0,0:0:0:0:
448,192,104188,1,0,0:0:0:0:
64,192,104239,1,0,0:0:0:0:
192,192,104289,1,0,0:0:0:0:
320,192,104339,1,0,0:0:0:0:
448,192,104390,1,0,0:0:0:0:
448,192,104591,1,0,0:0:0:0:
64,192,104591,1,0,0:0:0:0:
320,192,104641,1,0,0:0:0:0:
192,192,104692,1,0,0:0:0:0:
64,192,104742,1,0,0:0:0:0:
448,192,104792,1,0,0:0:0:0:
320,192,104792,1,0,0:0:0:0:
64,192,104893,1,0,0:0:0:0:
192,192,104994,1,0,0:0:0:0:
320,192,104994,1,0,0:0:0:0:
448,192,104994,128,0,105195:0:0:0:0:
320,192,105094,128,0,105296:0:0:0:0:
192,192,105195,128,0,105396:0:0:0:0:
64,192,105296,128,0,105497:0:0:0:0:
320,192,105396,1,0,0:0:0:0:
192,192,105497,1,0,0:0:0:0:
320,192,105598,1,0,0:0:0:0:
192,192,105698,1,0,0:0:0:0:
320,192,105799,1,0,0:0:0:0:
448,192,105799,1,0,0:0:0:0:
64,192,105799,128,0,106001:0:0:0:0:
192,192,105900,128,0,106101:0:0:0:0:
320,192,106001,128,0,106202:0:0:0:0:
448,192,106101,128,0,106303:0:0:0:0:
192,192,106202,1,0,0:0:0:0:
320,192,106303,1,0,0:0:0:0:
192,192,106403,1,0,0:0:0:0:
320,192,106504,1,0,0:0:0:0:
64,192,106605,1,0,0:0:0:0:
448,192,106605,1,0,0:0:0:0:
192,192,106605,128,0,106806:0:0:0:0:
448,192,106705,128,0,106907:0:0:0:0:
64,192,106806,128,0,107007:0:0:0:0:
320,192,106907,128,0,107108:0:0:0:0:
192,192,107007,1,0,0:0:0:0:
448,192,107108,1,0,0:0:0:0:
320,192,107209,1,0,0:0:0:0:
64,192,107309,1,0,0:0:0:0:
192,192,107410,1,0,0:0:0:0:
320,192,107410,128,0,107611:0:0:0:0:
448,192,107511,128,0,107712:0:0:0:0:
64,192,107611,128,0,107813:0:0:0:0:
192,192,107712,128,0,107913:0:0:0:0:
448,192,107813,1,0,0:0:0:0:
320,192,107813,1,0,0:0:0:0:
64,192,107913,1,0,0:0:0:0:
320,192,108014,1,0,0:0:0:0:
448,192,108014,1,0,0:0:0:0:
64,192,108115,1,0,0:0:0:0:
192,192,108215,1,0,0:0:0:0:
320,192,108215,1,0,0:0:0:0:
448,192,108215,128,0,108417:0:0:0:0:
64,192,108316,128,0,108517:0:0:0:0:
320,192,108417,128,0,108618:0:0:0:0:
192,192,108517,128,0,108719:0:0:0:0:
64,192,108618,128,0,108819:0:0:0:0:
320,192,108719,1,0,0:0:0:0:
192,192,108819,1,0,0:0:0:0:
64,192,108920,1,0,0:0:0:0:
320,192,109021,1,0,0:0:0:0:
448,192,109021,128,0,109222:0:0:0:0:
64,192,109121,128,0,109323:0:0:0:0:
192,192,109222,128,0,109423:0:0:0:0:
320,192,109323,128,0,109524:0:0:0:0:
448,192,109423,128,0,109625:0:0:0:0:
192,192,109524,1,0,0:0:0:0:
320,192,109625,1,0,0:0:0:0:
448,192,109725,1,0,0:0:0:0:
192,192,109826,1,0,0:0:0:0:
64,192,109826,1,0,0:0:0:0:
320,192,109927,1,0,0:0:0:0:
448,192,109927,1,0,0:0:0:0:
64,192,110027,1,0,0:0:0:0:
192,192,110128,1,0,0:0:0:0:
448,192,110128,1,0,0:0:0:0:
64,192,110229,1,0,0:0:0:0:
320,192,110229,1,0,0:0:0:0:
192,192,110329,1,0,0:0:0:0:
320,192,110430,1,0,0:0:0:0:
448,192,110430,1,0,0:0:0:0:
192,192,110531,1,0,0:0:0:0:
64,192,110531,1,0,0:0:0:0:
448,192,110631,1,0,0:0:0:0:
320,192,110631,1,0,0:0:0:0:
64,192,110732,1,0,0:0:0:0:
320,192,110833,1,0,0:0:0:0:
448,192,110833,1,0,0:0:0:0:
192,192,110933,1,0,0:0:0:0:
64,192,110933,1,0,0:0:0:0:
320,192,111034,1,0,0:0:0:0:
448,192,111034,1,0,0:0:0:0:
192,192,111135,1,0,0:0:0:0:
320,192,111235,1,0,0:0:0:0:
448,192,111235,1,0,0:0:0:0:
64,192,111336,1,0,0:0:0:0:
192,192,111437,1,0,0:0:0:0:
320,192,111437,1,0,0:0:0:0:
448,192,111437,128,0,111638:0:0:0:0:
320,192,111537,128,0,111739:0:0:0:0:
192,192,111638,128,0,111839:0:0:0:0:
64,192,111739,128,0,111940:0:0:0:0:
320,192,111839,128,0,112041:0:0:0:0:
448,192,111940,128,0,112141:0:0:0:0:
64,192,112041,128,0,112242:0:0:0:0:
320,192,112242,1,0,0:0:0:0:
192,192,112242,1,0,0:0:0:0:
448,192,112292,1,0,0:0:0:0:
320,192,112343,1,0,0:0:0:0:
192,192,112393,1,0,0:0:0:0:
64,192,112443,1,0,0:0:0:0:
448,192,112494,1,0,0:0:0:0:
320,192,112544,1,0,0:0:0:0:
192,192,112594,1,0,0:0:0:0:
64,192,112645,1,0,0:0:0:0:
192,192,112695,1,0,0:0:0:0:
320,192,112745,1,0,0:0:0:0:
448,192,112796,1,0,0:0:0:0:
64,192,112846,1,0,0:0:0:0:
192,192,112896,1,0,0:0:0:0:
320,192,112947,1,0,0:0:0:0:
448,192,112997,1,0,0:0:0:0:
64,192,113047,128,0,117880:0:0:0:0:
192,192,113047,128,0,117880:0:0:0:0:
320,192,113047,128,0,117880:0:0:0:0:
