osu file format v9

[General]
AudioFilename: 06 snow blind (album version).mp3
AudioLeadIn: 0
PreviewTime: 102252
Countdown: 0
SampleSet: Soft
StackLeniency: 0.4
Mode: 0
LetterboxInBreaks: 1

[Editor]
Bookmarks: 6874,25515,44155,62796,81437,102408,121049,142019,158330,176971,197942,216583,235223
DistanceSpacing: 1
BeatDivisor: 4
GridSize: 4

[Metadata]
Title:snow blind (album version)
Artist:fripSide
Creator:ykcarrot
Version:Normal
Source:
Tags:nao split tears

[Difficulty]
HPDrainRate:4
CircleSize:4
OverallDifficulty:4
ApproachRate:4
SliderMultiplier:1.2
SliderTickRate:1

[Events]
//Background and Video events
0,0,"BG.jpg"
//Break Periods
2,142219,147690
//Storyboard Layer 0 (Background)
//Storyboard Layer 1 (Fail)
//Storyboard Layer 2 (Pass)
//Storyboard Layer 3 (Foreground)
//Storyboard Sound Samples
//Background Colour Transformations
3,100,0,0,0

[TimingPoints]
-116,582.52427184466,4,2,1,0,1,0
1704,-100,4,2,1,4,0,0
1777,-100,4,2,1,8,0,0
1850,-100,4,2,1,12,0,0
1922,-100,4,2,1,16,0,0
1995,-100,4,2,1,20,0,0
2068,-100,4,2,1,24,0,0
2141,-100,4,2,1,28,0,0
2214,-100,4,2,1,32,0,0
2286,-100,4,2,1,36,0,0
2359,-100,4,2,1,40,0,0
6583,-100,4,2,1,42,0,0
6655,-100,4,2,1,44,0,0
6728,-100,4,2,1,46,0,0
6801,-100,4,2,1,48,0,0
6874,-100,4,2,1,50,0,0
9641,-100,4,1,1,40,0,0
10223,-100,4,2,1,25,0,0
10515,-100,4,2,1,35,0,0
11243,-100,4,2,1,50,0,0
11971,-100,4,1,1,40,0,0
12553,-100,4,2,1,25,0,0
12845,-100,4,2,1,35,0,0
13573,-100,4,2,1,40,0,0
15903,-100,4,2,1,50,0,0
16631,-100,4,1,1,40,0,0
17214,-100,4,2,1,25,0,0
17505,-100,4,2,1,35,0,0
18233,-100,4,2,1,50,0,0
18961,-100,4,1,1,40,0,0
19544,-100,4,2,1,25,0,0
19835,-100,4,2,1,35,0,0
20563,-100,4,2,1,50,0,0
21437,-100,4,2,1,40,0,0
22019,-100,4,2,1,35,0,0
22893,-100,4,2,1,40,0,0
25223,-100,4,2,1,50,0,0
44592,-100,4,1,1,50,0,0
45466,-100,4,2,1,50,0,0
49252,-100,4,1,1,50,0,0
50126,-100,4,2,1,50,0,0
81146,-100,4,2,1,60,0,0
83913,-100,4,1,1,60,0,0
84204,-100,4,2,1,60,0,0
90320,-100,4,1,1,60,0,0
90612,-100,4,2,1,60,0,0
93233,-100,4,1,1,60,0,0
93524,-100,4,2,1,60,0,0
99641,-100,4,1,1,60,0,0
99932,-133.333333333333,4,1,2,10,0,0
101388,-133.333333333333,4,1,2,25,0,0
101534,-133.333333333333,4,1,2,30,0,0
101680,-133.333333333333,4,1,2,35,0,0
101825,-133.333333333333,4,1,2,40,0,0
102408,-100,4,2,2,70,0,1
111291,-100,4,1,1,70,0,1
111583,-100,4,2,2,70,0,1
120466,-100,4,2,2,70,0,0
120612,-100,4,1,1,70,0,0
121049,-100,4,2,2,70,0,1
129932,-100,4,1,1,70,0,1
130223,-100,4,2,2,70,0,1
142019,-100,4,2,2,70,0,0
148718,-100,4,2,2,65,0,0
157893,-100,4,1,1,65,0,0
158184,-100,4,2,2,65,0,0
179447,-100,4,1,1,65,0,0
179738,-100,4,2,2,65,0,0
185854,-100,4,1,1,65,0,0
186146,-100,4,2,2,65,0,0
188767,-100,4,1,1,65,0,0
189058,-100,4,2,2,65,0,0
195175,-100,4,1,1,65,0,0
195466,-133.333333333333,4,1,2,10,0,0
196922,-133.333333333333,4,1,2,25,0,0
197068,-133.333333333333,4,1,2,30,0,0
197214,-133.333333333333,4,1,2,35,0,0
197359,-133.333333333333,4,1,2,40,0,0
197942,-100,4,2,2,70,0,1
206825,-100,4,1,1,70,0,1
207117,-100,4,2,2,70,0,1
212942,-100,4,2,1,70,0,1
213233,-100,4,2,2,70,0,1
215999,-100,4,2,2,70,0,0
216146,-100,4,1,1,70,0,0
216583,-100,4,2,2,70,0,1
225466,-100,4,1,1,70,0,1
225757,-100,4,2,2,70,0,1
237553,-100,4,2,2,70,0,0

[Colours]
Combo1 : 213,228,255
Combo2 : 255,255,255
Combo3 : 213,248,255
Combo4 : 213,214,255

[HitObjects]
256,192,1631,12,4,6874
256,56,7748,6,0,B|220:136|292:136|256:232,1,180,0|2
196,332,9204,2,0,B|104:332|132:244|28:256,2,180,2|0|2
316,332,11534,2,0,B|408:332|380:244|484:256,2,180,2|0|2
196,332,13864,5,2
92,272,14447,1,0
92,152,15029,1,2
196,92,15612,1,0
196,212,16194,6,0,B|156:304|52:304,2,180,2|0|2
316,212,18524,2,0,B|356:304|460:304,2,180,2|0|2
256,108,20854,5,2
164,268,21728,1,0
348,268,22602,1,2
348,148,23184,5,2
256,224,23767,1,0
164,148,24350,1,2
376,260,25515,6,0,B|488:260,2,90,2|0|0
256,260,26971,2,0,B|256:184,1,60
136,200,27845,6,0,B|36:200,2,90,2|0|0
256,200,29301,2,0,B|256:124,1,60,0|8
376,140,30175,6,0,B|488:140,2,90,2|0|0
256,140,31631,2,0,B|256:64,2,60
256,200,32505,5,2
160,272,33087,1,0
256,344,33670,1,0
352,272,34252,1,8
332,152,34835,5,0
256,200,35272,1,0
180,152,35709,2,0,B|112:152|84:220,1,120
86,214,36583,1,0
180,292,37165,5,2
256,244,37602,1,0
332,292,38039,2,0,B|400:292|428:224,1,120
425,229,38913,1,8
424,108,39495,5,2
256,44,40369,1,0
88,108,41243,1,0
172,192,41825,5,2
256,108,42408,1,0
340,192,42990,1,0
256,276,43573,1,8
152,340,44155,6,0,B|108:364|64:340,1,90,4|0
108,260,45029,2,0,B|108:120,1,120
108,80,45903,1,0
152,36,46194,1,0
212,36,46485,5,2
316,96,47068,1,0
212,156,47650,1,0
316,216,48233,1,8
424,268,48816,6,0,B|448:312|424:356,1,90,2|0
344,312,49689,2,0,B|204:312,1,120
164,312,50563,1,0
120,268,50854,1,0
120,208,51146,5,2
196,116,51728,1,0
316,116,52311,1,0
392,208,52893,1,8
328,312,53476,6,0,B|356:348|412:348,2,90,2|0|0
328,72,55515,1,0
328,72,55806,2,0,B|356:36|412:36,2,90,2|0|0
292,120,56971,2,0,B|156:120,1,120,0|8
112,120,57845,5,0
68,160,58136,1,2
172,220,58718,1,0
68,280,59301,1,0
172,340,59883,1,0
256,256,60466,6,0,B|256:152,2,90,2|2|2
204,288,61631,2,0,B|228:316|256:320|284:316|308:288,1,120,2|8
352,248,62505,5,0
376,192,62796,2,0,B|488:192,2,90,2|0|0
256,192,64252,2,0,B|256:252,2,60
256,132,65126,5,2
156,64,65709,1,0
56,132,66291,1,0
56,252,66874,1,8
156,320,67456,6,0,B|136:368|80:368,2,90,2|0|0
204,208,68913,2,0,B|228:176|284:176|308:208,1,120
348,252,69786,5,2
468,252,70369,1,0
408,148,70951,1,0
288,148,71534,1,8
196,72,72117,6,0,B|152:48|108:72,2,90,2|2|2
196,312,74155,1,0
196,312,74447,2,0,B|152:336|108:312,2,90,2|0|0
256,300,75612,2,0,B|256:176,1,120,0|8
256,120,76485,5,0
300,80,76777,1,2
408,132,77359,1,0
408,252,77942,1,0
300,304,78524,1,0
256,192,79107,6,0,B|360:192,2,90,2|2|2
224,244,80272,2,0,B|196:220|192:192|196:164|224:140,1,120,2|8
256,88,81146,5,0
316,88,81437,1,2
380,192,82019,1,0
316,296,82602,1,0
196,296,83184,2,0,B|136:296,2,60,0|0|2
224,244,84058,2,0,B|260:216|260:168|224:140,1,120,2|0
52,192,85515,1,8
112,192,85806,5,0
136,248,86097,1,2
256,248,86680,1,0
375,248,87262,1,0
336,132,87845,2,0,B|404:132,2,60,0|0|2
308,80,88718,2,0,B|280:44|232:44|204:80,1,120
256,248,90175,1,8
256,308,90466,5,2
196,308,90757,2,0,B|168:296|152:264,1,60,2|0
92,264,91340,2,0,B|68:244|68:208,1,60
8,208,91922,2,0,B|8:148|60:96,1,120
96,60,92796,5,0
156,60,93087,2,0,B|156:96|176:120,1,60,2|2
136,164,93670,2,0,B|148:200|184:216,1,60
188,268,94252,2,0,B|244:304|300:268,1,120,0|8
352,236,95126,5,0
412,236,95417,2,0,B|412:168|412:168|412:64|304:64,1,240,2|0
256,100,96874,2,0,B|256:168,2,60
208,64,97748,2,0,B|100:64|100:168|100:168|100:240,1,240,2|0
160,236,99204,2,0,B|240:236,1,60,0|8
280,236,99786,5,2
280,236,100078,2,0,B|344:236|344:236|392:236|404:192|392:148|344:148|344:148|280:148,1,269.999991953373,0|8
160,148,102408,5,4
60,216,102990,1,8
96,332,103573,1,0
216,332,104155,1,8
256,288,104447,1,0
296,332,104738,2,0,B|360:332|408:280,2,120,0|8|0
256,220,106485,5,10
220,172,106777,1,0
184,124,107068,2,0,B|120:124|84:180,2,120,0|8|0
256,220,108816,1,8
292,172,109107,1,0
328,124,109398,2,0,B|392:124|428:180,1,120,0|8
448,236,110272,1,0
428,292,110563,2,0,B|392:348|328:348,1,120,0|10
268,348,111437,5,2
208,348,111728,2,0,B|68:348,2,120,4|8|0
208,228,113476,1,8
268,228,113767,1,0
328,228,114058,2,0,B|456:228,2,120,0|8|0
328,108,115806,5,10
328,108,116097,1,0
328,108,116388,2,0,B|188:108,1,120,0|8
148,108,117262,1,0
148,108,117553,2,0,B|56:116|56:268|148:276,2,240,0|0|0
188,152,120175,1,0
232,192,120466,1,10
276,232,120757,5,2
276,232,121049,2,0,B|332:272|388:232,1,120,4|8
332,124,122214,1,0
256,32,122796,1,8
212,72,123087,1,0
168,32,123379,2,0,B|96:32|60:96,2,120,0|8|0
256,112,125126,5,10
308,140,125417,1,0
360,168,125709,2,0,B|420:188|420:148|480:168,2,120,0|8|0
256,112,127456,1,8
204,140,127748,1,0
152,168,128039,2,0,B|92:188|92:148|32:168,1,120,0|8
0,216,128913,1,0
36,264,129204,2,0,B|96:284|96:244|156:264,1,120,0|10
204,292,130078,5,2
264,292,130369,2,0,B|320:292|320:240|372:240,1,120,4|8
428,240,131243,2,0,B|496:240,1,60
488,120,132117,1,8
428,120,132408,1,0
368,120,132699,2,0,B|320:120|320:68|264:68,1,120,0|8
204,68,133573,2,0,B|136:68,1,60
72,164,134447,6,0,B|48:192|72:220,2,60,10|0|0
192,192,135612,1,8
192,192,135903,1,0
192,192,136194,2,0,B|320:192,1,120,0|8
420,248,137359,2,0,B|448:216|448:168|420:136,4,120,0|8|0|10|4
256,192,139835,12,0,142019
136,92,149010,6,0,B|136:160|192:192|192:192|136:224|136:296,2,240,4|0|0
256,92,151922,1,8
256,92,152214,1,0
256,92,152505,2,0,B|256:20,2,60,0|0|10
376,92,153670,6,0,B|376:160|320:192|320:192|376:224|376:296,2,240
256,92,156583,1,8
256,92,156874,1,0
256,92,157165,2,0,B|256:172,1,60
256,212,157748,2,0,B|256:284,1,60,10|2
256,332,158330,6,0,B|200:368|144:332,1,120,4|8
92,300,159204,1,0
60,248,159495,2,0,B|24:192|60:136,1,120,0|8
92,84,160369,1,0
144,52,160660,5,0
264,52,161243,1,8
204,156,161825,1,0
84,156,162408,1,10
144,260,162990,6,0,B|176:320|244:320,1,120,0|8
300,320,163864,1,0
360,320,164155,2,0,B|428:316|456:260,1,120,0|8
480,204,165029,1,0
480,144,165320,5,0
360,144,165903,1,8
316,256,166485,1,0
196,256,167068,1,10
152,144,167650,6,0,B|92:144,2,60,0|0|8
152,83,168524,1,0
200,48,168816,2,0,B|256:12|312:48,1,120,0|8
360,84,169689,1,0
312,120,169981,2,0,B|256:156|200:120,3,120,0|8|0|10
152,84,172019,5,0
104,120,172311,1,0
84,240,172893,1,8
136,348,173476,1,0
256,360,174058,1,8
376,348,174641,6,0,B|436:316|436:252,1,120,0|8
440,192,175515,1,0
436,132,175806,2,0,B|436:68|376:36,1,120,0|10
316,24,176680,5,0
256,24,176971,1,4
196,128,177553,1,8
316,128,178136,1,0
256,232,178718,1,8
196,232,179010,1,0
144,262,179301,6,0,B|144:298|176:318,2,60,0|2|8
144,201,180175,2,0,B|144:165|176:145,2,60
196,232,181049,1,10
256,232,181340,5,0
316,232,181631,1,0
400,320,182214,1,8
484,232,182796,1,0
400,144,183379,1,8
400,84,183670,1,0
370,31,183961,6,0,B|334:31|314:63,2,60,0|0|8
431,31,184835,2,0,B|467:31|487:63,2,60
400,84,185709,1,10
400,144,186000,6,0,B|400:176|384:208,1,60,2|4
376,260,186583,1,0
376,320,186874,2,0,B|440:348|440:292|496:320,2,120,8|0|8
316,320,188330,6,0,B|256:320,1,60
196,320,188913,1,2
136,320,189204,2,0,B|72:348|72:292|16:320,2,120,8|0|10
136,260,190660,5,0
136,200,190951,2,0,B|136:96|136:96|136:64|152:40|204:40|220:64|220:92,1,240
256,140,192408,2,0,B|256:224,2,60,0|8|0
292,92,193282,2,0,B|292:64|308:40|360:40|376:64|376:96|376:96|376:204,1,240
376,260,194738,2,0,B|312:260,1,60,0|10
256,260,195320,5,2
256,260,195612,2,0,B|232:260|232:260|136:260|136:124|232:124|232:124|256:124,1,269.999991953373,0|8
376,80,197942,6,0,B|412:136|376:192,1,120,4|8
376,304,199107,2,0,B|412:248|376:192,1,120,0|8
316,192,199981,1,0
256,192,200272,2,0,B|136:192,2,120,0|8|0
256,72,202019,6,0,B|256:0,2,60,10|0|0
256,192,203184,1,8
287,307,203767,2,0,B|335:307|367:271,2,90
226,307,204932,2,0,B|178:307|146:271,2,90
256,256,206097,2,0,B|256:124,1,120,0|10
196,136,206971,5,2
196,136,207262,2,0,B|112:156|112:300|196:320,1,240,4|0
316,320,209010,1,8
316,320,209301,1,0
316,320,209592,2,0,B|400:300|400:156|316:136,1,240
256,32,211340,5,10
256,32,211631,1,0
256,32,211922,2,0,B|304:92|208:140|256:200,2,180,0|0|8
136,32,214252,2,0,B|68:52|68:128,1,120,0|8
24,160,215126,2,0,B|24:188|48:220,1,60
44,276,215709,2,0,B|60:308|96:308,1,60,0|10
152,308,216291,5,2
152,308,216583,2,0,B|196:256|256:256,1,120,4|8
360,308,217748,2,0,B|316:256|256:256,1,120,0|8
256,196,218621,1,0
256,136,218913,2,0,B|256:12,2,120,0|8|0
360,192,220660,6,0,B|440:192,2,60,10|0|0
256,252,221825,1,8
152,192,222408,2,0,B|104:192|72:232,2,90
200,156,223573,2,0,B|200:108|160:76,2,90
248,192,224738,2,0,B|312:192|348:132,1,120,0|10
384,88,225612,5,2
384,88,225903,2,0,B|448:112|448:188,1,120,4|8
448,240,226777,2,0,B|448:300,1,60
340,348,227650,1,8
280,344,227942,1,0
224,328,228233,2,0,B|160:312|136:248,1,120,0|8
136,192,229107,2,0,B|136:124,1,60
256,132,229981,5,10
256,132,230272,1,0
256,132,230563,2,0,B|292:180|292:244|220:244|220:308|256:356,2,240
136,132,233476,1,8
196,28,234058,1,0
316,28,234641,1,10
376,132,235223,1,4
256,192,235369,12,0,237553
