osu file format v9

[General]
AudioFilename: 06 snow blind (album version).mp3
AudioLeadIn: 0
PreviewTime: 102252
Countdown: 0
SampleSet: Normal
StackLeniency: 0.4
Mode: 0
LetterboxInBreaks: 1

[Editor]
Bookmarks: 6874,25515,44155,62796,81437,102408,121049,142019,158330,176971,197942,216583,235223
DistanceSpacing: 1
BeatDivisor: 4
GridSize: 4

[Metadata]
Title:snow blind (album version)
Artist:fripSide
Creator:ykcarrot
Version:Hard
Source:
Tags:nao split tears

[Difficulty]
HPDrainRate:6
CircleSize:5
OverallDifficulty:6
ApproachRate:7
SliderMultiplier:1.6
SliderTickRate:1

[Events]
//Background and Video events
0,0,"BG.jpg"
//Break Periods
2,142219,148110
//Storyboard Layer 0 (Background)
//Storyboard Layer 1 (Fail)
//Storyboard Layer 2 (Pass)
//Storyboard Layer 3 (Foreground)
//Storyboard Sound Samples
//Background Colour Transformations
3,100,0,0,0

[TimingPoints]
-116,582.52427184466,4,2,1,0,1,0
1704,-100,4,2,1,4,0,0
1777,-100,4,2,1,8,0,0
1850,-100,4,2,1,12,0,0
1922,-100,4,2,1,16,0,0
1995,-100,4,2,1,20,0,0
2068,-100,4,2,1,24,0,0
2141,-100,4,2,1,28,0,0
2214,-100,4,2,1,32,0,0
2286,-100,4,2,1,36,0,0
2359,-100,4,2,1,40,0,0
6583,-100,4,2,1,42,0,0
6655,-100,4,2,1,44,0,0
6728,-100,4,2,1,46,0,0
6801,-100,4,2,1,48,0,0
6874,-100,4,2,1,50,0,0
7893,-100,4,2,1,40,0,0
8184,-100,4,2,1,35,0,0
9058,-100,4,2,1,50,0,0
10223,-100,4,2,1,40,0,0
10515,-100,4,2,1,35,0,0
11388,-100,4,2,1,50,0,0
12553,-100,4,2,1,40,0,0
12845,-100,4,2,1,35,0,0
13718,-100,4,2,1,40,0,0
16049,-100,4,2,1,50,0,0
17214,-100,4,2,1,40,0,0
17505,-100,4,2,1,35,0,0
18379,-100,4,2,1,50,0,0
19544,-100,4,2,1,40,0,0
19835,-100,4,2,1,35,0,0
20709,-100,4,2,1,50,0,0
23039,-100,4,2,1,40,0,0
25369,-100,4,1,1,50,0,0
44010,-100,4,2,1,50,0,0
54786,-100,4,2,1,0,0,0
55225,-100,4,2,1,50,0,0
73427,-100,4,2,1,0,0,0
73864,-100,4,2,1,50,0,0
81291,-100,4,2,1,60,0,0
83913,-100,4,1,1,60,0,0
84204,-100,4,2,1,60,0,0
90320,-100,4,1,1,60,0,0
90612,-100,4,2,1,60,0,0
93233,-100,4,1,1,60,0,0
93524,-100,4,2,1,60,0,0
99641,-100,4,1,1,60,0,0
99932,-200,4,1,2,10,0,0
101388,-200,4,1,2,25,0,0
101534,-200,4,1,2,30,0,0
101680,-200,4,1,2,35,0,0
101825,-200,4,1,2,40,0,0
102408,-80,4,2,2,70,0,1
104883,-80,4,1,1,70,0,1
105175,-80,4,2,2,70,0,1
111291,-80,4,1,1,70,0,1
111583,-80,4,2,2,70,0,1
114204,-80,4,1,1,70,0,1
114495,-80,4,2,2,70,0,1
120466,-80,4,2,2,70,0,0
120612,-80,4,1,1,70,0,0
121049,-80,4,2,2,70,0,1
123524,-80,4,1,1,70,0,1
123816,-80,4,2,2,70,0,1
129932,-80,4,1,1,70,0,1
130223,-80,4,2,2,70,0,1
132845,-80,4,1,1,70,0,1
133136,-80,4,2,2,70,0,1
139252,-80,4,1,1,70,0,1
139544,-80,4,2,2,70,0,1
142019,-80,4,2,2,70,0,0
148718,-89.2857142857143,4,2,2,65,0,0
157893,-89.2857142857143,4,1,1,65,0,0
158184,-89.2857142857143,4,2,2,65,0,0
179447,-89.2857142857143,4,1,1,65,0,0
179738,-89.2857142857143,4,2,2,65,0,0
185854,-89.2857142857143,4,1,1,65,0,0
186146,-89.2857142857143,4,2,2,65,0,0
188767,-89.2857142857143,4,1,1,65,0,0
189058,-89.2857142857143,4,2,2,65,0,0
195175,-89.2857142857143,4,1,1,65,0,0
195466,-200,4,1,2,10,0,0
196922,-200,4,1,2,25,0,0
197068,-200,4,1,2,30,0,0
197214,-200,4,1,2,35,0,0
197359,-200,4,1,2,40,0,0
197942,-80,4,2,2,70,0,1
200417,-80,4,1,1,70,0,1
200709,-80,4,2,2,70,0,1
206825,-80,4,1,1,70,0,1
207117,-80,4,2,2,70,0,1
209738,-80,4,1,1,70,0,1
210029,-80,4,2,2,70,0,1
216000,-80,4,2,2,70,0,0
216146,-80,4,1,1,70,0,0
216583,-80,4,2,2,70,0,1
219058,-80,4,1,1,70,0,1
219350,-80,4,2,2,70,0,1
225466,-80,4,1,1,70,0,1
225757,-80,4,2,2,70,0,1
228379,-80,4,1,1,70,0,1
228670,-80,4,2,2,70,0,1
234786,-80,4,1,1,70,0,1
235078,-80,4,2,2,70,0,1
237553,-80,4,2,2,70,0,0

[Colours]
Combo1 : 213,228,255
Combo2 : 255,255,255
Combo3 : 213,248,255
Combo4 : 213,214,255

[HitObjects]
256,192,1631,12,4,6874
256,72,7311,6,0,B|256:200,1,120
256,272,8039,1,0
324,232,8330,2,0,B|372:232|392:192,2,80,0|2|0
256,192,9204,6,0,B|256:64,2,120,2|0|0
256,272,10369,1,0
188,232,10660,2,0,B|140:232|120:192,1,80,0|2
204,52,11534,6,0,B|224:24|256:24|288:24|308:52,2,120,2|0|0
256,112,12699,1,0
256,192,12990,2,0,B|256:280,2,80,0|2|0
324,236,13864,5,2
296,312,14447,1,0
216,312,15029,1,2
188,236,15612,1,0
256,192,16194,5,2
352,120,16631,1,0
448,192,17068,2,0,B|448:240|416:268,1,80
360,320,17650,1,0
296,368,17942,1,2
216,368,18233,1,0
152,320,18524,5,2
40,280,18961,1,0
40,160,19398,2,0,B|56:140|96:140|112:160,1,80
176,208,19981,1,0
216,276,20272,1,2
296,276,20563,1,0
336,208,20854,6,0,B|380:132|336:56,1,160,2|0
256,40,21728,1,0
176,56,22019,2,0,B|132:132|176:208,1,160,2|0
324,268,23184,5,2
256,308,23767,1,0
188,268,24350,1,2
256,132,25515,6,0,B|256:72,4,40
336,224,26534,1,0
336,224,26680,1,0
296,296,26971,1,0
216,296,27262,1,0
176,224,27553,1,2
256,224,27845,5,0
296,156,28136,2,0,B|344:156,2,40,2|0|0
216,156,28718,2,0,B|168:156,2,40,0|0|0
188,80,29301,1,0
256,36,29592,1,8
324,80,29883,1,0
392,124,30175,6,0,B|420:88,4,40,0|0|0|0|0
324,224,31194,1,0
324,224,31340,1,0
324,304,31631,2,0,B|364:328|400:304,2,80,0|0|2
256,264,32505,6,0,B|212:288|212:344,2,80
256,184,33379,1,0
256,184,33524,1,0
256,184,33670,2,0,B|300:160|300:104,1,80,0|0
256,52,34252,2,0,B|212:76|212:132,1,80,8|2
168,184,34835,6,0,B|132:148,4,40,0|0|0|0|0
252,272,35854,1,0
252,272,36000,2,0,B|212:248|176:272,1,80
176,352,36583,2,0,B|216:376|252:352,1,80,0|2
320,312,37165,5,0
392,276,37456,1,2
392,276,37602,1,0
392,276,37748,1,0
428,204,38039,1,0
428,204,38184,1,0
428,204,38330,1,0
428,124,38621,2,0,B|472:124|500:164,2,80,0|8|0
348,124,39495,6,0,B|348:76,4,40
348,244,40515,1,0
348,244,40660,2,0,B|392:244|416:204,2,80
288,192,41534,1,2
236,132,41825,5,0
168,92,42117,1,0
100,132,42408,1,0
48,192,42699,2,0,B|-8:192,2,40
100,252,43282,1,0
168,292,43573,1,8
236,252,43864,1,2
288,192,44155,5,4
372,104,44592,1,0
456,192,45029,2,0,B|456:296|364:320,1,160
300,340,45903,1,0
224,316,46194,1,0
148,284,46485,5,2
76,252,47068,1,0
148,220,47650,1,0
76,188,48233,1,8
148,156,48816,5,2
256,208,49252,1,0
364,156,49689,2,0,B|340:68|244:68,1,160
168,68,50563,1,0
100,112,50854,1,0
76,188,51146,5,2
148,220,51728,1,0
76,252,52311,1,0
148,284,52893,1,8
76,316,53476,6,0,B|96:356|148:356,1,80,2|0
180,344,53913,2,0,B|216:320|256:344,1,80
292,356,54350,2,0,B|372:336|400:240,1,160
428,88,55515,5,0
428,88,55660,1,0
428,88,55806,1,2
332,160,56243,1,0
212,160,56680,1,0
184,236,56971,2,0,B|156:284|76:284|48:236,1,160,0|8
24,160,57845,5,0
104,160,58136,1,2
176,304,58718,1,0
336,304,59301,1,0
408,160,59883,1,0
256,212,60466,6,0,B|256:352,2,120,2|2|2
192,164,61631,2,0,B|208:124|256:112|304:124|320:164,1,160,2|8
356,236,62505,5,0
356,236,62796,2,0,B|424:236|452:168,2,120,2|0|0
196,236,64252,2,0,B|160:216|120:236,2,80
268,272,65126,5,2
328,324,65709,1,0
408,324,66291,1,0
468,272,66874,1,8
468,192,67456,5,2
368,260,67893,1,0
268,192,68330,2,0,B|196:252|124:192,2,160
268,112,69786,5,2
328,60,70369,1,0
408,60,70951,1,0
468,112,71534,1,8
468,192,72117,6,0,B|448:232|400:232,1,80,2|0
364,232,72553,2,0,B|320:252|320:300,1,80,2|0
320,332,72990,2,0,B|244:376|168:332,1,160,2|0
44,232,74155,5,0
44,232,74301,1,0
44,232,74447,1,2
96,124,74883,1,0
216,124,75320,1,0
280,76,75612,2,0,B|356:32|432:76,1,160,0|8
496,124,76485,5,0
432,172,76777,1,2
336,300,77359,1,0
176,300,77942,1,0
80,172,78524,1,0
204,68,79107,6,0,B|224:36|288:36|308:68,2,120,2|2|2
256,128,80272,2,0,B|256:292,1,160,2|8
256,368,81146,5,0
324,328,81437,1,2
188,248,82019,1,0
324,168,82602,1,0
188,88,83184,1,0
256,48,83476,1,0
324,88,83767,1,2
324,168,84058,2,0,B|400:212|476:168,2,160,2|0|0
256,128,85515,1,8
188,168,85806,5,0
108,168,86097,1,2
176,312,86680,1,0
336,312,87262,1,0
404,168,87845,1,0
324,168,88136,1,0
256,208,88427,1,2
188,168,88718,2,0,B|112:124|36:168,2,160
188,248,90175,1,8
256,288,90466,5,2
256,208,90757,1,2
324,248,91049,1,0
324,168,91340,1,0
392,208,91631,1,0
392,128,91922,1,0
392,128,92068,2,0,B|392:40,1,80
392,48,92505,1,0
312,48,92796,5,0
312,48,92942,1,0
312,48,93087,1,2
232,48,93379,1,2
272,116,93670,1,0
192,116,93961,1,0
232,184,94252,1,0
232,184,94398,2,0,B|140:184,1,80
152,184,94835,1,8
136,264,95126,5,0
136,264,95272,1,0
136,264,95417,2,0,B|52:236|52:136,2,160,2|0|0
216,276,96874,1,0
296,276,97165,1,0
376,264,97456,5,0
376,264,97602,1,0
376,264,97748,2,0,B|460:236|460:136,2,160,2|0|0
296,276,99204,1,0
216,276,99495,1,8
216,196,99786,5,2
216,196,100078,2,0,B|216:140|216:140|216:104|256:76|296:104|296:140|296:140|296:196,1,240,0|8
348,328,102408,6,0,B|316:360|256:372|196:360|164:328,1,199.999997019768,4|8
84,268,103282,1,0
84,168,103573,2,0,B|120:96|208:96,1,149.999997764826
256,96,104155,2,0,B|272:148|332:160,1,99.9999985098839,8|0
424,188,104738,1,0
388,284,105029,1,2
388,284,105175,1,0
388,284,105320,2,0,B|340:256|292:284,1,99.9999985098839,8|0
208,332,105903,2,0,B|252:376,2,49.999999254942,0|8|0
136,260,106485,5,10
64,188,106777,1,0
136,124,107068,2,0,B|160:108|160:80|160:52|136:36,2,99.9999985098839
48,80,107942,1,0
48,80,108233,2,0,B|204:80,1,149.999997764826
248,80,108816,1,8
248,180,109107,5,0
248,180,109252,1,0
248,180,109398,2,0,B|316:236|384:180,1,149.999997764826
424,152,109981,1,8
384,60,110272,1,0
316,132,110563,2,0,B|316:196,2,49.999999254942,0|8|0
248,60,111146,1,10
208,152,111437,5,2
120,104,111728,2,0,B|40:128|40:224,1,149.999997764826,4|0
40,268,112311,1,8
116,332,112602,1,0
192,268,112893,2,0,B|240:240|288:268,1,99.9999985098839
364,332,113476,5,8
440,268,113767,1,0
440,168,114058,2,0,B|440:108|372:88,1,99.9999985098839,0|2
340,80,114495,1,0
296,76,114641,1,8
196,76,114932,1,0
152,92,115078,1,8
116,120,115223,1,0
92,160,115369,1,8
88,204,115515,1,0
88,304,115806,5,10
248,224,116097,1,0
88,304,116388,2,0,B|24:304|8:240,2,99.9999985098839,0|0|8
188,304,117262,5,0
248,224,117553,2,0,B|312:224|328:288,2,99.9999985098839,0|0|8
148,224,118427,1,0
148,224,118573,1,0
148,224,118718,2,0,B|56:224|40:132,1,149.999997764826
36,88,119301,1,8
140,88,119592,5,0
172,56,119738,1,8
212,36,119883,1,0
256,24,120029,1,8
300,36,120175,1,0
340,56,120320,1,8
372,88,120466,1,10
256,272,120757,5,2
256,272,121049,2,0,B|208:176|304:176|256:80,1,199.999997019768,4|8
156,80,121922,1,0
56,80,122214,2,0,B|20:112|20:184|56:216,1,149.999997764826
88,252,122796,2,0,B|108:224|156:224|176:252,1,99.9999985098839,8|0
224,340,123379,1,0
324,340,123670,1,2
324,340,123816,1,0
324,340,123961,2,0,B|380:328|380:260,1,99.9999985098839,8|0
380,168,124544,2,0,B|444:168,2,49.999999254942,0|8|0
280,168,125126,5,10
208,100,125417,1,0
108,100,125709,2,0,B|184:176,1,99.9999985098839
80,160,126291,2,0,B|156:236,1,99.9999985098839,8|0
52,220,126874,2,0,B|164:332,1,149.999997764826
192,360,127456,1,8
292,360,127748,5,0
292,360,127893,1,0
292,360,128039,2,0,B|292:268|376:240,1,149.999997764826
416,228,128621,1,8
488,156,128913,1,0
416,84,129204,2,0,B|416:28,2,49.999999254942,0|8|0
344,156,129786,1,10
272,228,130078,5,2
272,328,130369,2,0,B|184:328|160:240,1,149.999997764826,4|0
152,196,130951,2,0,B|136:176|108:168|80:176|64:196,1,99.9999985098839,8|0
20,284,131534,2,0,B|36:304|64:312|92:304|108:284,1,99.9999985098839,0|0
152,196,132117,5,8
216,120,132408,1,0
300,64,132699,2,0,B|348:36|396:64,1,99.9999985098839,0|2
432,88,133136,1,0
460,124,133282,1,8
460,224,133573,1,0
440,264,133718,1,8
412,300,133864,1,0
368,308,134010,1,8
324,308,134155,1,0
224,308,134447,5,10
44,308,134738,1,0
224,308,135029,2,0,B|260:268|264:216|260:164|224:124,1,199.999997019768,0|8
132,80,135903,5,0
44,124,136194,2,0,B|8:164|4:216|8:268|44:308,1,199.999997019768,0|8
136,272,137068,1,0
136,272,137214,1,0
136,272,137359,2,0,B|164:236|244:236|272:272,1,149.999997764826
312,300,137942,1,8
412,300,138233,5,0
452,276,138379,1,8
472,236,138524,1,0
488,192,138670,1,8
472,148,138816,1,0
452,108,138961,1,8
412,84,139107,5,10
256,208,139398,1,2
100,84,139689,1,4
256,192,139835,12,0,142019
28,104,149010,6,0,B|56:52|152:52|180:104,1,179.200001708984,4|8
180,192,149883,1,0
180,280,150175,2,0,B|208:332|304:332|332:280,1,179.200001708984,0|8
332,192,151049,1,0
332,104,151340,2,0,B|360:52|456:52|484:104,1,179.200001708984,0|8
332,104,152214,5,0
300,72,152359,1,8
256,60,152505,1,0
212,72,152650,1,8
180,104,152796,1,0
180,104,153087,1,10
344,228,153670,6,0,B|416:228|416:348|344:348,1,179.200001708984,0|8
256,348,154544,1,0
168,348,154835,2,0,B|96:348|96:228|168:228,1,179.200001708984,0|8
256,228,155709,1,0
256,228,155854,1,0
256,228,156000,2,0,B|256:84,1,134.400001281738
256,48,156583,1,8
168,48,156874,6,0,B|132:84,1,44.8000004272461,0|8
136,124,157165,2,0,B|100:160,1,44.8000004272461,0|8
104,200,157456,2,0,B|60:244,2,44.8000004272461,0|8|10
104,200,158039,1,2
192,220,158330,6,0,B|256:256|320:220,1,134.400001281738,4|0
360,200,158913,1,8
404,124,159204,1,0
404,124,159495,1,0
448,200,159786,2,0,B|500:220|500:280,2,89.6000008544922,0|8|0
360,200,160660,6,0,B|256:200|200:108,1,179.200001708984,0|8
256,44,161534,1,0
304,120,161825,2,0,B|252:200|152:200,1,179.200001708984,0|10
64,200,162699,1,0
64,288,162990,6,0,B|92:360|168:360,1,134.400001281738
212,360,163573,1,8
300,360,163864,1,0
300,360,164155,1,0
256,280,164447,2,0,B|256:184,2,89.6000008544922,0|8|0
344,280,165320,6,0,B|388:248|388:152|344:120,1,179.200001708984,0|8
256,120,166194,1,0
168,120,166485,2,0,B|124:152|124:248|168:280,1,179.200001708984,0|10
256,280,167359,1,0
256,192,167650,6,0,B|352:192,2,89.6000008544922,0|0|8
168,192,168524,1,0
112,120,168816,2,0,B|12:140|12:252,1,179.200001708984,0|8
12,340,169689,5,0
12,340,169835,1,0
12,340,169981,2,0,B|76:304|140:340,1,134.400001281738
180,360,170563,1,8
256,312,170854,1,0
332,360,171146,2,0,B|440:360|440:244,1,179.200001708984,0|10
440,156,172019,5,0
376,96,172311,2,0,B|276:96,1,89.6000008544922
352,156,172893,2,0,B|256:156,1,89.6000008544922,8|0
328,216,173476,2,0,B|224:216,1,89.6000008544922
304,276,174058,2,0,B|208:276,1,89.6000008544922,8|0
280,336,174641,6,0,B|132:336,1,134.400001281738
100,336,175223,1,8
36,276,175515,1,0
100,216,175806,2,0,B|100:160,2,44.8000004272461,0|8|0
164,276,176388,1,10
228,216,176680,5,0
228,128,176971,2,0,B|256:24|364:24,1,179.200001708984,4|8
448,24,177845,1,0
448,112,178136,2,0,B|420:216|312:216,1,179.200001708984,0|8
228,216,179010,1,0
140,216,179301,1,0
52,216,179592,2,0,B|52:272|104:292,1,89.6000008544922,2|8
184,288,180175,2,0,B|184:344|132:368,2,89.6000008544922
184,200,181049,1,10
184,112,181340,5,0
256,60,181631,2,0,B|332:60|332:140|412:140,1,179.200001708984,0|8
500,140,182505,1,0
500,228,182796,2,0,B|500:284|444:284,1,89.6000008544922
368,236,183379,1,8
292,284,183670,1,0
216,236,183961,2,0,B|164:236|176:276|124:276,2,89.6000008544922,0|0|8
216,148,184835,2,0,B|164:148|176:108|124:108,2,89.6000008544922
296,192,185709,1,10
384,192,186000,5,2
384,104,186291,1,4
464,148,186583,1,0
464,236,186874,1,8
384,280,187165,1,0
308,236,187456,1,0
308,236,187602,1,0
308,148,187893,1,0
308,148,188039,1,8
232,104,188330,5,0
232,104,188476,1,0
232,104,188621,1,0
152,148,188913,1,2
152,236,189204,1,8
232,280,189495,1,0
308,236,189786,1,0
308,236,189932,1,0
308,148,190223,1,0
308,148,190369,1,10
232,192,190660,5,0
232,192,190806,1,0
232,192,190951,2,0,B|144:228|144:156|56:192,1,179.200001708984,0|8
0,260,191825,2,0,B|0:312|48:328,1,89.6000008544922
136,348,192408,1,0
212,304,192699,1,8
300,304,192990,6,0,B|356:304,2,44.8000004272461
344,224,193573,2,0,B|404:224,2,44.8000004272461,0|0|8
388,144,194155,1,0
432,64,194447,2,0,B|380:64,1,44.8000004272461,0|8
344,64,194738,2,0,B|248:64,1,89.6000008544922,0|10
212,144,195320,5,2
212,144,195612,2,0,B|212:192|212:192|212:232|240:248|272:248|300:232|300:192|300:192|300:144,1,240,0|8
168,48,197942,6,0,B|200:-4|312:-4|344:48,1,199.999997019768,4|8
404,128,198816,1,0
428,224,199107,2,0,B|360:280|292:224,1,149.999997764826
256,192,199689,2,0,B|196:192|176:256,1,99.9999985098839,8|0
152,340,200272,1,0
64,292,200563,1,2
64,292,200709,1,0
64,292,200854,2,0,B|32:244|64:196,1,99.9999985098839,8|0
92,104,201437,2,0,B|40:104,2,49.999999254942,0|8|0
192,104,202019,5,10
140,188,202311,1,0
236,208,202602,2,0,B|288:124,1,99.9999985098839
304,220,203184,2,0,B|356:136,1,99.9999985098839,8|0
372,232,203767,2,0,B|452:100,1,149.999997764826
476,60,204350,1,8
376,60,204641,5,0
376,60,204786,1,0
376,60,204932,2,0,B|304:20|232:60,1,149.999997764826
192,92,205515,2,0,B|220:112|220:160|192:180,1,99.9999985098839,8|0
124,252,206097,2,0,B|124:316,2,49.999999254942,0|8|0
56,180,206680,1,10
124,108,206971,5,2
192,180,207262,2,0,B|232:252|320:252,1,149.999997764826,4|0
364,252,207845,1,8
464,252,208136,1,0
464,152,208427,2,0,B|464:96|412:72,1,99.9999985098839
324,28,209010,5,8
256,100,209301,1,0
188,28,209592,2,0,B|132:40|132:104,1,99.9999985098839,0|2
132,144,210029,1,0
132,188,210175,1,8
56,252,210466,1,0
88,284,210612,1,8
132,296,210757,1,0
176,284,210903,1,8
208,252,211049,1,0
256,164,211340,5,10
368,64,211631,1,0
480,164,211922,2,0,B|460:284|336:284,1,199.999997019768,0|8
256,164,212796,1,0
168,284,213087,2,0,B|52:280|32:164,1,199.999997019768,0|8
144,64,213961,5,0
172,100,214107,1,0
204,132,214252,1,0
308,132,214544,1,0
340,100,214689,1,0
368,64,214835,1,8
256,60,215126,5,0
248,104,215272,1,8
256,148,215417,1,0
264,192,215563,1,8
256,236,215709,1,0
248,280,215854,1,8
256,324,216000,1,10
84,192,216291,5,2
84,192,216583,2,0,B|84:76|208:44,1,199.999997019768,4|8
296,44,217456,1,0
296,144,217748,2,0,B|296:236|392:236,1,149.999997764826
440,236,218330,2,0,B|476:284|440:332,1,99.9999985098839,8|0
344,328,218913,1,0
256,280,219204,1,2
256,280,219350,1,0
256,280,219495,1,8
168,328,219786,1,0
68,328,220078,2,0,B|36:388,2,49.999999254942,0|8|0
116,240,220660,5,10
116,140,220951,1,0
68,52,221243,2,0,B|112:8|208:8|252:52,1,199.999997019768,0|8
204,140,222117,1,0
204,240,222408,2,0,B|228:324|320:324,1,149.999997764826
364,324,222990,1,8
464,324,223282,5,0
464,324,223427,1,0
464,324,223573,2,0,B|504:296|504:224|464:188,1,149.999997764826
428,160,224155,2,0,B|408:188|360:188|340:160,1,99.9999985098839,8|0
384,72,224738,2,0,B|384:20,2,49.999999254942,0|8|0
428,160,225320,1,10
388,252,225612,5,2
288,252,225903,2,0,B|216:212|144:252,1,149.999997764826,4|0
96,252,226485,2,0,B|68:204|96:156,1,99.9999985098839,8|0
196,156,227068,2,0,B|224:108|196:60,1,99.9999985098839,0|0
96,60,227650,5,8
68,156,227942,1,0
96,252,228233,2,0,B|144:280|192:252,1,99.9999985098839,0|2
232,232,228670,1,0
272,208,228816,1,8
332,128,229107,1,0
300,96,229252,1,8
256,84,229398,1,0
212,96,229544,1,8
180,128,229689,1,0
128,216,229981,5,10
256,296,230272,1,0
384,216,230563,2,0,B|448:196|448:76|384:56,1,199.999997019768,0|8
256,136,231437,1,0
128,56,231728,2,0,B|64:76|64:196|128:216,1,199.999997019768,0|8
212,88,232602,5,0
256,72,232748,1,0
300,88,232893,1,0
300,184,233184,1,0
256,200,233330,1,0
212,184,233476,1,8
124,136,233767,5,0
84,160,233913,1,8
60,200,234058,1,0
52,244,234204,1,8
60,288,234350,1,0
84,328,234495,1,8
124,352,234641,5,10
256,200,234932,1,2
388,352,235223,1,4
256,192,235369,12,0,237553
