osu file format v9

[General]
AudioFilename: 06 snow blind (album version).mp3
AudioLeadIn: 0
PreviewTime: 102252
Countdown: 0
SampleSet: Normal
StackLeniency: 0.4
Mode: 0
LetterboxInBreaks: 1

[Editor]
Bookmarks: 6874,25515,44155,62796,81437,102408,121049,142019,158330,176971,197942,216583,235223
DistanceSpacing: 1
BeatDivisor: 4
GridSize: 4

[Metadata]
Title:snow blind (album version)
Artist:fripSide
Creator:ykcarrot
Version:Easy
Source:
Tags:nao split tears

[Difficulty]
HPDrainRate:2
CircleSize:3
OverallDifficulty:2
ApproachRate:2
SliderMultiplier:1
SliderTickRate:1

[Events]
//Background and Video events
0,0,"BG.jpg"
//Break Periods
2,142219,147450
//Storyboard Layer 0 (Background)
//Storyboard Layer 1 (Fail)
//Storyboard Layer 2 (Pass)
//Storyboard Layer 3 (Foreground)
//Storyboard Sound Samples
//Background Colour Transformations
3,100,0,0,0

[TimingPoints]
-116,582.52427184466,4,2,1,0,1,0
1704,-100,4,2,1,4,0,0
1777,-100,4,2,1,8,0,0
1850,-100,4,2,1,12,0,0
1922,-100,4,2,1,16,0,0
1995,-100,4,2,1,20,0,0
2068,-100,4,2,1,24,0,0
2141,-100,4,2,1,28,0,0
2214,-100,4,2,1,32,0,0
2286,-100,4,2,1,36,0,0
2359,-100,4,2,1,40,0,0
6583,-100,4,2,1,42,0,0
6655,-100,4,2,1,44,0,0
6728,-100,4,2,1,46,0,0
6801,-100,4,2,1,48,0,0
6874,-100,4,2,1,50,0,0
9641,-100,4,1,1,40,0,0
10223,-100,4,2,1,25,0,0
10515,-100,4,2,1,35,0,0
11243,-100,4,2,1,50,0,0
11971,-100,4,1,1,40,0,0
12553,-100,4,2,1,25,0,0
12845,-100,4,2,1,35,0,0
13573,-100,4,2,1,40,0,0
15903,-100,4,2,1,50,0,0
16631,-100,4,1,1,40,0,0
17214,-100,4,2,1,25,0,0
17505,-100,4,2,1,35,0,0
18233,-100,4,2,1,50,0,0
18961,-100,4,1,1,40,0,0
19544,-100,4,2,1,25,0,0
19835,-100,4,2,1,35,0,0
20563,-100,4,2,1,50,0,0
21437,-100,4,2,1,40,0,0
22019,-100,4,2,1,35,0,0
22893,-100,4,2,1,40,0,0
25223,-100,4,2,1,50,0,0
44592,-100,4,1,1,50,0,0
45466,-100,4,2,1,50,0,0
49252,-100,4,1,1,50,0,0
50126,-100,4,2,1,50,0,0
81146,-100,4,2,1,60,0,0
99786,-133.333333333333,4,1,2,10,0,0
101388,-133.333333333333,4,1,2,25,0,0
101534,-133.333333333333,4,1,2,30,0,0
101680,-133.333333333333,4,1,2,35,0,0
101825,-133.333333333333,4,1,2,40,0,0
102408,-100,4,2,2,70,0,1
117408,-100,4,2,1,70,0,1
117699,-100,4,2,2,70,0,1
119738,-100,4,2,1,70,0,1
120029,-100,4,2,2,70,0,1
120466,-100,4,2,2,70,0,0
121049,-100,4,2,2,70,0,1
131388,-100,4,2,1,70,0,1
131680,-100,4,2,2,70,0,1
133718,-100,4,2,1,70,0,1
134010,-100,4,2,2,70,0,1
142019,-100,4,2,2,70,0,0
148718,-100,4,2,2,65,0,0
187311,-100,4,2,1,65,0,0
187602,-100,4,2,2,65,0,0
189641,-100,4,2,1,65,0,0
189932,-100,4,2,2,65,0,0
195320,-133.333333333333,4,1,2,10,0,0
196922,-133.333333333333,4,1,2,25,0,0
197068,-133.333333333333,4,1,2,30,0,0
197214,-133.333333333333,4,1,2,35,0,0
197359,-133.333333333333,4,1,2,40,0,0
197942,-100,4,2,2,70,0,1
212942,-100,4,2,1,70,0,1
213233,-100,4,2,2,70,0,1
215272,-100,4,2,1,70,0,1
215563,-100,4,2,2,70,0,1
215999,-100,4,2,2,70,0,0
216583,-100,4,2,2,70,0,1
237553,-100,4,2,2,70,0,0

[Colours]
Combo1 : 213,228,255
Combo2 : 255,255,255
Combo3 : 213,248,255
Combo4 : 213,214,255

[HitObjects]
256,192,1631,12,4,6874
204,208,9204,6,0,B|132:232|132:180|52:208,2,150,2|0|2
308,208,11534,2,0,B|380:232|380:180|460:208,2,150,2|0|2
308,108,13864,5,2
256,24,14447,1,0
204,108,15029,1,2
256,192,15612,1,0
308,276,16194,6,0,B|336:356|444:356,2,150,2|0|2
204,276,18524,2,0,B|176:356|68:356,2,150,2|0|2
204,176,20854,5,2
256,36,21728,1,0
308,176,22602,1,2
256,264,23184,2,0,B|256:380,2,100,2|0|2
356,88,25515,6,0,B|444:88,2,75,2|0|0
256,88,26971,2,0,B|256:144,1,50
156,140,27845,6,0,B|72:140,2,75,2|0|0
256,140,29301,2,0,B|256:200,1,50,0|8
356,192,30175,6,0,B|440:192,2,75,2|0|0
256,192,31631,2,0,B|256:260,1,50
156,244,32505,5,2
204,336,33087,1,0
308,336,33670,1,0
356,244,34252,1,8
308,152,34835,6,0,B|344:128|388:128,2,75,2|0|0
256,240,36291,1,0
256,240,36583,1,0
204,152,37165,6,0,B|168:128|124:128,2,75,2|0|0
256,240,38621,1,0
256,240,38913,1,8
316,320,39495,6,0,B|300:360|256:368|212:360|196:320,2,150,2|0|0
256,240,41825,1,2
256,140,42408,1,0
208,52,42990,2,0,B|256:24|304:52,1,100,0|8
404,52,44155,6,0,B|460:120|404:188,2,150,4|0|0
304,52,46485,1,2
216,100,47068,1,0
256,192,47650,1,0
168,240,48233,1,8
68,240,48816,6,0,B|12:172|68:104,2,150,2|0|0
168,240,51146,1,2
256,192,51728,1,0
344,240,52311,1,0
256,288,52893,1,8
168,336,53476,6,0,B|72:336,2,75,2|0|0
420,336,55806,2,0,B|304:336,1,100,2|0
256,260,56971,2,0,B|236:212|276:212|256:164,1,100,0|8
204,76,58136,6,0,B|92:76,2,100,2|0|0
308,76,59883,2,0,B|428:76,2,100,0|2|0
304,176,61631,2,0,B|256:204|208:176,1,100,2|0
124,124,62796,6,0,B|52:148|52:248,2,150,2|0|0
208,72,65126,2,0,B|256:48|304:72,3,100,2|0|0|8
388,124,67456,6,0,B|460:148|460:248,2,150,2|0|0
304,176,69786,2,0,B|256:200|208:176,3,100,2|0|0|8
256,88,72117,6,0,B|256:4,2,75,2|0|0
204,344,74447,2,0,B|204:240,1,100,2|0
308,244,75612,2,0,B|308:360,1,100,0|8
408,344,76777,5,2
476,272,77359,1,0
408,200,77942,1,0
476,128,78524,1,0
408,56,79107,2,0,B|312:8|216:56,1,200,2|2
148,128,80854,1,8
48,128,81437,6,0,B|48:208|48:276|104:296|204:296|204:212,1,300,2|0
308,216,83767,2,0,B|308:292|408:296|464:276|464:208|464:128,1,300,2|8
384,68,86097,6,0,B|360:36|316:36|296:68|296:68|280:92|232:92|216:68|216:68|196:36|152:36|128:68,1,300,2|0
148,168,88427,2,0,B|216:268|256:296|296:268|364:168,1,300,2|8
348,68,90757,6,0,B|296:24|216:24|164:68,1,200,2|0
100,144,92505,1,0
164,220,93087,2,0,B|216:264|296:264|348:220,1,200,2|0
412,144,94835,1,8
392,44,95417,6,0,B|256:36|256:156|120:148,1,300,2|0
120,44,97748,2,0,B|256:36|256:156|392:148,1,300,2|8
356,240,100078,6,0,B|316:296|196:296|156:240,1,224.999993294478,0|8
116,148,102408,5,4
116,48,102990,2,0,B|60:48|28:100,2,100,8|0|8
216,48,104738,2,0,B|272:48|304:100,2,100,0|8|0
216,148,106485,1,10
124,192,107068,5,0
32,236,107650,1,8
124,280,108233,2,0,B|172:304|220:280,1,100,0|8
292,348,109398,2,0,B|352:340|368:280,1,100,0|8
460,260,110563,2,0,B|484:212|460:164,1,100,0|10
424,72,111728,6,0,B|328:16|232:72,1,200,4|0
148,124,113476,1,8
52,104,114058,2,0,B|0:136|0:248|52:280,1,200,0|0
148,260,115806,1,10
212,336,116388,6,0,B|352:336|352:336|412:336|456:316|456:240,1,300,0|8
456,140,118718,2,0,B|456:68|412:48|352:48|352:48|212:48,1,300,0|10
112,48,121049,6,0,B|56:68|56:128,2,100,4|8|0
184,120,122796,1,8
256,192,123379,2,0,B|312:172|312:112,2,100,0|8|0
184,264,125126,1,10
84,264,125709,6,0,B|60:216|84:168,1,100,0|8
16,92,126874,2,0,B|44:48|100:48,1,100,0|8
204,48,128039,1,0
308,48,128621,1,8
400,92,129204,2,0,B|400:148|348:176,1,100,0|10
256,208,130369,5,4
156,208,130951,2,0,B|88:236|88:340|156:368,1,200,8|8
256,368,132699,1,0
356,368,133282,2,0,B|424:340|424:236|356:208,1,200,8|10
256,208,135029,6,0,B|212:112|300:112|256:16,2,200
304,296,137942,2,0,B|256:328|208:296,3,100,8|0|10|4
256,192,139835,12,0,142019
156,108,149010,6,0,B|156:168|200:192|200:192|156:216|156:276,3,200,4|0|0|0
256,276,153087,1,10
356,276,153670,6,0,B|356:216|312:192|312:192|356:168|356:108,3,200
256,108,157748,1,10
156,108,158330,6,0,B|96:108|76:172,1,100,4|8
168,204,159495,2,0,B|224:224|224:288,1,100,0|8
124,296,160660,1,0
36,244,161243,1,8
36,140,161825,1,0
124,88,162408,1,10
124,192,162990,6,0,B|172:216|220:192,1,100,0|8
220,92,164155,2,0,B|268:68|316:92,1,100,0|8
316,192,165320,1,0
412,220,165903,1,8
468,136,166485,1,0
408,56,167068,1,10
316,92,167650,6,0,B|256:108|256:168,2,100,0|8|0
404,140,169398,1,8
488,192,169981,1,0
404,244,170563,1,8
316,292,171146,2,0,B|256:276|256:216,1,100,0|10
256,120,172311,5,0
168,168,172893,1,8
168,268,173476,1,0
256,316,174058,1,8
344,268,174641,2,0,B|344:168,1,100,0|8
256,120,175806,2,0,B|256:240,1,100,0|10
256,320,176971,5,4
152,320,177553,1,8
48,320,178136,1,0
100,232,178718,1,8
204,232,179301,2,0,B|259:232|288:176,2,100,0|8|0
152,144,181049,1,10
204,56,181631,5,0
308,56,182214,1,8
360,144,182796,1,0
308,232,183379,1,8
204,232,183961,2,0,B|176:280|112:280,2,100,0|8|0
152,144,185709,1,10
256,144,186291,6,0,B|344:144|344:144|440:144|440:280|344:280,1,300,4|8
256,280,188621,2,0,B|168:280|168:280|72:280|72:144|168:144,1,300,0|10
256,144,190951,6,0,B|368:144|416:248,1,200,0|0
464,332,192699,1,8
364,332,193282,2,0,B|252:332|204:228,1,200,0|0
160,144,195029,1,10
68,108,195612,6,0,B|-12:120|-12:264|68:276,1,224.999993294478,0|8
172,276,197942,6,0,B|232:276|256:220,2,100,4|8|0
164,176,199689,1,8
156,76,200272,2,0,B|96:76|72:132,2,100,0|8|0
256,76,202019,1,10
356,76,202602,5,0
440,132,203184,1,8
356,188,203767,2,0,B|252:188,1,100,0|8
156,188,204932,1,0
72,244,205515,1,8
156,300,206097,2,0,B|260:300,1,100,0|10
356,300,207262,6,0,B|440:300|440:172|356:172,1,200,4|0
256,172,209010,1,8
156,172,209592,2,0,B|72:172|72:44|156:44,1,200
256,44,211340,1,10
356,44,211922,6,0,B|356:208|204:120|204:292,1,300,0|8
308,280,214252,2,0,B|304:124|156:208|156:40,1,300,0|10
256,44,216583,6,0,B|368:44,2,100,4|8|0
156,44,218330,2,0,B|156:144,1,100,8|0
56,144,219495,2,0,B|56:248,1,100,8|0
56,344,220660,1,10
156,344,221243,6,0,B|260:344,1,100,0|8
196,264,222408,2,0,B|308:264,1,100,0|8
236,184,223573,2,0,B|348:184,1,100,0|8
276,104,224738,2,0,B|388:104,1,100,0|10
476,104,225903,6,0,B|508:152|476:200,2,100,4|8|0
384,144,227650,1,8
304,84,228233,2,0,B|256:52|208:84,2,100,0|8|0
256,172,229981,1,10
328,244,230563,6,0,B|328:316|184:316|184:244,2,200
256,172,233476,2,0,B|256:72,3,100,8|0|10|4
256,192,235369,12,0,237553
