osu file format v14

[General]
AudioFilename: Fripside - Only My Railgun - .mp3
AudioLeadIn: 0
PreviewTime: 6988
Countdown: 1
SampleSet: Soft
StackLeniency: 0.8
Mode: 2
LetterboxInBreaks: 1
WidescreenStoryboard: 1

[Editor]
DistanceSpacing: 2
BeatDivisor: 8
GridSize: 16
TimelineZoom: 1.8

[Metadata]
Title:only my railgun -TV Size-
TitleUnicode:only my railgun -TVサイズ-
Artist:fripSide
ArtistUnicode:fripSide
Creator:-_-WwolowW-_-
Version:Rain
Source:とある科学の超電磁砲
Tags:Miasaka Mikoto only my railgun とある科学の超電磁砲
BeatmapID:733648
BeatmapSetID:329741

[Difficulty]
HPDrainRate:4
CircleSize:4
OverallDifficulty:9
ApproachRate:9
SliderMultiplier:1.2
SliderTickRate:1

[Events]
//Background and Video events
0,0,"20140924113631_hXnZT.jpg",0,0
//Break Periods
//Storyboard Layer 0 (Background)
//Storyboard Layer 1 (Fail)
//Storyboard Layer 2 (Pass)
//Storyboard Layer 3 (Foreground)
//Storyboard Sound Samples

[TimingPoints]
1049.07724240921,419.58041958042,4,2,0,31,1,0
1258,-50,4,2,0,31,0,0
3776,-100,4,2,0,31,0,1
6608,-100,4,2,0,31,0,0
7552,-100,4,2,0,31,0,1
19510,-50,4,2,0,31,0,1
20349,-100,4,2,0,31,0,1
26223,-50,4,2,0,31,0,0
33251,-100,4,2,0,31,0,0
45524,-50,4,2,0,31,0,0
45839,-100,4,2,0,31,0,0
56433,-100,4,2,0,31,0,1
80664,-50,4,2,0,31,0,1
88216,-100,4,2,0,31,0,0

[HitObjects]
80,288,1049,5,0,0:0:0:0:
256,304,1258,1,0,0:0:0:0:
336,256,1363,1,0,0:0:0:0:
256,208,1468,1,0,0:0:0:0:
432,160,1678,2,0,L|432:96,1,60
80,288,1888,5,0,0:0:0:0:
256,304,2097,1,0,0:0:0:0:
336,256,2202,1,0,0:0:0:0:
256,208,2307,1,0,0:0:0:0:
432,160,2517,2,0,L|432:96,1,60
80,288,2727,5,0,0:0:0:0:
256,304,2936,1,0,0:0:0:0:
336,256,3041,1,0,0:0:0:0:
256,208,3146,1,0,0:0:0:0:
432,160,3356,2,0,L|432:96,1,60
80,288,3566,5,0,0:0:0:0:
256,304,3776,1,0,0:0:0:0:
336,256,3880,1,0,0:0:0:0:
256,208,3985,1,0,0:0:0:0:
432,160,4195,2,0,L|432:96,1,60
208,112,4615,2,0,L|176:112,1,30
272,64,4825,6,0,L|224:64,1,30
352,32,5035,6,0,L|304:32,1,30
144,80,5244,2,0,L|176:96,1,30
192,192,5454,6,0,L|224:208,1,30
256,288,5664,6,0,L|288:304,1,30
368,256,5874,2,0,L|320:240,1,30
32,192,6084,1,0,0:0:0:0:
256,192,6293,1,0,0:0:0:0:
496,192,6503,1,0,0:0:0:0:
256,192,6713,1,0,0:0:0:0:
496,192,6923,1,0,0:0:0:0:
96,320,7132,6,0,L|176:320,1,60
64,208,7552,1,0,0:0:0:0:
448,192,7762,6,0,L|416:192,1,30
272,192,7972,2,0,L|352:192,1,60
448,208,8390,1,0,0:0:0:0:
64,208,8601,6,0,L|96:208,2,30
208,208,9020,1,0,0:0:0:0:
352,208,9230,5,0,0:0:0:0:
128,128,9440,2,0,L|48:128,1,60
352,128,9859,1,0,0:0:0:0:
128,128,10069,1,0,0:0:0:0:
432,208,10278,1,0,0:0:0:0:
192,240,10488,5,0,0:0:0:0:
384,320,10698,1,0,0:0:0:0:
240,128,10908,5,0,0:0:0:0:
448,288,11118,5,0,0:0:0:0:
352,240,11223,1,0,0:0:0:0:
432,176,11327,1,0,0:0:0:0:
112,288,11537,5,0,0:0:0:0:
208,288,11642,1,0,0:0:0:0:
112,288,11747,1,0,0:0:0:0:
448,288,11957,5,0,0:0:0:0:
368,256,12062,1,0,0:0:0:0:
448,288,12167,1,0,0:0:0:0:
288,192,12376,1,0,0:0:0:0:
176,112,12481,1,0,0:0:0:0:
112,192,12587,6,0,L|160:192,1,30
352,208,12797,2,0,L|400:192,1,30
320,144,13006,1,0,0:0:0:0:
256,112,13111,1,0,0:0:0:0:
208,144,13216,1,0,0:0:0:0:
176,192,13320,1,0,0:0:0:0:
208,256,13426,2,0,L|256:256,1,30
384,256,13635,1,0,0:0:0:0:
288,256,13740,5,0,0:0:0:0:
240,256,13845,1,0,0:0:0:0:
208,192,13950,1,0,0:0:0:0:
256,176,14055,1,0,0:0:0:0:
320,160,14160,1,0,0:0:0:0:
384,160,14265,6,0,L|416:128,1,30
160,112,14475,5,0,0:0:0:0:
192,80,14580,1,0,0:0:0:0:
112,128,14685,6,0,L|48:128,1,60
272,128,15104,1,0,0:0:0:0:
64,192,15314,2,0,L|128:192,1,60
448,256,15629,1,0,0:0:0:0:
370,287,15734,1,0,0:0:0:0:
400,320,15944,2,0,P|448:288|464:272,1,60
80,224,16363,1,0,0:0:0:0:
80,224,16468,1,0,0:0:0:0:
176,176,16678,5,0,0:0:0:0:
336,128,16783,2,0,L|224:128,1,90
448,208,17202,6,0,L|496:208,1,30
320,144,17412,6,0,L|288:144,1,30
240,208,17622,6,0,L|288:208,1,30
112,144,17832,6,0,L|80:144,1,30
208,96,18041,5,0,0:0:0:0:
320,144,18250,1,0,0:0:0:0:
448,208,18460,1,0,0:0:0:0:
80,288,18671,1,0,0:0:0:0:
432,288,18880,1,0,0:0:0:0:
80,288,19091,1,0,0:0:0:0:
432,288,19300,1,0,0:0:0:0:
64,224,19510,5,0,0:0:0:0:
112,224,19563,1,0,0:0:0:0:
160,224,19615,1,0,0:0:0:0:
208,208,19667,1,0,0:0:0:0:
224,160,19720,1,0,0:0:0:0:
208,112,19772,1,0,0:0:0:0:
176,96,19825,1,0,0:0:0:0:
144,80,19877,1,0,0:0:0:0:
304,272,19930,5,0,0:0:0:0:
336,272,19982,1,0,0:0:0:0:
384,256,20035,1,0,0:0:0:0:
416,224,20087,1,0,0:0:0:0:
416,176,20139,1,0,0:0:0:0:
416,128,20192,1,0,0:0:0:0:
384,96,20244,1,0,0:0:0:0:
336,80,20297,1,0,0:0:0:0:
208,64,20349,5,0,0:0:0:0:
160,48,20402,1,0,0:0:0:0:
96,80,20454,1,0,0:0:0:0:
64,112,20507,1,0,0:0:0:0:
48,160,20559,1,0,0:0:0:0:
64,208,20612,1,0,0:0:0:0:
96,240,20664,1,0,0:0:0:0:
128,256,20716,1,0,0:0:0:0:
336,272,20769,5,0,0:0:0:0:
384,272,20821,1,0,0:0:0:0:
432,256,20874,1,0,0:0:0:0:
464,224,20926,1,0,0:0:0:0:
464,176,20979,1,0,0:0:0:0:
448,144,21031,1,0,0:0:0:0:
416,112,21084,1,0,0:0:0:0:
368,96,21136,1,0,0:0:0:0:
160,208,21188,6,0,L|192:208,3,30
224,160,21607,1,0,0:0:0:0:
32,192,21817,1,0,0:0:0:0:
224,160,22027,1,0,0:0:0:0:
448,176,22236,1,0,0:0:0:0:
224,160,22446,1,0,0:0:0:0:
32,192,22656,1,0,0:0:0:0:
448,240,22867,6,0,L|496:240,7,30
64,240,23706,2,0,L|32:240,7,30
464,176,24545,5,0,0:0:0:0:
464,176,24650,1,0,0:0:0:0:
304,176,24755,1,0,0:0:0:0:
304,176,24860,1,0,0:0:0:0:
432,176,24965,1,0,0:0:0:0:
432,176,25070,1,0,0:0:0:0:
256,176,25174,5,0,0:0:0:0:
256,176,25279,1,0,0:0:0:0:
192,112,25383,1,0,0:0:0:0:
256,112,25488,1,0,0:0:0:0:
128,208,25593,1,0,0:0:0:0:
192,208,25698,1,0,0:0:0:0:
240,288,25803,1,0,0:0:0:0:
304,288,25908,1,0,0:0:0:0:
192,96,26013,1,0,0:0:0:0:
128,96,26118,1,0,0:0:0:0:
256,192,26223,12,0,27692,0:0:0:0:
32,320,27902,6,0,L|96:256,1,60
256,192,28111,1,0,0:0:0:0:
480,272,28321,2,0,L|432:224,1,60
256,192,28530,1,0,0:0:0:0:
32,256,28741,6,0,L|96:192,1,60
256,128,28950,1,0,0:0:0:0:
480,144,29160,2,0,L|432:96,1,60
256,64,29369,1,0,0:0:0:0:
32,192,29580,6,0,L|96:128,1,60
256,64,29789,1,0,0:0:0:0:
480,208,30000,2,0,L|432:160,1,60
256,128,30208,1,0,0:0:0:0:
32,320,30419,6,0,L|96:256,1,60
256,192,30628,1,0,0:0:0:0:
480,208,30891,2,0,L|432:160,1,60
256,128,31049,1,0,0:0:0:0:
32,320,31258,6,0,L|96:256,1,60
256,192,31467,1,0,0:0:0:0:
480,320,31678,2,0,L|432:272,1,60
256,240,31888,1,0,0:0:0:0:
32,320,32098,6,0,L|96:256,1,60
256,192,32307,1,0,0:0:0:0:
480,320,32517,2,0,L|432:272,1,60
256,240,32726,1,0,0:0:0:0:
464,192,32937,5,0,0:0:0:0:
208,192,33146,2,0,L|128:192,1,60
224,288,33356,2,0,L|272:288,1,30
304,224,33565,1,0,0:0:0:0:
400,160,33670,1,0,0:0:0:0:
144,224,33775,1,0,0:0:0:0:
112,208,33880,1,0,0:0:0:0:
96,192,33985,1,0,0:0:0:0:
80,160,34090,1,0,0:0:0:0:
336,224,34195,5,0,0:0:0:0:
352,208,34299,1,0,0:0:0:0:
368,176,34404,1,0,0:0:0:0:
384,144,34509,1,0,0:0:0:0:
352,112,34615,2,0,L|304:112,1,30
256,112,34824,1,0,0:0:0:0:
416,112,35034,1,0,0:0:0:0:
224,112,35244,6,0,L|160:112,1,60
304,96,35663,1,0,0:0:0:0:
224,64,35873,1,0,0:0:0:0:
128,128,36083,1,0,0:0:0:0:
224,208,36188,1,0,0:0:0:0:
256,192,36292,1,0,0:0:0:0:
448,192,36503,6,0,L|384:192,1,60
336,192,36817,1,0,0:0:0:0:
304,192,37027,1,0,0:0:0:0:
176,192,37132,2,0,L|112:192,1,60
48,192,37446,1,0,0:0:0:0:
240,192,37656,1,0,0:0:0:0:
480,224,37972,6,0,L|416:224,1,60
480,224,38391,2,0,L|416:224,1,60
176,224,38810,1,0,0:0:0:0:
176,224,39020,1,0,0:0:0:0:
272,224,39230,1,0,0:0:0:0:
272,224,39440,2,0,P|336:192|320:176,2,120
496,64,40489,6,0,L|464:64,1,30
272,128,40699,2,0,L|304:128,1,30
464,224,40909,2,0,L|432:224,1,30
192,256,41119,2,0,L|224:256,1,30
80,64,41328,2,0,L|144:64,1,60
256,160,41643,1,0,0:0:0:0:
384,208,41748,6,0,L|304:192,1,60
256,160,42063,1,0,0:0:0:0:
80,288,42167,2,0,L|144:272,1,60
256,160,42482,1,0,0:0:0:0:
400,304,42587,2,0,L|320:272,1,60
256,160,42902,1,0,0:0:0:0:
96,272,43006,1,0,0:0:0:0:
256,160,43216,1,0,0:0:0:0:
368,176,43425,1,0,0:0:0:0:
96,176,43636,2,0,L|144:176,2,30
464,96,44056,6,0,L|384:96,1,60
128,288,44475,2,0,L|80:272,1,30
432,288,44684,1,0,0:0:0:0:
96,272,44894,1,0,0:0:0:0:
432,288,45104,5,0,0:0:0:0:
96,272,45313,1,0,0:0:0:0:
176,192,45524,2,0,L|32:192,1,120
432,288,45943,1,0,0:0:0:0:
256,320,46153,1,0,0:0:0:0:
64,64,46363,2,0,L|128:64,1,60
112,160,46783,6,0,L|176:160,1,60
272,224,47098,2,0,L|304:224,1,30
464,144,47411,1,0,0:0:0:0:
48,96,47621,1,0,0:0:0:0:
48,96,47831,1,0,0:0:0:0:
112,160,48042,2,0,L|160:160,2,30
176,192,48355,1,0,0:0:0:0:
208,240,48461,6,0,L|240:240,3,30
288,288,48880,5,0,0:0:0:0:
384,224,49090,1,0,0:0:0:0:
240,176,49299,1,0,0:0:0:0:
112,192,49509,1,0,0:0:0:0:
256,272,49720,2,0,L|208:272,6,30
336,176,50454,2,0,L|304:176,1,30
160,128,50768,1,0,0:0:0:0:
448,192,50978,5,0,0:0:0:0:
144,256,51188,2,0,L|96:240,1,45
320,288,51398,2,0,L|416:224,1,90
240,192,51818,5,0,0:0:0:0:
336,176,51923,1,0,0:0:0:0:
128,192,52028,2,0,L|64:192,1,60
284,320,52341,1,0,0:0:0:0:
224,320,52447,2,0,L|288:320,1,60
404,320,52866,1,0,0:0:0:0:
224,144,53076,1,0,0:0:0:0:
336,256,53285,5,0,0:0:0:0:
224,224,53495,1,0,0:0:0:0:
80,176,53705,1,0,0:0:0:0:
240,160,53915,1,0,0:0:0:0:
160,48,54125,1,0,0:0:0:0:
272,96,54334,1,0,0:0:0:0:
48,32,54544,1,0,0:0:0:0:
496,240,54755,6,0,L|448:208,1,30
48,144,54964,1,0,0:0:0:0:
48,272,55174,2,0,L|80:240,1,30
496,144,55383,1,0,0:0:0:0:
496,240,55594,2,0,L|464:208,1,30
48,144,55803,1,0,0:0:0:0:
48,144,56013,5,0,0:0:0:0:
176,96,56118,1,0,0:0:0:0:
320,96,56223,1,0,0:0:0:0:
176,320,56432,1,0,0:0:0:0:
96,320,56537,1,0,0:0:0:0:
48,256,56642,1,0,0:0:0:0:
80,192,56747,1,0,0:0:0:0:
384,208,56957,5,0,0:0:0:0:
416,208,57063,1,0,0:0:0:0:
448,176,57167,1,0,0:0:0:0:
480,144,57272,1,0,0:0:0:0:
496,112,57376,1,0,0:0:0:0:
384,64,57482,1,0,0:0:0:0:
224,32,57586,1,0,0:0:0:0:
192,48,57692,1,0,0:0:0:0:
176,80,57796,1,0,0:0:0:0:
176,144,57901,1,0,0:0:0:0:
208,176,58007,1,0,0:0:0:0:
240,192,58111,1,0,0:0:0:0:
160,272,58321,2,0,L|192:272,2,30
336,208,58636,2,0,L|288:208,1,30
128,144,58846,2,0,L|96:144,1,30
304,96,59056,2,0,L|256:96,1,30
176,224,59265,6,0,L|80:160,1,90
336,208,59790,2,0,L|416:208,1,60
80,224,60209,5,0,0:0:0:0:
80,224,60349,1,0,0:0:0:0:
80,224,60489,1,0,0:0:0:0:
400,224,60629,1,0,0:0:0:0:
400,224,60769,1,0,0:0:0:0:
400,224,60909,1,0,0:0:0:0:
144,160,61049,6,0,L|96:96,1,80
416,288,61468,2,0,L|352:272,1,60
48,160,61783,2,0,L|128:112,1,90
208,80,62202,5,0,0:0:0:0:
320,80,62306,1,0,0:0:0:0:
192,176,62517,2,0,L|272:176,1,60
336,176,62832,1,0,0:0:0:0:
416,176,62936,1,0,0:0:0:0:
48,304,63146,5,0,0:0:0:0:
144,272,63251,1,0,0:0:0:0:
80,192,63356,1,0,0:0:0:0:
64,112,63461,2,0,L|128:112,2,60
464,320,63986,5,0,0:0:0:0:
368,272,64091,1,0,0:0:0:0:
464,192,64196,1,0,0:0:0:0:
368,112,64301,2,0,L|432:112,2,60
112,288,64825,5,0,0:0:0:0:
112,288,64930,1,0,0:0:0:0:
112,288,65035,1,0,0:0:0:0:
256,112,65140,2,0,L|320:112,2,60
240,320,65874,2,0,L|304:320,2,60
64,176,66502,5,0,0:0:0:0:
128,128,66712,1,0,0:0:0:0:
384,176,66922,1,0,0:0:0:0:
336,128,67132,1,0,0:0:0:0:
144,192,67341,1,0,0:0:0:0:
208,144,67551,1,0,0:0:0:0:
480,208,67761,1,0,0:0:0:0:
416,160,67971,1,0,0:0:0:0:
80,288,68181,5,0,0:0:0:0:
80,240,68321,1,0,0:0:0:0:
80,192,68461,1,0,0:0:0:0:
208,288,68601,1,0,0:0:0:0:
224,208,68741,1,0,0:0:0:0:
416,256,68811,6,0,L|464:256,1,30
192,208,69230,2,0,L|112:208,1,60
384,208,69649,1,0,0:0:0:0:
240,112,69860,2,0,P|272:128|288:160,1,60
336,112,70278,5,0,0:0:0:0:
160,112,70488,1,0,0:0:0:0:
128,176,70699,2,0,P|64:176|64:192,1,90
352,112,71327,5,0,0:0:0:0:
432,112,71538,2,0,B|480:160|480:160|432:224,2,120
128,112,72586,5,0,0:0:0:0:
80,192,72796,1,0,0:0:0:0:
144,272,73006,1,0,0:0:0:0:
336,96,73216,1,0,0:0:0:0:
368,80,73269,1,0,0:0:0:0:
400,80,73321,1,0,0:0:0:0:
432,96,73374,1,0,0:0:0:0:
464,144,73426,1,0,0:0:0:0:
416,128,73479,1,0,0:0:0:0:
352,128,73531,1,0,0:0:0:0:
304,144,73584,1,0,0:0:0:0:
336,176,73688,1,0,0:0:0:0:
432,176,73741,1,0,0:0:0:0:
496,192,73793,1,0,0:0:0:0:
48,240,73951,6,0,L|112:240,1,60
80,96,74265,2,0,L|160:64,1,60
320,176,74685,2,0,L|384:144,1,60
128,176,75105,1,0,0:0:0:0:
272,192,75314,2,0,L|400:192,1,120
192,112,75944,6,0,L|128:112,2,60
464,320,76573,6,0,L|512:256,1,60
256,192,76992,1,0,0:0:0:0:
80,304,77202,2,0,L|32:256,1,60
256,192,77621,1,0,0:0:0:0:
256,192,77726,1,0,0:0:0:0:
496,192,78041,5,0,0:0:0:0:
368,192,78250,1,0,0:0:0:0:
64,192,78460,1,0,0:0:0:0:
176,192,78565,1,0,0:0:0:0:
432,128,78775,1,0,0:0:0:0:
432,128,78880,1,0,0:0:0:0:
288,128,79091,6,0,L|352:128,3,60
160,336,79929,1,0,0:0:0:0:
432,336,80139,1,0,0:0:0:0:
160,288,80348,1,0,0:0:0:0:
416,288,80558,1,0,0:0:0:0:
160,160,80769,6,0,P|96:96|112:64,1,120
400,80,81188,2,0,P|448:144|448:192,1,120
64,192,81608,2,0,L|224:192,7,120
272,160,83181,1,0,0:0:0:0:
416,96,83286,6,0,L|320:80,5,60
304,96,83915,1,0,0:0:0:0:
272,96,84021,6,0,L|176:80,6,60
112,144,84754,1,0,0:0:0:0:
32,208,84859,1,0,0:0:0:0:
32,208,84964,1,0,0:0:0:0:
416,240,85174,6,0,L|320:224,5,60
224,160,85804,6,0,L|128:144,6,60
384,288,86537,1,0,0:0:0:0:
384,288,86642,1,0,0:0:0:0:
272,288,86747,5,0,0:0:0:0:
272,288,86852,1,0,0:0:0:0:
432,240,86957,1,0,0:0:0:0:
432,240,87062,1,0,0:0:0:0:
240,240,87167,1,0,0:0:0:0:
240,240,87271,1,0,0:0:0:0:
464,208,87376,5,0,0:0:0:0:
464,208,87481,1,0,0:0:0:0:
192,208,87586,1,0,0:0:0:0:
192,208,87691,1,0,0:0:0:0:
496,144,87797,2,0,L|416:96,1,60
144,144,88007,2,0,L|208:96,1,60
256,192,88216,12,0,89895,0:0:0:0:
