osu file format v14

[General]
AudioFilename: Fripside - Only My Railgun - .mp3
AudioLeadIn: 0
PreviewTime: 6988
Countdown: 1
SampleSet: Soft
StackLeniency: 0.8
Mode: 2
LetterboxInBreaks: 1
WidescreenStoryboard: 0

[Editor]
Bookmarks: 4050
DistanceSpacing: 2
BeatDivisor: 4
GridSize: 16
TimelineZoom: 1.5

[Metadata]
Title:only my railgun -TV Size-
TitleUnicode:only my railgun -TVサイズ-
Artist:fripSide
ArtistUnicode:fripSide
Creator:-_-WwolowW-_-
Version:Overdose
Source:とある科学の超電磁砲
Tags:Miasaka Mikoto only my railgun とある科学の超電磁砲
BeatmapID:731065
BeatmapSetID:329741

[Difficulty]
HPDrainRate:7
CircleSize:4.4
OverallDifficulty:9.3
ApproachRate:9.3
SliderMultiplier:3.4
SliderTickRate:1

[Events]
//Background and Video events
0,0,"20140924113631_hXnZT.jpg",0,0
//Break Periods
//Storyboard Layer 0 (Background)
//Storyboard Layer 1 (Fail)
//Storyboard Layer 2 (Pass)
//Storyboard Layer 3 (Foreground)
//Storyboard Sound Samples

[TimingPoints]
1009,419.58041958042,4,2,0,31,1,0
3736,-100,4,2,0,31,0,1
6568,-100,4,2,0,31,0,0
7512,-100,4,2,0,31,0,1
26183,-200,4,2,0,31,0,0
29540,-76.9230769230769,4,2,0,31,0,0
31848,-100,4,2,0,31,0,0
33421,-100,4,2,0,31,0,0
38771,-50,4,2,0,31,0,0
39505,-100,4,2,0,31,0,0
56393,-100,4,2,0,31,0,1
66463,-66.6666666666667,4,2,0,31,0,1
67197,-100,4,2,0,31,0,1
73176,-50,4,2,0,31,0,1
74432,-100,4,2,0,31,0,1
88176,-100,4,2,0,31,0,0

[HitObjects]
304,336,1008,6,0,B|400:336|400:336|448:256,1,170,0|8,0:0|0:0,0:0:0:0:
208,336,1428,2,0,L|32:336,1,170
208,272,1742,5,0,0:0:0:0:
208,272,1848,2,0,P|80:272|48:224,1,170,0|8,0:0|0:0,0:0:0:0:
288,240,2267,1,0,0:0:0:0:
416,240,2477,1,0,0:0:0:0:
416,240,2582,1,0,0:0:0:0:
208,176,2687,6,0,L|304:176,2,85,0|8|8,0:0|0:0|0:0,0:0:0:0:
128,176,3106,1,0,0:0:0:0:
336,80,3316,2,0,L|160:80,1,170,0|8,0:0|0:0,0:0:0:0:
160,304,3735,5,0,0:0:0:0:
256,304,3840,1,0,0:0:0:0:
352,304,3945,1,0,0:0:0:0:
448,304,4050,1,0,0:0:0:0:
352,304,4154,1,0,0:0:0:0:
256,304,4259,1,0,0:0:0:0:
160,304,4365,1,0,0:0:0:0:
64,304,4469,1,0,0:0:0:0:
160,304,4574,1,0,0:0:0:0:
256,304,4679,1,0,0:0:0:0:
352,304,4784,1,0,0:0:0:0:
448,304,4889,1,0,0:0:0:0:
352,304,4994,1,0,0:0:0:0:
256,304,5099,1,0,0:0:0:0:
256,304,5203,5,0,0:0:0:0:
160,304,5308,1,0,0:0:0:0:
256,304,5413,1,0,0:0:0:0:
352,304,5519,1,0,0:0:0:0:
448,304,5623,1,0,0:0:0:0:
352,304,5729,1,0,0:0:0:0:
448,304,5833,1,0,0:0:0:0:
352,304,5938,1,0,0:0:0:0:
256,304,6043,1,0,0:0:0:0:
160,304,6147,1,0,0:0:0:0:
256,304,6252,1,0,0:0:0:0:
160,304,6358,1,0,0:0:0:0:
256,304,6462,1,2,0:0:0:0:
256,192,6568,8,12,7406,0:0:0:0:
64,304,7511,5,0,0:0:0:0:
416,240,7721,1,0,0:0:0:0:
288,160,7931,5,0,0:0:0:0:
246,240,8036,1,0,0:0:0:0:
416,240,8141,2,0,L|192:240,1,170
416,144,8560,1,0,0:0:0:0:
96,192,8771,2,0,L|208:192,2,85
320,64,9190,6,0,B|416:64|416:64|464:160,1,170
112,224,9609,1,0,0:0:0:0:
272,144,9714,1,0,0:0:0:0:
112,144,9820,1,0,0:0:0:0:
272,224,10029,1,0,0:0:0:0:
48,144,10238,1,0,0:0:0:0:
432,128,10448,1,0,0:0:0:0:
112,192,10658,1,0,0:0:0:0:
272,192,10868,5,0,0:0:0:0:
48,288,11078,2,0,L|208:0,1,255
320,304,11498,2,0,L|480:16,1,255
160,320,11918,2,0,L|80:0,1,255
416,320,12337,2,0,L|336:0,1,255
192,256,12757,6,0,L|368:256,1,170
256,176,13175,5,0,0:0:0:0:
352,192,13385,1,0,0:0:0:0:
80,288,13491,5,0,0:0:0:0:
224,240,13701,1,0,0:0:0:0:
80,320,13806,6,0,L|256:320,2,170
240,192,14434,1,0,0:0:0:0:
384,240,14644,1,0,0:0:0:0:
80,192,14855,2,0,L|272:192,2,170
416,96,15484,6,0,B|320:96|320:96|320:192|320:192|176:192|176:192,1,340
416,288,16113,2,0,L|176:288,1,170
240,192,16532,5,0,0:0:0:0:
384,192,16742,1,0,0:0:0:0:
384,240,16952,1,0,0:0:0:0:
208,160,17161,5,0,0:0:0:0:
352,128,17371,1,0,0:0:0:0:
96,80,17582,2,0,L|288:80,2,170
266,80,18211,2,0,L|448:80,1,170
272,160,18631,2,0,L|96:160,1,170
272,240,19050,2,0,L|448:240,1,170
128,336,19470,2,0,L|16:224,1,85
48,192,19680,6,0,L|128:272,1,85
368,336,19890,2,0,L|432:256,1,85
416,192,20099,6,0,L|336:272,1,85
208,144,20308,1,0,0:0:0:0:
160,144,20413,5,0,0:0:0:0:
112,144,20518,1,0,0:0:0:0:
80,144,20623,1,0,0:0:0:0:
272,144,20728,1,0,0:0:0:0:
304,144,20833,1,0,0:0:0:0:
336,144,20938,5,0,0:0:0:0:
384,144,21043,1,0,0:0:0:0:
416,352,21147,5,0,0:0:0:0:
368,352,21252,1,0,0:0:0:0:
304,336,21357,1,0,0:0:0:0:
272,288,21462,1,0,0:0:0:0:
288,240,21567,1,0,0:0:0:0:
336,208,21672,1,0,0:0:0:0:
384,192,21777,1,0,0:0:0:0:
416,208,21882,1,0,0:0:0:0:
448,240,21987,1,0,0:0:0:0:
112,144,22092,5,0,0:0:0:0:
160,176,22196,1,0,0:0:0:0:
192,288,22301,1,0,0:0:0:0:
240,272,22406,1,0,0:0:0:0:
288,240,22511,1,0,0:0:0:0:
272,192,22616,1,0,0:0:0:0:
400,128,22721,5,0,0:0:0:0:
144,64,22826,5,0,0:0:0:0:
192,32,22931,5,0,0:0:0:0:
240,32,23036,5,0,0:0:0:0:
288,64,23140,5,0,0:0:0:0:
320,96,23245,5,0,0:0:0:0:
320,128,23350,1,0,0:0:0:0:
160,224,23457,1,0,0:0:0:0:
112,192,23562,1,0,0:0:0:0:
80,160,23666,1,0,0:0:0:0:
80,112,23771,1,0,0:0:0:0:
336,32,23876,1,0,0:0:0:0:
384,64,23981,1,0,0:0:0:0:
416,112,24086,1,0,0:0:0:0:
400,160,24191,1,0,0:0:0:0:
144,288,24295,6,0,L|240:176,1,85
352,208,24504,5,0,0:0:0:0:
288,208,24609,1,0,0:0:0:0:
320,304,24715,2,0,L|384:224,1,85
144,288,24925,6,0,L|64:192,1,85
432,192,25134,2,0,L|480:112,1,85
32,160,25344,1,0,0:0:0:0:
32,160,25449,1,0,0:0:0:0:
448,160,25554,5,0,0:0:0:0:
448,160,25659,1,0,0:0:0:0:
128,320,25764,1,0,0:0:0:0:
96,288,25869,1,0,0:0:0:0:
64,256,25974,1,0,0:0:0:0:
480,304,26078,5,0,0:0:0:0:
256,192,26183,12,4,27441,0:0:0:0:
96,304,27651,5,0,0:0:0:0:
384,288,27862,6,0,L|432:272,1,42.5
240,208,28071,2,0,L|176:160,1,42.5
304,112,28281,2,0,L|352:96,1,42.5
80,96,28491,2,0,L|176:96,1,85
171,192,28911,2,0,L|283:192,1,85
432,192,29329,5,0,0:0:0:0:
80,32,29540,2,0,P|240:32|16:272,1,773.499964591982
432,32,30379,2,0,P|272:32|480:304,1,773.499964591982
112,240,31218,2,0,P|224:240|80:128,1,441.999979766847
272,320,31847,5,0,0:0:0:0:
96,240,32057,1,0,0:0:0:0:
320,240,32266,1,0,0:0:0:0:
96,160,32476,1,0,0:0:0:0:
368,160,32686,1,0,0:0:0:0:
96,80,32896,1,0,0:0:0:0:
416,80,33106,1,0,0:0:0:0:
256,64,33316,1,0,0:0:0:0:
128,64,33526,6,0,L|48:16,1,85
464,176,33736,2,0,L|464:272,2,85
0,144,34155,2,0,L|16:256,2,85
320,320,34575,1,0,0:0:0:0:
368,288,34627,1,0,0:0:0:0:
400,256,34680,1,0,0:0:0:0:
432,208,34732,1,0,0:0:0:0:
64,192,34785,6,0,L|64:288,1,85
256,192,34995,2,0,L|256:288,1,85
128,192,35204,2,0,L|128:288,1,85
416,304,35414,2,0,L|496:256,1,85
144,304,35624,1,0,0:0:0:0:
96,288,35676,1,0,0:0:0:0:
64,256,35729,1,0,0:0:0:0:
96,240,35781,5,0,0:0:0:0:
144,240,35834,1,0,0:0:0:0:
192,240,35886,1,0,0:0:0:0:
160,208,35991,1,0,0:0:0:0:
112,192,36043,1,0,0:0:0:0:
64,192,36096,1,0,0:0:0:0:
160,144,36253,2,0,L|160:320,1,170
256,288,36515,1,0,0:0:0:0:
352,240,36620,5,0,0:0:0:0:
480,304,36673,6,0,L|480:112,1,170
96,304,37092,2,0,L|16:256,1,85
400,304,37302,2,0,L|480:272,1,85
96,304,37512,2,0,L|0:240,1,85
400,304,37722,2,0,L|480:240,1,85
48,128,37932,5,0,0:0:0:0:
32,80,37984,1,0,0:0:0:0:
48,32,38036,1,0,0:0:0:0:
96,16,38089,1,0,0:0:0:0:
144,32,38141,1,0,0:0:0:0:
176,48,38194,1,0,0:0:0:0:
176,96,38246,1,0,0:0:0:0:
144,144,38299,1,0,0:0:0:0:
432,112,38351,1,0,0:0:0:0:
256,112,38560,1,0,0:0:0:0:
92,192,38771,2,0,L|476:192,1,340
432,192,39190,6,0,L|48:192,1,340
256,320,39610,1,0,0:0:0:0:
304,320,39662,1,0,0:0:0:0:
336,304,39715,1,0,0:0:0:0:
384,288,39767,1,0,0:0:0:0:
432,272,39820,1,0,0:0:0:0:
416,272,39872,5,0,0:0:0:0:
352,288,39925,1,0,0:0:0:0:
304,304,39977,1,0,0:0:0:0:
256,320,40029,1,0,0:0:0:0:
384,192,40133,1,0,0:0:0:0:
416,176,40239,6,0,L|496:128,1,85
64,160,40449,2,0,P|128:272|32:208,1,340
144,32,40921,5,0,0:0:0:0:
112,48,40974,1,0,0:0:0:0:
80,80,41026,1,0,0:0:0:0:
64,96,41078,1,0,0:0:0:0:
48,112,41131,1,0,0:0:0:0:
32,144,41183,5,0,0:0:0:0:
464,80,41288,2,0,L|352:80,2,85
256,80,41708,1,0,0:0:0:0:
384,80,41918,6,0,L|272:128,1,85
112,208,42127,2,0,L|144:112,1,85
384,240,42337,6,0,L|480:128,1,127.5
192,224,42547,2,0,L|288:128,1,127.5
0,208,42757,2,0,L|96:112,1,127.5
80,320,42967,2,0,P|144:176|64:208,1,340
352,192,43596,5,0,0:0:0:0:
32,96,43701,1,0,0:0:0:0:
48,128,43753,1,0,0:0:0:0:
80,128,43806,2,0,P|80:240|0:144,1,297.5
416,112,44330,5,0,0:0:0:0:
400,80,44383,1,0,0:0:0:0:
368,48,44435,1,0,0:0:0:0:
240,96,44488,1,0,0:0:0:0:
464,96,44645,5,0,0:0:0:0:
128,288,44855,2,0,L|304:288,1,170
304,288,45091,2,0,L|400:240,1,106.25
384,192,45273,5,0,0:0:0:0:
416,176,45379,1,0,0:0:0:0:
32,48,45484,6,0,L|80:96,1,42.5
192,32,45589,2,0,L|128:64,1,42.5
48,128,45799,1,0,0:0:0:0:
64,96,45851,1,0,0:0:0:0:
96,64,45904,1,0,0:0:0:0:
144,48,46009,1,0,0:0:0:0:
192,336,46113,6,0,P|64:256|80:208,1,170
368,320,46463,1,0,0:0:0:0:
448,272,46533,1,0,0:0:0:0:
368,224,46603,1,0,0:0:0:0:
64,128,46743,2,0,P|64:176|0:224,2,85
352,224,47161,1,0,0:0:0:0:
192,128,47371,5,0,0:0:0:0:
352,128,47581,1,0,0:0:0:0:
352,128,47791,1,0,0:0:0:0:
208,320,48001,1,0,0:0:0:0:
144,304,48106,1,0,0:0:0:0:
192,256,48210,1,0,0:0:0:0:
128,240,48315,1,0,0:0:0:0:
176,192,48420,1,0,0:0:0:0:
112,176,48525,1,0,0:0:0:0:
176,144,48630,1,0,0:0:0:0:
240,144,48735,1,0,0:0:0:0:
240,192,48840,1,0,0:0:0:0:
304,192,48945,1,0,0:0:0:0:
288,240,49050,1,0,0:0:0:0:
352,240,49154,1,0,0:0:0:0:
336,304,49259,5,0,0:0:0:0:
400,288,49364,1,0,0:0:0:0:
320,128,49469,5,0,0:0:0:0:
240,80,49574,1,0,0:0:0:0:
48,80,49679,1,0,0:0:0:0:
112,80,49784,1,0,0:0:0:0:
80,144,49889,1,0,0:0:0:0:
144,144,49994,1,0,0:0:0:0:
112,192,50099,1,0,0:0:0:0:
176,192,50203,1,0,0:0:0:0:
144,240,50308,1,0,0:0:0:0:
208,240,50413,1,0,0:0:0:0:
448,80,50519,6,0,P|464:192|416:224,3,170
192,320,51357,5,0,0:0:0:0:
144,304,51462,1,0,0:0:0:0:
224,320,51567,1,0,0:0:0:0:
272,304,51672,1,0,0:0:0:0:
176,304,51777,1,0,0:0:0:0:
256,304,51987,1,0,0:0:0:0:
320,272,52092,1,0,0:0:0:0:
128,272,52196,5,0,0:0:0:0:
48,208,52301,1,0,0:0:0:0:
272,272,52406,1,0,0:0:0:0:
336,208,52511,1,0,0:0:0:0:
160,176,52617,2,0,L|48:128,1,85
352,176,52827,6,0,L|448:144,1,85
96,336,53036,5,0,0:0:0:0:
144,336,53140,1,0,0:0:0:0:
208,320,53245,1,0,0:0:0:0:
240,256,53350,1,0,0:0:0:0:
208,192,53455,1,0,0:0:0:0:
144,176,53560,1,0,0:0:0:0:
144,240,53666,6,0,L|48:176,1,85
288,176,53875,5,0,0:0:0:0:
320,304,53980,1,0,0:0:0:0:
368,272,54085,1,0,0:0:0:0:
416,224,54189,1,0,0:0:0:0:
208,80,54294,1,0,0:0:0:0:
144,128,54399,1,0,0:0:0:0:
112,176,54504,1,0,0:0:0:0:
80,240,54609,1,0,0:0:0:0:
448,144,54715,6,0,L|448:240,1,85
32,272,54925,2,0,L|32:144,1,85
192,192,55238,1,0,0:0:0:0:
432,192,55343,1,0,0:0:0:0:
432,192,55448,1,0,0:0:0:0:
272,192,55553,1,0,0:0:0:0:
64,80,55764,2,0,L|272:80,2,170
208,304,56392,5,0,0:0:0:0:
272,320,56497,1,0,0:0:0:0:
336,320,56602,1,0,0:0:0:0:
400,304,56707,1,0,0:0:0:0:
416,240,56812,1,0,0:0:0:0:
384,176,57022,1,0,0:0:0:0:
320,160,57126,1,0,0:0:0:0:
256,176,57231,1,0,0:0:0:0:
208,224,57336,5,0,0:0:0:0:
288,224,57441,1,0,0:0:0:0:
336,176,57546,1,0,0:0:0:0:
304,112,57651,1,0,0:0:0:0:
240,96,57756,1,0,0:0:0:0:
176,112,57861,1,0,0:0:0:0:
128,160,57966,1,0,0:0:0:0:
176,208,58071,1,0,0:0:0:0:
240,224,58175,5,0,0:0:0:0:
304,192,58280,1,0,0:0:0:0:
256,144,58385,1,0,0:0:0:0:
176,160,58490,1,0,0:0:0:0:
128,224,58595,1,0,0:0:0:0:
288,320,58701,6,0,L|400:256,1,85
208,256,58911,2,0,L|96:272,1,85
304,192,59120,2,0,L|384:160,1,85
160,128,59330,2,0,L|48:144,1,85
176,64,59540,6,0,L|288:48,1,85
480,304,59750,2,0,L|384:304,2,85
48,304,60064,2,0,L|160:304,2,85
192,304,60379,1,0,0:0:0:0:
304,304,60484,1,0,0:0:0:0:
384,336,60589,2,0,P|448:240|432:224,2,170
256,192,61113,1,0,0:0:0:0:
384,48,61218,6,0,P|416:160|368:176,2,170
240,192,61847,1,0,0:0:0:0:
48,192,62057,2,0,L|160:192,2,85
448,192,62477,2,0,B|384:192|384:192|384:64,2,170
64,304,63106,1,0,0:0:0:0:
160,256,63210,1,0,0:0:0:0:
240,304,63315,1,0,0:0:0:0:
304,256,63420,1,0,0:0:0:0:
224,304,63525,1,0,0:0:0:0:
144,256,63630,1,0,0:0:0:0:
96,320,63735,1,0,0:0:0:0:
416,112,63945,5,0,0:0:0:0:
368,64,64050,1,0,0:0:0:0:
304,64,64154,1,0,0:0:0:0:
256,96,64259,1,0,0:0:0:0:
240,160,64364,1,0,0:0:0:0:
272,208,64469,1,0,0:0:0:0:
320,240,64575,2,0,L|448:192,1,85
64,128,64785,6,0,L|192:96,1,85
272,96,64994,1,0,0:0:0:0:
368,96,65099,1,0,0:0:0:0:
320,176,65203,1,0,0:0:0:0:
48,288,65414,2,0,L|48:176,1,85
464,192,65624,2,0,L|464:288,1,85
64,208,65833,1,0,0:0:0:0:
64,272,66043,5,0,0:0:0:0:
256,272,66252,1,0,0:0:0:0:
96,64,66463,2,0,P|96:224|48:176,2,382.500014591218
256,192,67197,1,0,0:0:0:0:
480,192,67302,6,0,L|480:96,1,85
384,192,67512,2,0,L|384:96,1,85
224,192,67722,2,0,L|224:80,1,85
32,192,67932,2,0,L|32:96,1,85
480,288,68141,5,0,0:0:0:0:
48,288,68456,1,0,0:0:0:0:
480,288,68771,5,0,0:0:0:0:
320,272,68981,6,0,L|128:272,1,170
48,288,69400,1,0,0:0:0:0:
256,208,69610,1,0,0:0:0:0:
192,208,69715,1,0,0:0:0:0:
400,240,69819,5,0,0:0:0:0:
368,288,69924,1,0,0:0:0:0:
432,192,70029,1,0,0:0:0:0:
416,144,70133,1,0,0:0:0:0:
384,96,70238,1,0,0:0:0:0:
336,64,70343,1,0,0:0:0:0:
384,48,70448,1,0,0:0:0:0:
432,32,70553,1,0,0:0:0:0:
256,208,70659,6,0,L|176:176,1,85
208,144,70868,1,0,0:0:0:0:
144,144,70973,1,0,0:0:0:0:
96,192,71078,1,0,0:0:0:0:
64,240,71182,1,0,0:0:0:0:
160,304,71288,6,0,L|64:304,2,85
320,336,71603,6,0,L|416:288,1,85
192,192,71813,2,0,L|0:192,1,170
336,64,72127,2,0,L|416:144,1,85
144,48,72337,2,0,L|48:144,1,85
240,160,72547,2,0,L|288:240,1,85
128,208,72757,6,0,L|48:272,1,85
288,272,72967,2,0,L|352:352,1,85
48,64,73176,2,0,P|240:48|-16:256,1,850
160,176,73806,1,0,0:0:0:0:
288,176,73911,1,0,0:0:0:0:
432,32,74015,2,0,P|256:32|464:320,1,680
160,192,74540,6,0,L|-32:192,1,170
448,160,74854,1,0,0:0:0:0:
352,144,74960,2,0,L|240:144,1,85
80,144,75273,1,0,0:0:0:0:
448,160,75484,2,0,L|208:160,1,170
112,144,75903,1,0,0:0:0:0:
416,208,76113,5,0,0:0:0:0:
176,208,76323,2,0,L|64:176,1,85
304,352,76532,5,0,0:0:0:0:
384,320,76637,1,0,0:0:0:0:
448,288,76742,1,0,0:0:0:0:
288,208,76847,1,0,0:0:0:0:
224,208,76952,1,0,0:0:0:0:
160,208,77057,1,0,0:0:0:0:
96,208,77161,1,0,0:0:0:0:
240,272,77266,1,0,0:0:0:0:
304,272,77371,1,0,0:0:0:0:
368,256,77476,1,0,0:0:0:0:
416,224,77581,1,0,0:0:0:0:
192,208,77686,1,0,0:0:0:0:
128,240,77791,1,0,0:0:0:0:
64,272,77896,1,0,0:0:0:0:
0,304,78001,1,0,0:0:0:0:
240,288,78106,1,0,0:0:0:0:
240,352,78210,1,0,0:0:0:0:
352,208,78315,5,0,0:0:0:0:
352,144,78420,1,0,0:0:0:0:
192,112,78525,1,0,0:0:0:0:
192,176,78630,1,0,0:0:0:0:
304,272,78736,6,0,P|288:208|256:224,1,85
160,224,78946,2,0,P|112:176|128:160,1,85
288,176,79155,2,0,P|336:128|320:112,1,85
208,144,79365,6,0,P|160:128|192:112,1,85
368,96,79575,2,0,P|320:64|304:96,1,85
80,192,79890,2,0,L|224:192,1,85
272,192,80099,1,0,0:0:0:0:
448,192,80309,2,0,L|352:192,2,85
203,335,80729,2,0,B|235:319|235:319|283:255,1,85
123,255,80939,6,0,B|91:239|91:239|75:175,1,85
219,191,81148,2,0,B|251:175|251:175|251:111,1,85
123,63,81358,2,0,B|107:79|107:175,1,85
272,336,81568,1,0,0:0:0:0:
320,320,81620,1,0,0:0:0:0:
368,304,81673,1,0,0:0:0:0:
400,208,81778,1,0,0:0:0:0:
368,176,81830,1,0,0:0:0:0:
320,160,81883,1,0,0:0:0:0:
272,160,81935,1,0,0:0:0:0:
352,144,82040,5,0,0:0:0:0:
352,96,82092,1,0,0:0:0:0:
352,48,82145,1,0,0:0:0:0:
320,16,82197,1,0,0:0:0:0:
272,16,82250,1,0,0:0:0:0:
224,32,82302,1,0,0:0:0:0:
176,64,82355,1,0,0:0:0:0:
160,112,82407,1,0,0:0:0:0:
160,160,82460,1,0,0:0:0:0:
192,192,82512,1,0,0:0:0:0:
240,192,82564,1,0,0:0:0:0:
160,240,82617,5,0,0:0:0:0:
128,272,82722,1,0,0:0:0:0:
112,320,82774,1,0,0:0:0:0:
144,352,82827,1,0,0:0:0:0:
176,384,82879,1,0,0:0:0:0:
240,368,82932,1,0,0:0:0:0:
304,368,82984,1,0,0:0:0:0:
352,336,83036,1,0,0:0:0:0:
320,304,83089,1,0,0:0:0:0:
272,272,83141,1,0,0:0:0:0:
304,240,83194,1,0,0:0:0:0:
160,304,83246,2,0,L|48:240,1,85
288,320,83456,5,0,0:0:0:0:
336,288,83509,1,0,0:0:0:0:
384,256,83561,1,0,0:0:0:0:
368,208,83613,1,0,0:0:0:0:
288,208,83666,5,0,0:0:0:0:
288,160,83718,1,0,0:0:0:0:
288,112,83771,1,0,0:0:0:0:
256,80,83823,1,0,0:0:0:0:
208,80,83876,1,0,0:0:0:0:
144,80,83928,1,0,0:0:0:0:
96,128,83981,1,0,0:0:0:0:
96,192,84033,1,0,0:0:0:0:
64,240,84086,1,0,0:0:0:0:
112,272,84138,1,0,0:0:0:0:
176,272,84190,1,0,0:0:0:0:
256,64,84295,2,0,L|352:32,1,85
368,320,84505,1,0,0:0:0:0:
416,288,84610,1,0,0:0:0:0:
224,288,84715,5,0,0:0:0:0:
304,256,84820,1,0,0:0:0:0:
368,208,84925,2,0,L|448:144,1,85
160,192,85134,2,0,L|48:128,1,85
368,96,85343,5,0,0:0:0:0:
304,112,85448,1,0,0:0:0:0:
224,224,85553,1,0,0:0:0:0:
272,272,85658,1,0,0:0:0:0:
336,304,85763,1,0,0:0:0:0:
384,240,85868,1,0,0:0:0:0:
320,240,85973,1,0,0:0:0:0:
272,304,86078,1,0,0:0:0:0:
336,336,86182,1,0,0:0:0:0:
400,304,86287,5,0,0:0:0:0:
432,224,86392,1,0,0:0:0:0:
384,176,86497,1,0,0:0:0:0:
320,160,86602,1,0,0:0:0:0:
256,208,86707,1,0,0:0:0:0:
336,224,86812,1,0,0:0:0:0:
336,144,86917,1,0,0:0:0:0:
256,144,87022,2,0,L|352:64,1,85
240,80,87285,5,0,0:0:0:0:
192,128,87336,5,0,0:0:0:0:
112,112,87441,1,0,0:0:0:0:
144,192,87546,1,0,0:0:0:0:
48,176,87651,1,0,0:0:0:0:
64,272,87756,1,0,0:0:0:0:
160,288,87861,1,0,0:0:0:0:
336,288,87967,6,0,L|432:240,1,85
96,240,88150,5,0,0:0:0:0:
256,192,88281,12,0,90799,0:0:0:0:
