osu file format v10

[General]
AudioFilename: only_my_railgun_euro.mp3
AudioLeadIn: 2000
PreviewTime: 11842
Countdown: 0
SampleSet: Normal
StackLeniency: 0.7
Mode: 0
LetterboxInBreaks: 0

[Editor]
Bookmarks: 5842,10875,12423,27907,66617
DistanceSpacing: 1
BeatDivisor: 4
GridSize: 8

[Metadata]
Title:only my railgun -Euro Beat Charger Mix-
TitleUnicode:only my railgun -Euro Beat Charger Mix-
Artist:fripSide
ArtistUnicode:fripSide
Creator:yongtw123
Version:Medium
Source:To Aru Kagaku no Railgun
Tags:tv size [kirisame-marisa] kirisame-marisa yia beatcharger youtube eurobeat
BeatmapID:166897
BeatmapSetID:47105

[Difficulty]
HPDrainRate:4
CircleSize:4
OverallDifficulty:4
ApproachRate:6
SliderMultiplier:1.2
SliderTickRate:1

[Events]
//Background and Video events
0,0,"bg.jpg"
//Break Periods
//Storyboard Layer 0 (Background)
//Storyboard Layer 1 (Fail)
//Storyboard Layer 2 (Pass)
//Storyboard Layer 3 (Foreground)
//Storyboard Sound Samples
//Background Colour Transformations
3,100,163,162,255

[TimingPoints]
36,387.096774193548,4,1,0,70,1,0
5746,-100,4,1,0,80,0,0
6326,-100,4,1,1,80,0,0
12326,-83.3333333333333,4,1,0,80,0,0
40197,-100,4,2,1,50,0,0
40390,-100,4,2,1,60,0,0
45617,-100,4,1,0,80,0,0
46294,-83.3333333333333,4,1,0,80,0,0
66520,-76.9230769230769,4,1,0,80,0,0
66616,-76.9230769230769,4,1,0,80,0,1
66713,-76.9230769230769,4,1,0,80,0,0
94487,-76.9230769230769,4,1,0,80,0,1
94584,-76.9230769230769,4,1,0,80,0,0
112294,-83.3333333333333,4,1,0,70,0,0
112488,-83.3333333333333,4,1,0,50,0,0
112681,-83.3333333333333,4,1,0,40,0,0
112875,-83.3333333333333,4,1,0,30,0,0
113068,-83.3333333333333,4,2,0,5,0,0

[Colours]
Combo1 : 5,5,240
Combo2 : 176,230,255

[HitObjects]
64,280,36,1,4,0:0:0
176,240,423,2,0,B|192:288|168:336,2,90
152,184,1197,2,0,B|160:112,2,60
272,160,1971,6,0,B|280:64,2,90
296,216,2745,2,0,B|304:248|288:280,2,60
416,240,3519,6,0,B|400:288|416:336,2,90
392,184,4293,2,0,B|400:112,2,60
272,160,5068,6,0,B|280:64,2,90
216,184,5842,2,0,B|152:168|96:192,1,120,0|4,0:0|0:0,0:0:0
40,208,6423,6,0,B|48:80,2,120,2|2|2,0:0|0:0|0:0,0:0:0
64,264,7390,1,0,0:0:0
64,264,7584,1,2,0:0:0
88,320,7777,5,0,0:0:0
88,320,7971,2,0,B|152:336|208:312,1,120,2|2,0:0|0:0,0:0:0
328,304,8745,2,0,B|392:312,2,60,2|0|2,0:0|0:0|0:0,0:0:0
256,192,9326,12,4,10874,0:0:0
320,80,12423,6,0,B|432:72,2,108.000002574921,4|0|0,0:0|0:0|0:0,0:0:0
280,144,13197,1,0,0:0:0
280,144,13390,1,0,0:0:0
320,208,13584,1,2,0:0:0
320,208,13777,1,0,0:0:0
320,280,13971,6,0,B|432:272,2,108.000002574921,2|0|0,0:0|0:0|0:0,0:0:0
248,264,14745,1,2,0:0:0
176,280,14939,2,0,B|168:320|184:360,2,72.0000017166138,0|2|0,0:0|0:0|0:0,0:0:0
160,208,15519,6,0,B|184:136|152:64,1,144.000003433228,2|0,0:0|0:0,0:0:0
48,168,16294,2,0,B|24:240|56:312,1,144.000003433228,2|0,0:0|0:0,0:0:0
160,208,17068,2,0,B|200:224|200:224|280:200,2,108.000002574921,2|0|2,0:0|0:0|0:0,0:0:0
192,64,18035,5,2,0:0:0
320,136,18423,1,2,0:0:0
320,136,18616,6,0,B|280:120|280:120|200:144,2,108.000002574921,4|0|0,0:0|0:0|0:0,0:0:0
392,128,19390,2,0,B|384:88|400:48,2,72.0000017166138,0|0|2,0:0|0:0|0:0,0:0:0
448,176,19971,1,0,0:0:0
416,240,20165,2,0,B|424:296|408:352,2,108.000002574921,2|0|0,0:0|0:0|0:0,0:0:0
344,224,20939,6,0,B|320:240|320:240|264:232,1,72.0000017166138,2|0,0:0|0:0,0:0:0
212,272,21326,2,0,B|169:265|169:265|145:281,1,72.0000017166138,2|0,0:0|0:0,0:0:0
88,328,21713,1,2,0:0:0
32,192,22100,1,0,0:0:0
168,136,22487,6,0,B|160:56,2,72.0000017166138
240,152,23068,1,0,0:0:0
304,112,23261,2,0,B|344:136|416:128|440:88,1,144.000003433228,2|2,0:0|0:0,0:0:0
360,216,24035,2,0,B|320:192|248:200|224:240,1,144.000003433228,2|2,0:0|0:0,0:0:0
80,232,24810,6,0,B|72:352,2,108.000002574921,4|0|0,0:0|0:0|0:0,0:0:0
128,176,25584,2,0,B|120:64,2,108.000002574921,4|0|0,0:0|0:0|0:0,0:0:0
184,224,26358,2,0,B|176:344,2,108.000002574921,2|2|2,0:0|0:0|0:0,0:0:0
256,104,27326,5,0,0:0:0
256,104,27519,2,0,B|328:120|328:120|392:88,1,144.000003433228,0|4,0:0|0:0,0:0:0
488,192,28294,1,0,0:0:0
424,320,28681,1,0,0:0:0
408,176,29068,1,0,0:0:0
344,304,29455,6,0,B|272:312,1,72.0000017166138,0|2,0:0|0:0,0:0:0
136,264,30035,2,0,B|216:256,1,72.0000017166138,0|2,0:0|0:0,0:0:0
72,208,30616,5,2,0:0:0
72,208,30810,1,0,0:0:0
72,208,31003,2,0,B|48:152|72:88,2,108.000002574921,2|0|0,0:0|0:0|0:0,0:0:0
144,192,31777,2,0,B|168:248|148:297,2,108.000002574921,2|0|0,0:0|0:0|0:0,0:0:0
168,120,32552,5,2,0:0:0
236,144,32745,1,0,0:0:0
308,144,32939,1,0,0:0:0
376,124,33132,1,0,0:0:0
428,76,33326,2,0,B|400:152|424:224,2,144.000003433228,2|0|4,0:0|0:0|0:0,0:0:0
368,208,34487,6,0,B|396:276|372:356,2,144.000003433228,0|2|0,0:0|0:0|0:0,0:0:0
248,280,35648,1,0,0:0:0
248,280,35842,1,2,0:0:0
248,280,36035,1,0,0:0:0
248,280,36229,1,2,0:0:0
176,232,36423,5,2,0:0:0
64,328,36810,1,2,0:0:0
40,184,37197,6,0,B|24:136|24:136|40:72,2,108.000002574921,2|0|0,0:0|0:0|0:0,0:0:0
104,144,37971,2,0,B|120:192|120:192|96:264,2,108.000002574921,2|0|0,0:0|0:0|0:0,0:0:0
168,104,38745,2,0,B|216:88|216:88|288:112,2,108.000002574921,2|0|0,0:0|0:0|0:0,0:0:0
192,176,39519,1,2,0:0:0
264,184,39713,1,0,0:0:0
336,176,39906,1,0,0:0:0
408,184,40100,1,0,0:0:0
480,176,40294,6,0,B|480:240,1,60,4|2,0:0|0:0,0:0:0
392,320,40874,1,2,0:0:0
392,320,41068,2,0,B|328:304|272:336,2,120,2|0|0,0:0|0:0|0:0,0:0:0
440,288,42035,1,2,0:0:0
368,192,42423,1,2,0:0:0
368,192,42616,6,0,B|352:128|376:64,2,120,2|0|0,0:0|0:0|0:0,0:0:0
320,224,43584,2,0,B|280:240|280:240|200:216,1,120,2|2,0:0|0:0,0:0:0
152,240,44165,5,2,0:0:0
72,328,44552,1,0,0:0:0
48,208,44939,1,0,0:0:0
48,208,45132,1,2,0:0:0
72,152,45326,1,0,0:0:0
72,152,45519,1,2,0:0:0
96,96,45713,5,0,0:0:0
96,96,46100,1,0,0:0:0
224,160,46487,6,0,B|232:104|216:48,2,108.000002574921,4|0|0,0:0|0:0|0:0,0:0:0
288,200,47261,2,0,B|368:224|432:184,1,144.000003433228
480,240,47842,1,0,0:0:0
480,240,48035,1,0,0:0:0
360,320,48423,1,0,0:0:0
360,320,48616,1,0,0:0:0
360,320,48810,6,0,B|280:296|216:336,1,144.000003433228
152,208,49584,1,0,0:0:0
72,328,49971,1,0,0:0:0
72,328,50358,5,0,0:0:0
56,256,50552,1,0,0:0:0
48,184,50745,2,0,B|56:104,2,72.0000017166138
160,88,51519,2,0,B|152:168,1,72.0000017166138
216,200,51906,1,0,0:0:0
272,64,52294,1,0,0:0:0
368,176,52681,6,0,B|432:192|480:160,2,108.000002574921
424,304,53648,1,0,0:0:0
352,292,53842,1,0,0:0:0
280,300,54035,1,0,0:0:0
212,328,54229,6,0,B|144:352|64:320,2,144.000003433228
220,256,55197,2,0,B|228:176,1,72.0000017166138
208,112,55584,1,0,0:0:0
208,112,55777,5,0,0:0:0
80,56,56165,1,0,0:0:0
88,200,56552,2,0,B|96:256|72:312,2,108.000002574921
136,144,57326,5,0,0:0:0
240,176,57616,1,0,0:0:0
304,88,57906,1,0,0:0:0
376,104,58100,2,0,B|416:112|456:88,2,72.0000017166138
456,224,58874,6,0,B|448:344,2,108.000002574921,4|0|0,0:0|0:0|0:0,0:0:0
328,160,59842,1,0,0:0:0
328,160,60035,1,0,0:0:0
328,160,60229,1,0,0:0:0
272,208,60423,6,0,B|200:184|128:224,3,144.000003433228
64,192,61777,1,0,0:0:0
64,192,61971,1,4,0:0:0
112,328,62358,1,0,0:0:0
112,328,62552,1,0,0:0:0
184,320,62745,6,0,B|216:344|216:344|296:328,2,108.000002574921
208,248,63519,2,0,B|288:224|368:264,1,144.000003433228,4|0,0:0|0:0,0:0:0
396,200,64100,1,0,0:0:0
468,212,64294,2,0,B|492:132|456:64,1,144.000003433228
392,96,64874,1,0,0:0:0
320,80,65068,6,0,B|200:80,2,108.000002574921,2|2|2,0:0|0:0|0:0,0:0:0
168,320,66616,6,0,B|51:320,2,116.999997907877,4|0|0,0:0|0:0|0:0,0:0:0
200,248,67390,1,0,0:0:0
200,248,67583,1,0,0:0:0
176,176,67777,1,2,0:0:0
176,176,67970,1,0,0:0:0
208,104,68165,6,0,B|88:104,2,116.999997907877,2|0|0,0:0|0:0|0:0,0:0:0
280,128,68938,1,2,0:0:0
328,64,69132,1,0,0:0:0
400,88,69325,1,2,0:0:0
400,168,69519,1,0,0:0:0
328,192,69712,5,2,0:0:0
392,336,70099,1,0,0:0:0
472,200,70487,1,0,0:0:0
472,200,70874,1,0,0:0:0
392,336,71261,5,2,0:0:0
296,264,71552,1,0,0:0:0
184,304,71842,2,0,B|160:344|64:352|32:312,1,155.999997210503,2|0,0:0|0:0,0:0:0
15,249,72423,1,2,0:0:0
64,192,72616,1,0,0:0:0
64,192,72810,6,0,B|72:72,2,116.999997907877,4|0|0,0:0|0:0|0:0,0:0:0
144,176,73584,2,0,B|152:56,2,116.999997907877
224,160,74358,2,0,B|232:40,2,116.999997907877
304,176,75132,5,2,0:0:0
352,240,75326,1,0,0:0:0
384,168,75519,1,2,0:0:0
432,232,75713,1,0,0:0:0
464,160,75906,5,2,0:0:0
400,304,76293,1,0,0:0:0
304,176,76681,1,0,0:0:0
240,320,77068,1,0,0:0:0
256,192,77455,12,4,79003,0:0:0
164,128,79390,5,0,0:0:0
316,96,79777,1,0,0:0:0
348,248,80165,1,2,0:0:0
196,280,80551,1,2,0:0:0
196,280,80745,1,0,0:0:0
164,128,81132,5,0,0:0:0
164,128,81326,2,0,B|176:48,2,77.9999986052513,2|0|2,0:0|0:0|0:0,0:0:0
88,104,81906,1,0,0:0:0
40,168,82100,2,0,B|24:208|24:288|48:336,1,155.999997210503,2|0,0:0|0:0,0:0:0
168,232,82874,1,0,0:0:0
304,304,83261,1,0,0:0:0
304,304,83648,6,0,B|360:280|432:304,2,116.999997907877,2|0|2,0:0|0:0|0:0,0:0:0
272,232,84423,2,0,B|288:144,1,77.9999986052513,0|2,0:0|0:0,0:0:0
272,80,84810,1,0,0:0:0
272,80,85003,1,2,0:0:0
344,104,85197,6,0,B|368:80|368:80|464:96,1,116.999997907877,4|0,0:0|0:0,0:0:0
416,208,85777,1,0,0:0:0
464,272,85971,2,0,B|440:296|440:296|384:280,1,77.9999986052513,0|0,0:0|0:0,0:0:0
328,320,86358,1,2,0:0:0
256,288,86552,1,0,0:0:0
192,336,86745,6,0,B|168:312|168:312|184:216,1,116.999997907877,2|0,0:0|0:0,0:0:0
96,144,87326,1,0,0:0:0
96,144,87519,2,0,B|104:224|72:304,2,155.999997210503,2|2|2,0:0|0:0|0:0,0:0:0
224,56,88681,1,0,0:0:0
240,208,89068,6,0,B|248:296,2,77.9999986052513
296,152,89648,1,0,0:0:0
376,160,89842,5,2,0:0:0
464,288,90229,1,2,0:0:0
456,136,90616,1,2,0:0:0
384,280,91003,1,2,0:0:0
240,336,91390,5,4,0:0:0
160,248,91681,1,0,0:0:0
48,280,91971,1,0,0:0:0
40,200,92165,5,4,0:0:0
176,168,92455,1,0,0:0:0
280,264,92745,1,0,0:0:0
320,192,92939,5,2,0:0:0
192,88,93229,1,2,0:0:0
32,120,93519,1,2,0:0:0
328,312,94487,6,0,B|408:288|480:328,2,155.999997210503,4|0|0,0:0|0:0|0:0,0:0:0
216,200,95648,2,0,B|248:216|304:224|344:208|368:184,1,155.999997210503
440,200,96229,1,2,0:0:0
352,72,96616,1,2,0:0:0
280,104,96810,6,0,B|248:88|192:80|152:96|128:120,1,155.999997210503,2|0,0:0|0:0,0:0:0
112,192,97390,1,0,0:0:0
40,160,97584,2,0,B|32:96|32:96|56:40,2,116.999997907877,2|0|0,0:0|0:0|0:0,0:0:0
48,240,98358,2,0,B|56:304|56:304|32:368,2,116.999997907877,2|0|0,0:0|0:0|0:0,0:0:0
112,192,99133,5,2,0:0:0
188,176,99326,1,0,0:0:0
268,180,99520,1,0,0:0:0
340,212,99713,1,0,0:0:0
396,268,99907,5,2,0:0:0
336,128,100294,1,0,0:0:0
472,56,100681,5,4,0:0:0
448,208,101068,1,0,0:0:0
448,208,101455,1,2,0:0:0
344,328,101842,2,0,B|264:304|184:336,1,155.999997210503
152,264,102423,1,2,0:0:0
152,264,102616,1,0,0:0:0
152,264,102810,1,2,0:0:0
152,264,103004,5,2,0:0:0
176,112,103391,1,2,0:0:0
64,224,103777,6,0,B|72:280|64:344,2,116.999997907877,2|0|0,0:0|0:0|0:0,0:0:0
128,176,104552,2,0,B|120:120|128:56,2,116.999997907877,2|0|0,0:0|0:0|0:0,0:0:0
192,224,105326,2,0,B|200:280|192:344,2,116.999997907877,2|0|0,0:0|0:0|0:0,0:0:0
256,176,106100,5,2,0:0:0
256,176,106294,1,0,0:0:0
328,208,106487,1,0,0:0:0
328,208,106681,1,2,0:0:0
360,136,106874,1,4,0:0:0
256,192,107068,12,0,113068,0:0:0
