osu file format v7

[General]
AudioFilename: only my railgun.mp3
AudioLeadIn: 3000
PreviewTime: 6158
Countdown: 0
SampleSet: Soft
StackLeniency: 0.7
Mode: 1
LetterboxInBreaks: 1

[Editor]
DistanceSpacing: 0.800000011920929
BeatDivisor: 4
GridSize: 8

[Metadata]
Title:only my railgun
Artist:fripSide
Creator:TaikoMaster
Version:Oni
Source:To Aru Kagaku No Railgun
Tags:To Aru Kagaku No Railgun fripSide Anime Japanese

[Difficulty]
HPDrainRate:6
CircleSize:6
OverallDifficulty:7
SliderMultiplier:1.6
SliderTickRate:4

[Events]
//Background and Video events
0,0,"only my railgun.png"
Video,64,"only my railgun.avi"
//Break Periods
//Storyboard Layer 0 (Background)
//Storyboard Layer 1 (Fail)
//Storyboard Layer 2 (Pass)
//Storyboard Layer 3 (Foreground)
//Storyboard Sound Samples
//Background Colour Transformations
3,100,163,162,255

[TimingPoints]
75,419.58041958042,4,2,0,60,1,0
6788,-100,4,2,0,60,0,1
25249,-100,4,2,0,40,0,0
32697,-100,4,2,0,60,0,0
55459,-100,4,2,0,60,0,1
87347,-100,4,2,0,60,0,0

[HitObjects]
256,192,75,1,0
256,192,494,1,0
256,192,914,1,0
256,192,1333,1,0
256,192,1753,1,0
256,192,1963,1,2
256,192,2172,1,2
256,192,2277,1,2
256,192,2382,1,0
256,192,2592,1,0
256,192,2802,1,2
256,192,3012,1,0
256,192,3116,1,0
256,192,3221,1,0
256,192,3326,1,0
256,192,3431,1,0
256,192,3536,1,0
256,192,3641,1,0
256,192,3746,1,0
256,192,3851,1,0
256,192,3956,1,0
256,192,4061,1,0
256,192,4165,1,0
256,192,4270,1,0
256,192,4375,1,0
256,192,4480,1,0
256,192,4585,1,0
256,192,4690,1,0
256,192,4760,1,0
256,192,4830,1,0
256,192,4900,1,0
256,192,5005,1,0
256,192,5109,2,0,B|40:296|504:304,1,400
256,192,6788,1,0
256,192,6998,1,0
256,192,7102,1,2
256,192,7312,1,0
256,192,7417,1,0
256,192,7627,1,0
256,192,7837,1,0
256,192,7942,1,0
256,192,8047,1,2
256,192,8151,1,0
256,192,8256,1,0
256,192,8466,1,0
256,192,8676,1,0
256,192,8780,1,2
256,192,8990,1,0
256,192,9095,1,0
256,192,9305,1,0
256,192,9515,1,0
256,192,9620,1,0
256,192,9725,1,2
256,192,9829,1,0
256,192,9934,1,0
256,192,10144,1,0
256,192,10459,1,0
256,192,10564,1,2
256,192,10774,1,0
256,192,10984,1,0
256,192,11089,1,2
256,192,11298,1,0
256,192,11403,1,2
256,192,11508,1,2
256,192,11613,1,0
256,192,11823,1,0
256,192,12137,1,0
256,192,12242,1,2
256,192,12557,1,0
256,192,12662,1,0
256,192,12767,1,2
256,192,12872,1,0
256,192,13081,1,2
256,192,13186,1,2
256,192,13291,1,0
256,192,13396,1,2
256,192,13501,1,0
256,192,13711,1,0
256,192,13815,1,2
256,192,14025,1,0
256,192,14130,1,0
256,192,14340,1,0
256,192,14550,1,0
256,192,14655,1,0
256,192,14760,1,2
256,192,14864,1,0
256,192,14969,1,0
256,192,15179,1,0
256,192,15389,1,0
256,192,15493,1,2
256,192,15703,1,0
256,192,15808,1,0
256,192,16018,1,0
256,192,16228,1,0
256,192,16333,1,0
256,192,16438,1,2
256,192,16542,1,0
256,192,16647,1,0
256,192,16858,1,0
256,192,17172,1,0
256,192,17277,1,2
256,192,17487,1,0
256,192,17697,1,0
256,192,17802,1,2
256,192,17907,1,0
256,192,18116,1,2
256,192,18326,1,2
256,192,18431,1,2
256,192,18536,1,0
256,192,18851,1,0
256,192,18956,1,2
256,192,19165,1,0
256,192,19270,1,2
256,192,19375,1,0
256,192,19480,1,2
256,192,19585,1,0
256,192,19795,1,2
256,192,19900,1,2
256,192,20005,1,0
256,192,20214,1,4
256,192,20424,1,2
256,192,20529,1,2
256,192,20634,1,0
256,192,20739,1,2
256,192,20844,1,0
256,192,21054,1,4
256,192,21263,1,2
256,192,21368,1,2
256,192,21473,1,0
256,192,21578,1,2
256,192,21683,1,0
256,192,21893,2,4,B|48:88|480:16|456:352|128:320,1,560,4|0
256,192,23571,1,0
256,192,23676,1,0
256,192,23781,1,0
256,192,23886,1,2
256,192,23991,1,0
256,192,24095,1,0
256,192,24200,1,0
256,192,24305,1,2
256,192,24410,1,0
256,192,24515,1,0
256,192,24620,1,0
256,192,24725,1,2
256,192,24830,1,0
256,192,24900,1,0
256,192,24970,1,0
256,192,25040,1,0
256,192,25144,1,0
256,192,27137,1,2
256,192,27557,1,2
256,192,27977,1,2
256,192,28396,1,2
256,192,28816,1,2
256,192,29235,1,2
256,192,29655,1,2
256,192,30075,1,2
256,192,30494,1,2
256,192,30914,1,2
256,192,31333,1,2
256,192,31753,1,2
256,192,32172,1,2
256,192,32592,1,2
256,192,32802,1,4
256,192,33221,1,4
256,192,33641,1,4
256,192,34061,1,2
256,192,34375,1,2
256,192,34480,1,0
256,192,34585,1,2
256,192,34795,1,0
256,192,34900,1,2
256,192,35109,1,0
256,192,35319,1,0
256,192,35739,1,2
256,192,36053,1,2
256,192,36158,1,0
256,192,36263,1,2
256,192,36473,1,0
256,192,36578,1,2
256,192,36787,1,0
256,192,36997,1,4
256,192,37312,1,0
256,192,37417,1,2
256,192,37627,1,0
256,192,37837,1,4
256,192,38151,1,0
256,192,38256,1,2
256,192,38466,1,0
256,192,38676,1,4
256,192,38991,1,0
256,192,39095,1,2
256,192,39305,1,0
256,192,39515,1,0
256,192,39620,1,2
256,192,39725,1,0
256,192,39935,1,2
256,192,40040,1,2
256,192,40144,1,2
256,192,40249,1,2
256,192,40354,1,2
256,192,40564,1,2
256,192,40669,1,2
256,192,40879,1,0
256,192,40984,1,0
256,192,41193,1,0
256,192,41403,1,2
256,192,41613,1,2
256,192,41718,1,2
256,192,41823,1,0
256,192,42033,1,0
256,192,42137,1,0
256,192,42242,1,0
256,192,42452,1,2
256,192,42662,1,0
256,192,42767,1,0
256,192,42872,1,0
256,192,42977,1,2
256,192,43081,1,2
256,192,43291,1,2
256,192,43501,1,2
256,192,43606,1,2
256,192,43711,1,0
256,192,43921,1,2
256,192,44026,1,2
256,192,44235,1,0
256,192,44340,1,0
256,192,44550,1,0
256,192,44655,1,2
256,192,44865,1,0
256,192,44970,1,2
256,192,45075,1,0
256,192,45179,1,0
256,192,45389,1,0
256,192,45704,1,0
256,192,45809,1,2
256,192,46019,1,0
256,192,46228,1,0
256,192,46333,1,2
256,192,46438,1,0
256,192,46648,1,2
256,192,46858,1,2
256,192,46963,1,2
256,192,47068,1,0
256,192,47277,1,0
256,192,47487,1,2
256,192,47802,1,2
256,192,47907,1,0
256,192,48116,1,0
256,192,48326,1,2
256,192,48431,1,2
256,192,48536,1,0
256,192,48746,1,0
256,192,49061,1,0
256,192,49165,1,2
256,192,49375,1,0
256,192,49480,1,2
256,192,49585,1,0
256,192,49690,1,0
256,192,49795,1,2
256,192,50005,1,2
256,192,50109,1,2
256,192,50214,1,2
256,192,50319,1,2
256,192,50424,1,0
256,192,50529,1,0
256,192,50634,1,0
256,192,50844,1,2
256,192,51054,1,0
256,192,51158,1,0
256,192,51263,1,0
256,192,51473,1,2
256,192,51683,1,0
256,192,51788,1,0
256,192,51893,1,0
256,192,52102,1,0
256,192,52207,1,0
256,192,52312,1,2
256,192,52417,1,0
256,192,52522,1,0
256,192,52627,1,2
256,192,52732,1,0
256,192,52837,1,0
256,192,52942,1,2
256,192,53047,1,0
256,192,53151,1,0
256,192,53256,1,2
256,192,53361,1,0
256,192,53431,1,0
256,192,53501,1,0
256,192,53571,1,0
256,192,53676,1,0
256,192,53781,1,4
256,192,54095,1,4
256,192,54410,1,4
256,192,55459,1,0
256,192,55669,1,0
256,192,55774,1,2
256,192,55983,1,0
256,192,56088,1,0
256,192,56298,1,0
256,192,56508,1,0
256,192,56613,1,0
256,192,56718,1,2
256,192,56823,1,0
256,192,56928,1,0
256,192,57032,1,0
256,192,57137,1,0
256,192,57347,1,0
256,192,57452,1,2
256,192,57662,1,0
256,192,57767,1,0
256,192,57977,1,0
256,192,58186,1,0
256,192,58291,1,0
256,192,58396,1,2
256,192,58501,1,0
256,192,58606,1,0
256,192,58816,1,0
256,192,59130,1,0
256,192,59235,1,2
256,192,59445,1,0
256,192,59655,1,0
256,192,59760,1,2
256,192,59970,1,0
256,192,60075,1,2
256,192,60179,1,2
256,192,60284,1,0
256,192,60494,1,0
256,192,60704,1,0
256,192,60809,1,0
256,192,60914,1,2
256,192,61228,1,0
256,192,61333,1,0
256,192,61438,1,2
256,192,61543,1,0
256,192,61753,1,2
256,192,61858,1,2
256,192,61963,1,0
256,192,62172,1,0
256,192,62382,1,0
256,192,62487,1,2
256,192,62697,1,0
256,192,62802,1,0
256,192,63012,1,0
256,192,63221,1,0
256,192,63326,1,0
256,192,63431,1,2
256,192,63536,1,0
256,192,63641,1,0
256,192,63851,1,0
256,192,64061,1,0
256,192,64165,1,2
256,192,64375,1,0
256,192,64480,1,0
256,192,64690,1,0
256,192,64900,1,0
256,192,65005,1,0
256,192,65109,1,2
256,192,65214,1,0
256,192,65319,1,0
256,192,65529,1,0
256,192,65844,1,0
256,192,65949,1,2
256,192,66158,1,0
256,192,66368,1,0
256,192,66473,1,2
256,192,66578,1,0
256,192,66788,1,2
256,192,66998,1,0
256,192,67207,1,0
256,192,67522,1,0
256,192,67627,1,2
256,192,67837,1,0
256,192,67942,1,2
256,192,68047,1,0
256,192,68151,1,2
256,192,68256,1,0
256,192,68361,1,0
256,192,68466,1,2
256,192,68571,1,2
256,192,68676,1,0
256,192,68781,1,2
256,192,68886,1,0
256,192,69095,1,0
256,192,69200,1,2
256,192,69305,1,2
256,192,69410,1,0
256,192,69515,1,0
256,192,69725,1,0
256,192,69935,1,0
256,192,70040,1,0
256,192,70144,1,2
256,192,70249,1,0
256,192,70354,1,0
256,192,70564,1,0
256,192,70774,1,0
256,192,70879,1,2
256,192,70984,1,2
256,192,71088,1,0
256,192,71193,1,0
256,192,71403,1,0
256,192,71613,1,0
256,192,71718,1,0
256,192,71823,1,2
256,192,71928,1,0
256,192,72033,1,0
256,192,72242,1,0
256,192,72557,1,0
256,192,72662,1,2
256,192,72872,1,0
256,192,73081,1,0
256,192,73186,1,2
256,192,73396,1,0
256,192,73501,1,2
256,192,73711,1,0
256,192,73816,1,0
256,192,73921,1,0
256,192,74130,1,0
256,192,74235,1,0
256,192,74340,1,2
256,192,74655,1,0
256,192,74760,1,0
256,192,74865,1,2
256,192,74970,1,0
256,192,75179,1,2
256,192,75284,1,2
256,192,75389,1,0
256,192,75599,1,0
256,192,75809,1,0
256,192,75914,1,2
256,192,76019,1,2
256,192,76123,1,0
256,192,76228,1,0
256,192,76438,1,0
256,192,76648,1,0
256,192,76753,1,0
256,192,76858,1,2
256,192,76963,1,0
256,192,77068,1,0
256,192,77277,1,0
256,192,77487,1,0
256,192,77592,1,2
256,192,77697,1,2
256,192,77802,1,0
256,192,77907,1,0
256,192,78116,1,0
256,192,78326,1,0
256,192,78431,1,0
256,192,78536,1,2
256,192,78641,1,0
256,192,78746,1,0
256,192,78956,1,0
256,192,79270,1,0
256,192,79375,1,2
256,192,79585,1,0
256,192,79795,1,0
256,192,79900,1,2
256,192,80005,1,0
256,192,80214,1,2
256,192,80424,1,2
256,192,80529,1,2
256,192,80634,1,0
256,192,80949,1,0
256,192,81054,1,2
256,192,81263,1,0
256,192,81368,1,2
256,192,81473,1,0
256,192,81578,1,2
256,192,81683,1,0
256,192,81893,1,2
256,192,81998,1,2
256,192,82102,1,0
256,192,82312,1,4
256,192,82522,1,2
256,192,82627,1,2
256,192,82732,1,0
256,192,82837,1,2
256,192,82942,1,0
256,192,83151,1,4
256,192,83361,1,2
256,192,83466,1,2
256,192,83571,1,0
256,192,83676,1,2
256,192,83781,1,0
256,192,83991,2,4,B|-16:16|480:56|464:344|240:344,1,560,4|0
256,192,85669,1,0
256,192,85774,1,0
256,192,85879,1,0
256,192,85984,1,0
256,192,86088,1,2
256,192,86158,1,2
256,192,86228,1,2
256,192,86298,1,0
256,192,86403,1,0
256,192,86508,1,2
256,192,86578,1,2
256,192,86648,1,2
256,192,86718,1,0
256,192,86823,1,0
256,192,86928,1,0
256,192,87033,1,0
256,192,87137,1,0
