osu file format v7

[General]
AudioFilename: only my railgun.mp3
AudioLeadIn: 3000
PreviewTime: 6158
Countdown: 0
SampleSet: Soft
StackLeniency: 0.7
Mode: 1
LetterboxInBreaks: 1

[Editor]
DistanceSpacing: 0.800000011920929
BeatDivisor: 2
GridSize: 8

[Metadata]
Title:only my railgun
Artist:fripSide
Creator:TaikoMaster
Version:Futsuu
Source:To Aru Kagaku No Railgun
Tags:To Aru Kagaku No Railgun fripSide Anime Japanese

[Difficulty]
HPDrainRate:2
CircleSize:3
OverallDifficulty:2
SliderMultiplier:1
SliderTickRate:4

[Events]
//Background and Video events
0,0,"only my railgun.png"
Video,64,"only my railgun.avi"
//Break Periods
//Storyboard Layer 0 (Background)
//Storyboard Layer 1 (Fail)
//Storyboard Layer 2 (Pass)
//Storyboard Layer 3 (Foreground)
//Storyboard Sound Samples
//Background Colour Transformations
3,100,163,162,255

[TimingPoints]
75,419.58041958042,4,2,0,60,1,0
75,-100,4,2,0,60,0,0
6788,-100,4,2,0,60,0,1
25249,-100,4,2,0,40,0,0
32697,-100,4,2,0,60,0,0
55459,-100,4,2,0,60,0,1
87347,-100,4,2,0,60,0,0

[HitObjects]
256,192,75,1,0
256,192,494,1,0
256,192,914,1,0
256,192,1333,1,0
256,192,1753,1,0
256,192,2172,1,2
256,192,2592,1,0
256,192,3012,2,0,B|48:96|128:264|424:304,1,400,0|0
256,192,5109,1,4
256,192,6788,1,0
256,192,7207,1,2
256,192,7627,1,0
256,192,8047,1,2
256,192,8466,1,0
256,192,8886,1,2
256,192,9305,1,0
256,192,9725,1,2
256,192,10144,1,0
256,192,10564,1,2
256,192,10984,1,0
256,192,11193,1,2
256,192,11403,1,2
256,192,11823,1,0
256,192,12242,1,2
256,192,12662,1,0
256,192,12872,1,2
256,192,13081,1,2
256,192,13291,1,2
256,192,13501,1,0
256,192,13921,1,2
256,192,14340,1,0
256,192,14760,1,2
256,192,15179,1,0
256,192,15599,1,2
256,192,16018,1,0
256,192,16438,1,2
256,192,16858,1,0
256,192,17277,1,2
256,192,17487,1,2
256,192,17697,1,0
256,192,18116,1,2
256,192,18326,1,2
256,192,18536,1,0
256,192,18956,1,2
256,192,19375,1,0
256,192,19585,1,0
256,192,19795,1,2
256,192,20005,1,0
256,192,20214,1,4
256,192,20634,1,2
256,192,20844,1,0
256,192,21054,1,4
256,192,21473,1,2
256,192,21683,1,0
256,192,21893,2,4,B|448:328|472:16|48:112|16:288|456:352,1,700,4|0
256,192,25144,1,4
256,192,27137,1,2
256,192,27557,1,2
256,192,27977,1,2
256,192,28396,1,2
256,192,28816,1,2
256,192,29235,1,2
256,192,29655,1,2
256,192,30075,1,2
256,192,30494,1,2
256,192,30914,1,2
256,192,31333,1,2
256,192,31753,1,2
256,192,32172,1,2
256,192,32592,1,2
256,192,32802,1,4
256,192,33221,1,4
256,192,33641,1,4
256,192,34061,1,2
256,192,34480,1,0
256,192,34690,1,2
256,192,34900,1,2
256,192,35109,1,2
256,192,35319,1,0
256,192,35739,1,2
256,192,36158,1,0
256,192,36368,1,2
256,192,36578,1,2
256,192,36787,1,2
256,192,36997,1,4
256,192,37417,1,2
256,192,37837,1,4
256,192,38256,1,2
256,192,38466,1,2
256,192,38676,1,4
256,192,39095,1,2
256,192,39305,1,2
256,192,39515,1,0
256,192,39935,1,2
256,192,40144,1,2
256,192,40354,1,0
256,192,40774,1,2
256,192,41193,1,0
256,192,41403,1,2
256,192,41613,1,2
256,192,42033,1,0
256,192,42452,1,2
256,192,42872,1,0
256,192,43081,1,2
256,192,43291,1,2
256,192,43501,1,2
256,192,43711,1,0
256,192,44130,1,2
256,192,44550,1,0
256,192,44970,1,2
256,192,45179,1,2
256,192,45389,1,0
256,192,45809,1,2
256,192,46228,1,0
256,192,46438,1,2
256,192,46648,1,2
256,192,47068,1,0
256,192,47277,1,0
256,192,47487,1,2
256,192,47907,1,0
256,192,48326,1,2
256,192,48536,1,2
256,192,48746,1,0
256,192,49165,1,2
256,192,49375,1,2
256,192,49585,1,0
256,192,49795,1,2
256,192,50005,1,2
256,192,50214,1,2
256,192,50424,1,0
256,192,50844,1,2
256,192,51263,1,0
256,192,51473,1,2
256,192,51683,1,2
256,192,51893,1,2
256,192,52102,1,0
256,192,52522,1,0
256,192,52942,1,0
256,192,53361,1,0
256,192,53781,1,4
256,192,54095,1,4
256,192,54410,1,4
256,192,55459,1,0
256,192,55879,1,2
256,192,56298,1,0
256,192,56718,1,2
256,192,57137,1,0
256,192,57557,1,2
256,192,57977,1,0
256,192,58396,1,2
256,192,58816,1,0
256,192,59235,1,2
256,192,59655,1,0
256,192,59865,1,2
256,192,60075,1,2
256,192,60494,1,0
256,192,60914,1,2
256,192,61333,1,0
256,192,61543,1,2
256,192,61753,1,2
256,192,61963,1,2
256,192,62172,1,0
256,192,62592,1,2
256,192,63012,1,0
256,192,63431,1,2
256,192,63851,1,0
256,192,64270,1,2
256,192,64690,1,0
256,192,65109,1,2
256,192,65529,1,0
256,192,65949,1,2
256,192,66368,1,0
256,192,66578,1,0
256,192,66788,1,2
256,192,66998,1,2
256,192,67207,1,0
256,192,67627,1,2
256,192,67837,1,2
256,192,68047,1,0
256,192,68256,1,2
256,192,68466,1,2
256,192,68676,1,2
256,192,68886,1,0
256,192,69305,1,2
256,192,69725,1,0
256,192,70144,1,2
256,192,70564,1,0
256,192,70984,1,2
256,192,71403,1,0
256,192,71823,1,2
256,192,72242,1,0
256,192,72662,1,2
256,192,73081,1,0
256,192,73291,1,2
256,192,73501,1,2
256,192,73711,1,0
256,192,73921,1,0
256,192,74340,1,2
256,192,74760,1,0
256,192,74970,1,2
256,192,75179,1,2
256,192,75389,1,2
256,192,75599,1,0
256,192,75809,1,2
256,192,76019,1,2
256,192,76438,1,0
256,192,76648,1,0
256,192,76858,1,2
256,192,77277,1,0
256,192,77487,1,2
256,192,77697,1,2
256,192,77907,1,0
256,192,78116,1,0
256,192,78536,1,2
256,192,78746,1,2
256,192,78956,1,0
256,192,79375,1,2
256,192,79795,1,0
256,192,80005,1,2
256,192,80214,1,2
256,192,80424,1,2
256,192,80634,1,0
256,192,81054,1,2
256,192,81263,1,0
256,192,81473,1,2
256,192,81683,1,2
256,192,81893,1,2
256,192,82102,1,2
256,192,82312,1,4
256,192,82522,1,2
256,192,82732,1,2
256,192,82942,1,0
256,192,83151,1,4
256,192,83361,1,2
256,192,83571,1,2
256,192,83781,1,0
256,192,83991,2,4,B|176:368|104:104|256:24,1,350,4|0
256,192,85669,1,0
256,192,86088,1,2
256,192,86298,1,0
256,192,86508,1,4
256,192,86823,1,4
256,192,87137,1,4
