osu file format v13

[General]
AudioFilename: OMR.mp3
AudioLeadIn: 0
PreviewTime: 7169
Countdown: 0
SampleSet: Normal
StackLeniency: 0.5
Mode: 0
LetterboxInBreaks: 0
WidescreenStoryboard: 1

[Editor]
DistanceSpacing: 1
BeatDivisor: 4
GridSize: 4
TimelineZoom: 1.3

[Metadata]
Title:only my railgun (TV size)
TitleUnicode:only my railgun (TV size)
Artist:fripSide
ArtistUnicode:fripSide
Creator:m1223961117
Version:Insane
Source:とある科学の超電磁砲
Tags:Opening a certain magical railgun Toaru Kagaku no Railgun Misaka Mikoto Shirai Kuroko Uiharu Kazari Saten Ruiko Koalazy leon1341414 Snowy Heart Papcio 御坂 美琴 白井 黑子 初春 飾利 佐天 淚子
BeatmapID:383936
BeatmapSetID:156738

[Difficulty]
HPDrainRate:7
CircleSize:4
OverallDifficulty:7
ApproachRate:8
SliderMultiplier:1.6
SliderTickRate:1

[Events]
//Background and Video events
0,0,"BG.jpg",0,0
Video,-90,"VDO.avi"
//Break Periods
2,26355,27189
//Storyboard Layer 0 (Background)
//Storyboard Layer 1 (Fail)
//Storyboard Layer 2 (Pass)
//Storyboard Layer 3 (Foreground)
//Storyboard Sound Samples
//Background Colour Transformations
3,100,163,162,255

[TimingPoints]
1086,419.58041958042,4,1,1,80,1,0
7169,-100,4,2,1,50,0,0
7799,-100,4,1,1,80,0,0
27939,-100,4,2,1,50,0,0
33813,-100,4,1,1,50,0,0
53953,-66.6666666666667,4,2,1,50,0,0
54792,-100,4,1,1,50,0,0
56470,-90.9090909090909,4,1,1,80,0,1
68218,-90.9090909090909,4,2,1,70,0,0
68638,-90.9090909090909,4,1,1,70,0,0
68673,-90.9090909090909,4,2,1,70,0,0
68848,-90.9090909090909,4,2,1,80,0,0
69477,-90.9090909090909,4,1,1,80,0,0
69897,-80,4,1,1,80,0,1
88148,-80,4,2,1,80,0,0
88253,-80,4,1,1,50,0,0
91715,-100,4,2,1,5,0,0

[Colours]
Combo1 : 255,128,128
Combo2 : 255,188,121
Combo3 : 255,255,117
Combo4 : 128,255,128

[HitObjects]
73,153,1086,5,0,0:0:0:0:
117,76,1295,1,0,0:0:0:0:
150,197,1505,1,0,0:0:0:0:
200,56,1715,1,0,0:0:0:0:
200,56,1820,2,0,P|247:99|331:101,1,120
384,80,2344,1,0,0:0:0:0:
484,144,2554,1,0,0:0:0:0:
484,144,2659,1,0,0:0:0:0:
484,144,2764,5,0,0:0:0:0:
392,40,2974,1,0,0:0:0:0:
344,168,3183,2,0,P|320:208|272:240,1,80
256,240,3498,2,0,P|184:232|124:256,1,120
260,340,4023,2,0,L|368:304,1,80
376,300,4337,1,0,0:0:0:0:
256,192,4442,12,0,6120,0:0:0:0:
372,84,7169,5,0,0:0:0:0:
324,184,7379,1,0,0:0:0:0:
264,96,7589,1,0,0:0:0:0:
372,84,7799,6,0,P|424:96|456:132,1,80,4|0,0:0|0:0,0:0:0:0:
460,152,8113,1,0,0:0:0:0:
460,152,8218,2,0,L|384:224,1,80,8|0,0:0|0:0,0:0:0:0:
192,268,8638,2,0,P|240:244|296:252,1,80
304,264,8953,1,0,0:0:0:0:
304,264,9058,1,8,0:0:0:0:
388,164,9267,1,0,0:0:0:0:
280,108,9477,2,0,P|240:68|232:20,1,80,0|0,0:0|0:0,0:0:0:0:
224,8,9792,1,0,0:0:0:0:
224,8,9897,2,0,L|123:42,1,80,8|0,0:0|0:0,0:0:0:0:
88,188,10316,5,0,0:0:0:0:
193,331,10526,1,0,0:0:0:0:
193,152,10736,1,8,0:0:0:0:
88,296,10946,1,0,0:0:0:0:
257,241,11155,2,0,P|337:229|397:257,1,120,0|0,0:0|0:0,0:0:0:0:
409,269,11575,2,0,P|429:229|421:165,1,80,8|0,0:0|0:0,0:0:0:0:
368,76,11995,1,0,0:0:0:0:
368,76,12204,1,0,0:0:0:0:
292,188,12414,6,0,P|232:212|152:192,1,120,8|0,0:0|0:0,0:0:0:0:
140,184,12834,2,0,L|116:128,1,40,0|0,0:0|0:0,0:0:0:0:
256,44,13148,1,0,0:0:0:0:
256,44,13253,2,0,P|280:96|280:148,1,80,8|0,0:0|0:0,0:0:0:0:
232,304,13673,1,0,0:0:0:0:
232,304,13778,1,0,0:0:0:0:
232,304,13883,1,0,0:0:0:0:
232,304,13988,1,0,0:0:0:0:
232,304,14092,2,0,P|248:264|296:220,1,80,8|0,0:0|0:0,0:0:0:0:
452,276,14512,6,0,P|388:296|340:284,1,80,4|0,0:0|0:0,0:0:0:0:
336,280,14827,1,0,0:0:0:0:
336,280,14932,2,0,L|360:184,1,80,8|0,0:0|0:0,0:0:0:0:
256,44,15351,2,0,L|228:148,1,80
204,148,15666,1,0,0:0:0:0:
204,148,15771,2,0,P|164:124|112:116,1,80,8|0,0:0|0:0,0:0:0:0:
32,244,16190,1,0,0:0:0:0:
148,316,16400,1,0,0:0:0:0:
148,316,16505,1,0,0:0:0:0:
148,316,16610,2,0,L|244:296,1,80,8|0,0:0|0:0,0:0:0:0:
336,280,17030,5,0,0:0:0:0:
432,120,17239,1,0,0:0:0:0:
432,264,17449,1,8,0:0:0:0:
340,96,17659,1,0,0:0:0:0:
250,260,17869,2,0,P|204:298|147:316,1,120,4|0,0:0|0:0,0:0:0:0:
108,300,18288,2,0,P|126:252|165:228,1,80,8|0,0:0|0:0,0:0:0:0:
312,240,18708,5,0,0:0:0:0:
448,340,18918,1,0,0:0:0:0:
284,328,19127,1,8,0:0:0:0:
208,176,19337,1,0,0:0:0:0:
412,204,19547,2,0,P|400:276|352:324,1,120,4|0,0:0|0:0,0:0:0:0:
327,315,19967,2,0,P|311:279|311:239,1,80,8|0,0:0|0:0,0:0:0:0:
356,84,20386,1,0,0:0:0:0:
356,84,20491,1,0,0:0:0:0:
312,240,20701,1,0,0:0:0:0:
312,240,20806,2,0,L|228:216,1,80,8|0,0:0|0:0,0:0:0:0:
100,156,21225,6,0,P|80:120|96:48,1,80,4|0,0:0|0:0,0:0:0:0:
79,81,21540,1,0,0:0:0:0:
79,81,21645,1,8,0:0:0:0:
216,88,21855,1,0,0:0:0:0:
216,224,22065,2,0,P|184:292|152:312,1,80,4|0,0:0|0:0,0:0:0:0:
144,312,22379,1,0,0:0:0:0:
144,312,22484,1,8,0:0:0:0:
216,88,22694,1,0,0:0:0:0:
312,292,22904,5,4,0:0:0:0:
216,224,23113,2,0,L|232:172,1,40
248,144,23323,2,0,P|284:116|348:116,1,80,8|0,0:0|0:0,0:0:0:0:
452,132,23743,1,0,0:0:0:0:
448,168,23848,1,0,0:0:0:0:
444,204,23953,1,0,0:0:0:0:
440,240,24058,2,0,L|376:260,1,40,0|8,0:0|0:0,0:0:0:0:
216,224,24372,1,0,0:0:0:0:
332,68,24582,5,0,0:0:0:0:
328,100,24687,1,0,0:0:0:0:
324,136,24792,1,0,0:0:0:0:
320,172,24897,1,0,0:0:0:0:
316,204,25002,1,8,0:0:0:0:
312,240,25106,1,0,0:0:0:0:
308,272,25211,1,0,0:0:0:0:
304,308,25316,1,0,0:0:0:0:
300,340,25421,6,0,L|240:320,1,40
216,224,25631,2,0,L|164:248,1,40
80,296,25841,2,0,L|51:284,6,20,8|0|0|0|0|0|0,0:0|0:0|0:0|0:0|0:0|0:0|0:0,0:0:0:0:
240,160,27939,5,6,0:0:0:0:
164,53,28148,1,2,0:0:0:0:
162,185,28358,1,2,0:0:0:0:
242,76,28568,1,2,0:0:0:0:
114,117,28778,2,0,L|30:157,1,80,2|0,0:0|0:0,0:0:0:0:
240,160,29197,2,0,L|312:125,1,80
344,260,29617,2,2,P|328:316|340:352,1,80
444,256,30037,2,2,P|428:200|388:168,1,80
240,160,30456,5,2,0:0:0:0:
204,296,30666,1,0,0:0:0:0:
344,260,30876,1,0,0:0:0:0:
264,48,31086,1,0,0:0:0:0:
161,175,31295,6,2,L|240:160,1,80
348,76,31715,1,2,0:0:0:0:
264,48,31925,2,2,L|160:68,1,80
76,148,32344,1,0,0:0:0:0:
204,256,32554,2,0,P|267:219|304:220,1,80
452,288,32974,2,0,L|436:236,1,40
360,204,33183,2,0,L|376:148,1,40
400,80,33393,1,0,0:0:0:0:
364,72,33498,1,0,0:0:0:0:
328,64,33603,1,0,0:0:0:0:
292,56,33708,1,0,0:0:0:0:
256,48,33813,5,0,0:0:0:0:
256,340,34232,1,0,0:0:0:0:
256,48,34652,6,0,P|244:128|196:180,1,120,4|0,0:0|0:0,0:0:0:0:
184,184,35072,2,0,L|88:200,1,80,8|0,0:0|0:0,0:0:0:0:
144,76,35491,1,0,0:0:0:0:
264,216,35701,1,0,0:0:0:0:
264,216,35911,2,0,L|380:200,1,80,8|0,0:0|0:0,0:0:0:0:
452,316,36330,1,0,0:0:0:0:
452,316,36435,2,0,L|344:332,1,80,4|0,0:0|0:0,0:0:0:0:
332,332,36750,1,8,0:0:0:0:
200,336,36960,1,0,0:0:0:0:
124,153,37169,6,0,L|144:76,1,80
224,180,37589,1,8,0:0:0:0:
116,276,37799,1,0,0:0:0:0:
200,92,38009,2,0,P|252:92|312:152,1,120,4|0,0:0|0:0,0:0:0:0:
316,176,38428,2,0,P|376:168|408:140,1,80,8|0,0:0|0:0,0:0:0:0:
408,36,38848,1,4,0:0:0:0:
303,132,39058,1,0,0:0:0:0:
464,104,39267,1,8,0:0:0:0:
464,104,39477,1,0,0:0:0:0:
224,80,39687,6,0,L|188:232,1,120,4|0,0:0|0:0,0:0:0:0:
172,232,40106,2,0,P|136:256|80:256,1,80,8|0,0:0|0:0,0:0:0:0:
76,116,40526,1,0,0:0:0:0:
76,116,40631,1,0,0:0:0:0:
172,232,40841,1,0,0:0:0:0:
172,232,40946,1,0,0:0:0:0:
224,80,41155,1,0,0:0:0:0:
252,256,41365,6,0,P|284:312|324:332,1,80,4|0,0:0|0:0,0:0:0:0:
332,340,41680,1,0,0:0:0:0:
332,340,41785,2,0,L|449:344,1,80,8|0,0:0|0:0,0:0:0:0:
453,344,42099,1,0,0:0:0:0:
440,180,42309,1,0,0:0:0:0:
440,180,42414,2,0,P|393:177|324:200,1,80,0|8,0:0|0:0,0:0:0:0:
295,320,42834,1,0,0:0:0:0:
203,194,43044,6,0,P|196:128|228:56,1,120,4|0,0:0|0:0,0:0:0:0:
216,72,43463,2,0,L|104:42,1,80,8|0,0:0|0:0,0:0:0:0:
96,42,43778,1,0,0:0:0:0:
96,42,43883,1,0,0:0:0:0:
112,296,44092,1,0,0:0:0:0:
203,194,44302,2,0,L|312:180,1,80,8|0,0:0|0:0,0:0:0:0:
324,192,44617,5,0,0:0:0:0:
324,192,44722,2,0,P|340:260|324:300,1,80,4|0,0:0|0:0,0:0:0:0:
244,344,45141,1,8,0:0:0:0:
203,194,45351,1,0,0:0:0:0:
328,80,45561,1,0,0:0:0:0:
328,80,45666,2,0,P|383:92|432:160,1,120,0|8,0:0|0:0,0:0:0:0:
408,284,46190,1,0,0:0:0:0:
264,264,46400,6,0,L|140:280,1,120
100,268,46820,2,0,P|85:214|93:174,1,80,8|0,0:0|0:0,0:0:0:0:
208,44,47239,2,0,P|241:111|228:188,1,120
276,184,47659,2,0,P|329:198|380:181,1,80,8|0,0:0|0:0,0:0:0:0:
448,120,48079,5,4,0:0:0:0:
336,72,48288,1,0,0:0:0:0:
336,72,48393,2,0,L|236:100,1,80
228,124,48708,2,0,L|136:100,1,80
236,24,49127,5,0,0:0:0:0:
276,184,49337,1,8,0:0:0:0:
200,320,49547,1,0,0:0:0:0:
68,252,49757,2,0,P|132:216|200:220,1,120,4|0,0:0|0:0,0:0:0:0:
216,228,50176,1,8,0:0:0:0:
320,308,50386,6,0,L|380:296,1,40
384,216,50596,1,0,0:0:0:0:
356,188,50701,1,0,0:0:0:0:
340,152,50806,1,0,0:0:0:0:
336,112,50911,1,0,0:0:0:0:
344,72,51016,1,8,0:0:0:0:
464,112,51225,5,0,0:0:0:0:
335,231,51435,2,0,L|216:228,1,120,4|0,0:0|0:0,0:0:0:0:
180,244,51855,2,0,P|156:300|159:352,1,80,8|0,0:0|0:0,0:0:0:0:
336,232,52274,2,0,P|324:184|292:140,1,80
276,132,52589,2,0,L|224:108,1,40,0|8,0:0|0:0,0:0:0:0:
120,64,52904,1,0,0:0:0:0:
64,256,53113,5,4,0:0:0:0:
100,244,53218,1,0,0:0:0:0:
136,232,53323,1,0,0:0:0:0:
172,220,53428,1,0,0:0:0:0:
208,208,53533,2,0,L|268:228,1,40,8|0,0:0|0:0,0:0:0:0:
444,200,53743,2,0,L|406:186,1,40
340,272,53953,6,0,L|344:300,21,20.0000007629395
340,272,54792,5,4,0:0:0:0:
316,64,55106,1,4,0:0:0:0:
340,272,55421,1,4,0:0:0:0:
340,272,55841,5,0,0:0:0:0:
368,128,56051,1,0,0:0:0:0:
424,252,56260,1,0,0:0:0:0:
240,196,56470,6,0,P|180:188|124:212,1,88.000002685547,4|0,0:0|0:0,0:0:0:0:
112,224,56785,1,0,0:0:0:0:
112,224,56890,2,0,P|116:284|152:340,1,88.000002685547,8|0,0:0|0:0,0:0:0:0:
324,220,57309,2,0,P|316:164|280:116,1,88.000002685547
260,108,57624,2,0,P|244:140|252:176,1,44.0000013427735,0|8,0:0|0:0,0:0:0:0:
256,336,57939,1,0,0:0:0:0:
410,204,58148,2,0,L|324:220,1,88.000002685547
276,208,58463,1,0,0:0:0:0:
276,208,58568,2,0,P|244:156|252:96,1,88.000002685547,8|0,0:0|0:0,0:0:0:0:
348,36,58988,5,0,0:0:0:0:
324,220,59197,1,0,0:0:0:0:
144,192,59407,1,8,0:0:0:0:
164,12,59617,1,0,0:0:0:0:
336,116,59827,6,0,P|364:196|344:252,1,132.00000402832,4|0,0:0|0:0,0:0:0:0:
320,276,60246,2,0,L|204:308,1,88.000002685547,8|0,0:0|0:0,0:0:0:0:
68,212,60666,2,0,L|220:168,1,132.00000402832
232,148,61086,2,0,P|248:96|236:40,1,88.000002685547,8|0,0:0|0:0,0:0:0:0:
104,88,61505,1,0,0:0:0:0:
104,88,61610,1,0,0:0:0:0:
256,192,61820,1,0,0:0:0:0:
256,192,61925,1,8,0:0:0:0:
424,136,62134,1,0,0:0:0:0:
316,36,62344,6,0,L|340:144,1,88.000002685547
436,316,62764,2,0,L|412:208,1,88.000002685547,8|0,0:0|0:0,0:0:0:0:
244,224,63183,2,0,P|196:272|140:280,1,88.000002685547,4|0,0:0|0:0,0:0:0:0:
128,280,63498,1,0,0:0:0:0:
128,280,63603,2,0,P|104:224|108:176,1,88.000002685547,8|0,0:0|0:0,0:0:0:0:
224,60,64023,6,0,P|248:116|244:164,1,88.000002685547
227,184,64337,2,0,P|232:205|244:224,1,44.0000013427735,0|8,0:0|0:0,0:0:0:0:
392,312,64652,1,0,0:0:0:0:
360,140,64862,2,0,L|336:256,1,88.000002685547,0|0,0:0|0:0,0:0:0:0:
328,268,65176,1,0,0:0:0:0:
328,268,65281,2,0,P|272:308|216:304,1,88.000002685547,8|0,0:0|0:0,0:0:0:0:
104,304,65701,5,0,0:0:0:0:
84,136,65911,1,0,0:0:0:0:
240,200,66120,1,8,0:0:0:0:
104,304,66330,1,0,0:0:0:0:
80,88,66540,2,0,L|228:140,1,132.00000402832,4|0,0:0|0:0,0:0:0:0:
236,164,66960,2,0,L|352:144,1,88.000002685547,8|0,0:0|0:0,0:0:0:0:
468,124,67379,5,0,0:0:0:0:
336,52,67589,1,0,0:0:0:0:
292,232,67799,1,8,0:0:0:0:
424,304,68009,1,0,0:0:0:0:
376,144,68218,6,0,L|320:128,1,44.0000013427735
108,108,68428,2,0,L|152:120,1,44.0000013427735
292,232,68638,2,0,L|248:220,1,44.0000013427735,8|0,0:0|0:0,0:0:0:0:
128,240,68848,2,0,L|172:252,1,44.0000013427735
288,312,69058,2,0,L|332:300,1,44.0000013427735
416,216,69267,2,0,L|468:200,1,44.0000013427735
353,69,69477,1,0,0:0:0:0:
321,79,69582,1,0,0:0:0:0:
288,89,69687,1,0,0:0:0:0:
256,100,69792,1,0,0:0:0:0:
228,112,69897,6,0,L|200:244,1,100,4|0,0:0|0:0,0:0:0:0:
212,256,70211,1,0,0:0:0:0:
211,255,70316,2,0,P|242:294|288:313,1,100,8|0,0:0|0:0,0:0:0:0:
396,196,70736,2,0,L|270:220,1,100
255,223,71051,2,0,L|207:209,1,50,0|8,0:0|0:0,0:0:0:0:
56,136,71365,1,0,0:0:0:0:
244,76,71575,2,0,L|376:116,1,100
380,128,71890,1,0,0:0:0:0:
380,128,71995,2,0,P|396:176|384:232,1,100,8|0,0:0|0:0,0:0:0:0:
256,344,72414,5,0,0:0:0:0:
172,168,72624,1,0,0:0:0:0:
356,108,72834,1,8,0:0:0:0:
344,312,73044,1,0,0:0:0:0:
144,268,73253,2,0,P|84:212|76:121,1,150,4|0,0:0|0:0,0:0:0:0:
80,104,73673,2,0,L|184:84,1,100,8|0,0:0|0:0,0:0:0:0:
356,108,74092,2,0,L|468:88,1,100
216,192,74512,6,0,P|184:256|212:348,1,150,8|0,0:0|0:0,0:0:0:0:
236,356,74932,2,0,L|296:344,1,50
380,156,75246,1,0,0:0:0:0:
380,156,75351,2,0,L|256:180,1,100,8|0,0:0|0:0,0:0:0:0:
112,208,75771,1,0,0:0:0:0:
200,36,75981,1,0,0:0:0:0:
200,36,76086,1,0,0:0:0:0:
200,36,76190,2,0,P|228:92|224:164,1,100,8|0,0:0|0:0,0:0:0:0:
109,304,76610,6,0,P|99:255|112:208,1,100,4|0,0:0|0:0,0:0:0:0:
152,184,76925,1,0,0:0:0:0:
152,184,77030,2,0,L|268:204,1,100,8|0,0:0|0:0,0:0:0:0:
424,324,77449,2,0,L|296:348,1,100
284,328,77764,1,0,0:0:0:0:
284,328,77869,2,0,P|248:288|240:240,1,100,8|0,0:0|0:0,0:0:0:0:
256,56,78288,1,0,0:0:0:0:
400,172,78498,1,0,0:0:0:0:
400,172,78603,1,0,0:0:0:0:
400,172,78708,2,0,L|272:160,1,100,8|0,0:0|0:0,0:0:0:0:
79,147,79127,5,0,0:0:0:0:
256,56,79337,1,0,0:0:0:0:
167,233,79547,1,8,0:0:0:0:
134,38,79757,1,0,0:0:0:0:
276,178,79967,2,0,P|288:252|264:322,1,150,4|0,0:0|0:0,0:0:0:0:
220,336,80386,2,0,P|200:287|212:228,1,100,8|0,0:0|0:0,0:0:0:0:
312,112,80806,5,0,0:0:0:0:
416,240,81016,1,0,0:0:0:0:
265,323,81225,1,8,0:0:0:0:
152,184,81435,1,0,0:0:0:0:
284,40,81645,2,0,P|356:46|420:106,1,150,4|0,0:0|0:0,0:0:0:0:
426,140,82065,2,0,L|416:240,1,100,8|0,0:0|0:0,0:0:0:0:
265,323,82484,1,0,0:0:0:0:
265,323,82589,1,0,0:0:0:0:
152,184,82799,1,0,0:0:0:0:
152,184,82904,2,0,L|280:204,1,100,8|0,0:0|0:0,0:0:0:0:
352,76,83323,6,0,P|296:75|246:103,1,100,4|0,0:0|0:0,0:0:0:0:
256,94,83638,1,0,0:0:0:0:
256,94,83743,1,8,0:0:0:0:
176,260,83953,1,0,0:0:0:0:
352,324,84162,2,0,P|398:293|425:243,1,100,4|0,0:0|0:0,0:0:0:0:
420,200,84477,1,0,0:0:0:0:
420,200,84582,2,0,P|371:175|296:176,1,100,8|0,0:0|0:0,0:0:0:0:
128,184,85002,5,4,0:0:0:0:
256,328,85211,1,0,0:0:0:0:
256,328,85316,1,0,0:0:0:0:
256,328,85421,2,0,P|276:272|256:200,1,100,8|0,0:0|0:0,0:0:0:0:
148,68,85841,1,0,0:0:0:0:
128,104,85946,1,0,0:0:0:0:
120,144,86051,1,0,0:0:0:0:
128,184,86155,2,0,L|188:208,1,50,0|8,0:0|0:0,0:0:0:0:
352,272,86470,1,0,0:0:0:0:
388,152,86680,6,0,L|316:180,1,50
184,300,86890,2,0,L|252:272,1,50
352,272,87099,2,0,L|373:305,4,25,8|0|0|0|0,0:0|0:0|0:0|0:0|0:0,0:0:0:0:
256,88,87519,5,0,0:0:0:0:
256,88,87624,1,0,0:0:0:0:
128,184,87834,1,0,0:0:0:0:
128,184,87939,1,0,0:0:0:0:
352,272,88148,5,4,0:0:0:0:
256,192,88253,12,0,91715,0:0:0:0:
