osu file format v9

[General]
AudioFilename: only my railgun (TV size).mp3
AudioLeadIn: 1000
PreviewTime: 7169
Countdown: 0
SampleSet: Normal
StackLeniency: 0.7
Mode: 0
LetterboxInBreaks: 0

[Editor]
DistanceSpacing: 1
BeatDivisor: 4
GridSize: 4

[Metadata]
Title:only my railgun (TV Size)
Artist:fripSide
Creator:Kite
Version:Normal
Source:To Aru Kagaku no Railgun
Tags:happy30 pheon opening raildex

[Difficulty]
HPDrainRate:4
CircleSize:4
OverallDifficulty:5
ApproachRate:5
SliderMultiplier:1.2
SliderTickRate:1

[Events]
//Background and Video events
0,0,"railgun.jpg"
Video,0,"To Aru Kagaku no Railgun OP.flv"
//Break Periods
//Storyboard Layer 0 (Background)
//Storyboard Layer 1 (Fail)
//Storyboard Layer 2 (Pass)
//Storyboard Layer 3 (Foreground)
//Storyboard Sound Samples
//Background Colour Transformations
3,100,163,162,255

[TimingPoints]
1086,419.58041958042,4,1,1,80,1,0
6960,-100,4,1,1,90,0,0
7799,-90.9090909090909,4,1,2,90,0,1
7904,-90.9090909090909,4,1,1,90,0,1
14512,-90.9090909090909,4,1,2,90,0,1
14617,-90.9090909090909,4,1,1,90,0,1
26051,-100,4,1,1,90,0,0
26155,-111.111111111111,4,2,1,40,0,0
26785,-100,4,2,1,70,0,0
27939,-133.333333333333,4,2,1,90,0,0
33813,-114.942528735632,4,1,1,100,0,0
34652,-100,4,1,1,90,0,0
41365,-100,4,2,1,90,0,0
41470,-100,4,1,1,90,0,0
41995,-90.9090909090909,4,1,1,90,0,0
42414,-100,4,1,1,90,0,0
48079,-100,4,2,1,90,0,0
48183,-100,4,1,1,90,0,0
51435,-100,4,2,1,90,0,0
51540,-100,4,1,1,90,0,0
55841,-100,4,2,1,90,0,0
56470,-90.9090909090909,4,1,2,90,0,1
56575,-90.9090909090909,4,1,1,90,0,1
59827,-90.9090909090909,4,1,2,90,0,1
59932,-90.9090909090909,4,1,1,90,0,1
63183,-90.9090909090909,4,1,2,90,0,1
63288,-90.9090909090909,4,1,1,90,0,1
69792,-90.9090909090909,4,1,1,90,0,0
69897,-90.9090909090909,4,1,2,90,0,1
70002,-90.9090909090909,4,1,1,90,0,1
76610,-90.9090909090909,4,1,2,90,0,1
76715,-90.9090909090909,4,1,1,90,0,1
83323,-90.9090909090909,4,1,2,100,0,1
83428,-90.9090909090909,4,1,1,90,0,1
88148,-100,4,1,1,100,0,0
88253,-100,4,2,1,5,0,0

[Colours]
Combo1 : 31,201,250
Combo2 : 87,234,153
Combo3 : 250,85,37

[HitObjects]
374,351,1086,2,0,B|448:285|406:163,2,180,6|2|0
256,336,2764,2,0,B|134:307,1,120,2|2
32,252,3603,2,0,B|137:195,1,120,2|2
240,132,4442,2,0,B|224:88|197:60|140:58,2,120,2|2|0
240,252,5701,1,2
168,348,6120,1,4
406,207,7169,6,0,B|435:155,2,60,2|2|0
372,264,7799,2,0,B|348:311|308:325|256:311,1,131.999996066094,4|8
197,296,8428,1,2
221,234,8638,2,0,B|232:181|224:145|201:108,1,131.999996066094,0|8
153,60,9267,1,2
89,42,9477,2,0,B|26:160,1,131.999996066094,0|8
46,221,10106,1,2
81,276,10316,2,0,B|136:311|209:277,1,131.999996066094,2|8
261,240,10946,1,0
275,175,11155,5,4
391,111,11575,1,8
500,185,11995,1,2
464,312,12414,1,8
331,317,12834,2,0,B|209:336|163:228,2,197.99999409914,2|2|2
425,225,14512,6,0,B|429:172|417:141|370:111,1,131.999996066094,4|8
308,96,15141,1,2
303,161,15351,2,0,B|285:211|256:234|203:237,1,131.999996066094,0|8
139,235,15981,1,2
81,203,16190,2,0,B|19:81,1,131.999996066094,0|8
68,40,16820,1,2
133,29,17030,5,2
277,58,17449,1,8
387,131,17869,2,0,B|481:200|436:324|330:321,1,263.999992132187,4|2
204,312,19127,1,8
99,230,19547,2,0,B|57:184|46:109,1,131.999996066094,2|8
169,156,20386,2,0,B|169:91|210:32,1,131.999996066094,2|8
317,108,21225,6,0,B|376:65|461:107,2,131.999996066094,4|8|2
228,205,22484,1,8
124,287,22904,2,0,B|75:270|52:221,2,98.9999970495702,4|2|2
144,224,23743,2,0,B|160:175|209:152,2,98.9999970495702,0|2|2
205,247,24582,2,0,B|253:246|301:276|319:344,1,131.999996066094,2|8
176,304,25421,2,0,B|168:332|132:359,3,65.9999980330468,2|0|10|0
140,50,27939,6,0,B|85:82|65:149|107:211,1,179.999994635582,4|2
176,257,29197,1,0
260,225,29617,2,0,B|314:199|371:204|428:259,2,179.999994635582,2|2|2
111,326,32134,5,0
56,254,32554,1,2
51,164,32974,2,0,B|60:123|87:81,1,89.9999973177911,2|0
175,136,33813,2,0,B|211:99|264:80,1,104.400001742363
281,181,34652,6,0,B|403:195,1,120,4|8
458,299,35491,2,0,B|398:291,2,60,0|0|8
494,250,36120,1,0
489,190,36330,2,0,B|492:145|478:108|449:79,1,120,2|8
333,54,37169,6,0,B|275:157,1,120,0|8
241,209,37799,1,2
209,260,38009,2,0,B|185:301|138:308|98:280,1,120,0|8
18,201,38848,1,2
43,83,39267,1,8
153,36,39687,2,0,B|233:15|316:34|374:96,1,240,4|2
357,334,41365,6,0,B|244:363,2,90,4|2|0
415,229,42414,1,0
415,229,42624,2,0,B|430:165|383:119,1,120,8|4
289,193,43463,2,0,B|244:237|177:221,1,120,8|2
60,196,44302,1,8
33,142,44512,1,0
38,82,44722,6,0,B|139:16,1,120,4|8
176,62,45351,1,2
230,87,45561,2,0,B|271:105|309:101|346:74,1,120,0|8
278,176,46400,2,0,B|263:223|286:267,2,90,4|2|2
326,210,47239,2,0,B|354:244|390:257|435:249,1,120,2|8
480,138,48079,6,0,B|440:59,2,90,4|2|2
492,257,49127,1,0
492,257,49337,2,0,B|483:303|459:329|414:338,1,120,8|4
294,328,50176,1,8
176,301,50596,1,2
111,199,51016,6,0,B|86:145,2,60,8|2|4
228,224,51855,1,8
341,184,52274,2,0,B|369:147|374:110|350:65,1,120,2|8
297,94,52904,1,0
240,113,53113,2,0,B|177:142|115:127|78:76,2,180,4|2|2
353,73,54792,2,0,B|432:30,2,90,2|2|2
401,182,55841,6,0,B|442:228,2,60
339,157,56470,2,0,B|289:146|254:154|216:190,1,131.999996066094,4|8
182,245,57099,1,2
155,305,57309,2,0,B|115:336|67:332|32:296,1,131.999996066094,2|8
69,242,57939,1,2
102,185,58148,2,0,B|166:71,1,131.999996066094,2|8
227,44,58778,1,2
292,34,58988,2,0,B|365:24|409:81,1,131.999996066094,2|10
450,131,59617,1,0
476,191,59827,5,4
436,316,60246,1,8
310,358,60666,1,2
179,344,61086,1,8
80,256,61505,2,0,B|2:191|29:67,2,197.99999409914,2|2|2
173,163,63183,6,0,B|211:129|254:124|303:142,1,131.999996066094,4|8
358,162,63813,1,2
398,213,64023,2,0,B|464:329,1,131.999996066094,2|8
406,361,64652,1,2
340,370,64862,2,0,B|286:374|256:359|229:315,1,131.999996066094,2|8
195,187,65701,1,2
291,97,66120,1,8
381,193,66540,6,0,B|398:270|335:330,2,131.999996066094,4|8|2
249,187,67799,1,8
320,75,68218,2,0,B|233:14|127:39,2,197.99999409914,2|2|2
444,120,69897,6,0,B|490:246,1,131.999996066094,4|8
479,309,70526,1,2
437,360,70736,2,0,B|392:381|356:380|308:351,1,131.999996066094,2|8
261,310,71365,1,2
314,271,71575,2,0,B|347:234|353:196|329:147,1,131.999996066094,2|8
299,90,72204,1,2
251,43,72414,2,0,B|192:7|124:43,1,131.999996066094,2|8
62,63,73044,1,2
19,112,73253,5,4
43,241,73673,1,8
152,314,74092,1,2
282,334,74512,1,8
411,308,74932,2,0,B|490:244|488:131,2,197.99999409914,2|2|2
281,334,76610,6,0,B|184:242,1,131.999996066094,4|8
138,196,77239,1,2
104,139,77449,2,0,B|125:92|162:77|212:90,1,131.999996066094,2|8
266,128,78079,1,2
319,165,78288,2,0,B|369:178|406:163|427:116,2,131.999996066094,2|8|2
209,90,79547,1,8
77,84,79967,6,0,B|3:116|-16:197|32:273|110:271,1,263.999992132187,4|2
235,269,81225,1,8
345,196,81645,2,0,B|387:220|404:257|395:313,2,131.999996066094,6|8|2
216,164,82904,1,8
121,71,83323,6,0,B|204:17,1,98.9999970495702,4|2
266,94,83953,1,2
266,94,84162,2,0,B|364:80,2,98.9999970495702,2|2|0
212,132,85002,2,0,B|187:179|197:224|245:247,1,131.999996066094,4|8
365,288,85841,2,0,B|457:192,1,131.999996066094,2|8
434,62,86680,2,0,B|342:158,1,131.999996066094,2|8
247,248,87519,2,0,B|192:267|155:234,2,98.9999970495702,8|2|4
256,192,88358,12,0,91715
