osu file format v9

[General]
AudioFilename: only my railgun (TV size).mp3
AudioLeadIn: 1000
PreviewTime: 7169
Countdown: 0
SampleSet: Normal
StackLeniency: 0.7
Mode: 0
LetterboxInBreaks: 0

[Editor]
DistanceSpacing: 0.5
BeatDivisor: 4
GridSize: 4

[Metadata]
Title:only my railgun (TV Size)
Artist:fripSide
Creator:Kite
Version:Insane
Source:To Aru Kagaku no Railgun
Tags:happy30 pheon opening raildex

[Difficulty]
HPDrainRate:7
CircleSize:4
OverallDifficulty:8
ApproachRate:8
SliderMultiplier:1.6
SliderTickRate:1

[Events]
//Background and Video events
0,0,"railgun.jpg"
Video,0,"To Aru Kagaku no Railgun OP.flv"
//Break Periods
//Storyboard Layer 0 (Background)
//Storyboard Layer 1 (Fail)
//Storyboard Layer 2 (Pass)
//Storyboard Layer 3 (Foreground)
//Storyboard Sound Samples
//Background Colour Transformations
3,100,163,162,255

[TimingPoints]
1086,419.58041958042,4,1,1,80,1,0
4862,-100,4,1,1,70,0,0
5072,-100,4,1,1,77,0,0
5281,-100,4,1,1,87,0,0
5491,-100,4,1,1,95,0,0
5701,-100,4,1,1,70,0,0
6120,-200,4,1,1,90,0,0
6960,-100,4,1,1,90,0,0
7799,-90.9090909090909,4,1,2,90,0,1
7904,-90.9090909090909,4,1,1,90,0,1
14512,-90.9090909090909,4,1,2,90,0,1
14617,-90.9090909090909,4,1,1,90,0,1
26051,-100,4,1,1,90,0,0
26155,-111.111111111111,4,2,1,60,0,0
26785,-100,4,2,1,70,0,0
27939,-133.333333333333,4,2,1,90,0,0
32974,-117.647058823529,4,2,1,70,0,0
33813,-80,4,1,1,100,0,0
34652,-100,4,1,1,90,0,0
41365,-100,4,2,1,90,0,0
41470,-100,4,1,1,90,0,0
41995,-90.9090909090909,4,1,1,90,0,0
42414,-100,4,1,1,90,0,0
48079,-100,4,2,1,90,0,0
48183,-100,4,1,1,90,0,0
51435,-100,4,2,1,90,0,0
51540,-100,4,1,1,90,0,0
53113,-100,4,1,1,70,0,0
53533,-100,4,1,1,77,0,0
53953,-100,4,1,1,87,0,0
54792,-100,4,1,1,90,0,0
55841,-100,4,2,1,90,0,0
56051,-100,4,2,1,100,0,0
56260,-100,4,2,1,90,0,0
56470,-90.9090909090909,4,1,2,90,0,1
56575,-90.9090909090909,4,1,1,90,0,1
59827,-90.9090909090909,4,1,2,90,0,1
59932,-90.9090909090909,4,1,1,90,0,1
63183,-90.9090909090909,4,1,2,90,0,1
63288,-90.9090909090909,4,1,1,90,0,1
68848,-90.9090909090909,4,2,1,70,0,1
69477,-90.9090909090909,4,1,1,70,0,1
69792,-90.9090909090909,4,1,1,70,0,0
69897,-90.9090909090909,4,1,2,90,0,1
70002,-90.9090909090909,4,1,1,90,0,1
76610,-90.9090909090909,4,1,2,90,0,1
76715,-90.9090909090909,4,1,1,90,0,1
83323,-90.9090909090909,4,1,2,100,0,1
83428,-90.9090909090909,4,1,1,90,0,1
88148,-100,4,1,1,100,0,0
88253,-100,4,2,1,5,0,0

[Colours]
Combo1 : 31,201,250
Combo2 : 87,234,153
Combo3 : 250,85,37

[HitObjects]
360,328,1086,2,0,B|404:320|428:288,2,80,4|0|0
236,259,1715,1,2
216,264,1820,2,0,B|152:280|112:336,1,120
117,328,2344,1,0
156,200,2554,1,2
168,184,2659,2,0,B|192:132|184:64,1,120
184,66,3183,1,0
272,156,3393,1,2
288,168,3498,2,0,B|344:200|408:200,1,120,0|2
480,200,4023,2,0,B|421:192|375:224|351:275,1,160
351,274,4652,1,2
364,152,4862,5,0
368,132,4967,1,0
368,112,5072,1,0
364,92,5176,1,0
356,73,5281,1,0
344,57,5386,1,0
328,45,5491,1,0
309,37,5596,1,0
289,38,5701,2,0,B|248:61,4,26.6666666666667
456,52,6120,6,0,B|492:100|476:168|416:192,1,160,12|0
280,144,7169,6,0,B|236:148|204:180,1,80,2|0
176,296,7589,1,2
96,200,7799,6,0,B|64:172|16:168,1,87.9999973773957,4|2
15,167,8113,1,0
15,167,8218,2,0,B|52:140|64:96,1,87.9999973773957,8|2
168,144,8638,2,0,B|208:160|256:152,1,87.9999973773957,0|2
254,152,8953,1,0
254,152,9058,2,0,B|300:136|344:152,1,87.9999973773957,8|2
312,264,9477,2,0,B|320:312|360:340,1,87.9999973773957,0|2
356,337,9792,1,0
356,337,9897,1,8
404,240,10106,5,2
300,188,10316,1,0
430,53,10526,1,2
485,156,10736,1,8
316,73,10946,1,2
200,208,11155,6,0,B|160:236|116:240|72:224,1,131.999996066094,4|2
74,224,11575,2,0,B|116:172|124:128|100:56,1,175.999994754791,8|0
212,120,12204,2,0,B|248:144|296:140,1,87.9999973773957,2|8
432,76,12624,1,2
443,94,12729,1,0
451,114,12834,2,0,B|475:158|475:198|455:242,1,131.999996066094,0|2
455,240,13253,1,8
360,336,13463,2,0,B|344:292|352:248,1,87.9999973773957,2|0
324,124,13883,2,0,B|288:156|244:164,1,87.9999973773957,2|8
124,152,14302,1,2
196,256,14512,6,0,B|192:304|168:340,1,87.9999973773957,4|2
153,355,14827,1,0
134,367,14932,1,8
40,268,15141,1,2
124,152,15351,2,0,B|144:112|132:64,1,87.9999973773957,0|2
123,45,15666,1,0
109,28,15771,1,8
232,120,15981,1,2
336,164,16190,2,0,B|376:176|424:168,1,87.9999973773957,0|2
444,161,16505,1,0
463,150,16610,1,8
348,256,16820,6,0,B|308:280|284:316,1,87.9999973773957,2|0
128,336,17239,2,0,B|168:312|192:276,1,87.9999973773957,2|8
152,156,17659,1,2
212,52,17869,2,0,B|268:32|324:32|384:60,1,175.999994754791,4|8
383,59,18498,1,2
304,148,18708,6,0,B|272:184|268:228,1,87.9999973773957,0|2
288,344,19127,1,8
184,300,19337,2,0,B|144:280|96:288,1,87.9999973773957,2|0
16,332,19757,1,2
76,192,19967,2,0,B|100:156|96:108,1,87.9999973773957,8|2
40,32,20386,2,0,B|84:76|136:88|208:60,1,175.999994754791,0|8
202,62,21016,1,2
220,188,21225,6,0,B|248:224|292:236,1,87.9999973773957,4|2
313,240,21540,1,0
335,240,21645,1,8
368,104,21855,1,2
468,200,22065,2,0,B|492:240|488:288,1,87.9999973773957,4|2
484,305,22379,1,0
476,325,22484,1,8
360,360,22694,1,2
336,240,22904,6,0,B|328:196|292:164,1,87.9999973773957,4|2
293,165,23218,1,0
293,165,23323,2,0,B|252:136|240:88,1,87.9999973773957,8|2
178,184,23743,1,0
164,197,23848,1,0
145,207,23953,1,2
125,213,24058,1,0
107,214,24162,2,0,B|55:220|26:247,1,87.9999973773957,8|2
44,352,24582,6,0,B|64:292|56:236|8:184,1,175.999994754791,2|10
148,280,25211,1,2
148,280,25421,2,0,B|188:304|232:304,1,87.9999973773957,0|2
392,264,25841,1,8
372,252,25946,1,0
352,248,26051,1,2
232,304,26260,6,0,B|208:256|212:208|248:168,1,143.999993133545
352,100,26890,2,2,B|352:140|328:176,1,80
120,264,27309,2,2,B|120:224|144:188,1,80,2|2
208,108,27729,1,2
104,72,27939,6,0,B|40:100|28:168,1,119.999996423721,4|0
29,160,28568,1,2
88,240,28778,2,0,B|104:272|100:300,1,59.9999982118607,0|2
168,360,29197,2,0,B|184:332|212:316,1,59.9999982118607,0|2
328,312,29617,6,0,B|348:280|352:248|336:196,1,119.999996423721,2|0
336,196,30246,1,2
272,100,30456,2,0,B|248:124|240:152,2,59.9999982118607,0|2|0
360,40,31086,1,2
392,128,31295,6,0,B|408:160|432:176,1,59.9999982118607,2|0
500,160,31715,2,0,B|456:180|436:204|420:248,1,119.999996423721,2|0
396,328,32344,1,2
320,360,32554,1,0
240,340,32764,1,2
268,260,32974,6,0,B|276:224|264:192,1,67.999997162819,4|2
200,64,33393,2,0,B|164:80|148:112,1,67.999997162819,0|2
160,228,33813,2,0,B|148:308|80:336|8:308,1,199.999997019768,6|2
9,308,34442,1,2
64,208,34652,6,0,B|84:168|72:128,1,80,4|2
67,110,34967,1,0
60,91,35072,1,8
60,91,35281,1,2
152,144,35491,2,0,B|188:160|232:156,1,80,0|2
304,84,35911,1,8
404,64,36120,1,2
488,124,36330,6,0,B|504:168|484:208,1,80,4|2
486,201,36645,1,0
486,201,36750,2,0,B|464:240|472:280,1,80,8|2
492,368,37169,1,0
492,368,37379,1,2
364,336,37589,2,0,B|324:328|292:300,1,80,8|2
328,156,38009,6,0,B|304:104|272:72|200:68,1,160,6|8
205,68,38638,1,2
224,176,38848,2,0,B|216:224|188:244,1,80,4|2
56,296,39267,2,0,B|28:264|28:216,1,80,8|2
64,88,39687,2,0,B|108:120|132:168|112:228,1,160,6|8
111,228,40316,1,2
218,150,40526,2,0,B|252:132|300:139,1,80,2|2
422,181,40946,1,10
422,181,41051,1,2
422,181,41155,1,2
408,324,41365,6,0,B|376:352|336:356,1,80,4|2
296,356,41680,2,0,B|328:328|340:292,1,80,2|0
360,256,41995,2,0,B|304:288|252:292|192:268,1,175.999994754791,2|2
132,172,42624,1,8
48,100,42834,1,2
184,96,43044,2,0,B|248:96|288:68|312:16,1,160,6|8
336,136,43673,1,2
340,156,43778,1,0
348,176,43883,1,0
460,276,44092,2,0,B|456:236|428:200,1,80,2|8
332,284,44512,5,2
312,288,44617,1,0
292,288,44722,2,0,B|248:288|216:268,1,80,4|2
176,176,45141,1,8
92,108,45351,2,0,B|56:136|48:172,1,80,2|0
48,192,45666,1,2
124,260,45876,2,0,B|160:288|176:316|176:364,1,120,2|2
240,268,46400,6,0,B|268:228|296:212|344:208,1,120,2|2
339,208,46820,2,0,B|380:204|416:176,1,80,12|2
468,72,47239,1,0
344,36,47449,1,2
332,52,47554,1,0
324,72,47659,1,12
340,208,47869,1,2
208,176,48079,6,0,B|168:184|136:208,1,80,4|2
112,240,48393,2,0,B|160:232|192:244,1,80,2|2
232,260,48708,2,0,B|168:260|128:288|104:348,1,160,2|2
16,360,49337,2,0,B|40:328|40:284,1,80,8|2
8,172,49757,1,4
8,172,49967,1,2
84,80,50176,2,0,B|124:88|152:120,1,80,8|2
164,136,50491,1,0
172,156,50596,1,0
212,280,50806,2,0,B|252:260|268:224,1,80,2|8
304,120,51225,5,2
412,292,51435,2,0,B|448:264|480:228|488:152,1,160,4|8
487,156,52065,1,2
372,172,52274,2,0,B|332:172|296:152,1,80,0|2
280,140,52589,1,0
264,128,52694,1,8
208,44,52904,1,2
172,156,53113,5,4
160,172,53218,1,0
144,184,53323,1,2
124,192,53428,1,0
104,196,53533,1,0
84,196,53638,1,0
64,192,53743,1,2
48,180,53848,1,0
36,160,53953,2,0,B|28:140|28:120,3,40,0|0|2|0
44,104,54372,2,0,B|60:116|80:120,3,40,0|0|2|0
92,104,54792,6,2,B|112:68,1,40,2|0
256,112,55106,2,2,B|256:156,1,40,2|0
420,104,55421,2,2,B|400:68,1,40,2|0
416,344,55841,5,2
316,228,56051,1,4
224,352,56260,1,2
144,248,56470,6,0,B|100:232|56:252,1,87.9999973773957,4|2
40,260,56785,1,0
24,272,56890,1,8
88,160,57099,1,2
140,60,57309,2,0,B|184:40|228:52,1,87.9999973773957,0|2
248,56,57624,1,0
268,68,57729,1,8
244,192,57939,1,2
352,268,58148,2,0,B|388:240|404:196,1,87.9999973773957,0|2
412,176,58463,1,0
416,156,58568,1,8
312,48,58778,5,2
200,160,58988,1,0
56,104,59197,1,2
172,32,59407,1,8
200,160,59617,1,2
112,272,59827,6,0,B|156:320|232:312,1,131.999996066094,4|2
232,311,60246,2,0,B|260:240|300:216|368:204,1,175.999994754791,8|0
460,208,60876,1,2
344,128,61086,2,0,B|308:100|292:60,1,87.9999973773957,8|2
220,160,61505,6,0,B|184:220|112:240,1,131.999996066094,0|2
96,244,61925,2,0,B|124:208|128:160,1,87.9999973773957,8|2
124,40,62344,1,0
124,40,62449,1,0
124,40,62554,1,2
244,60,62764,1,8
336,144,62974,1,2
392,252,63183,6,0,B|396:296|372:336,1,87.9999973773957,4|2
360,356,63498,1,0
344,372,63603,1,8
240,300,63813,1,2
260,180,64023,2,0,B|252:136|224:100,1,87.9999973773957,0|2
208,88,64337,1,0
191,79,64442,1,8
72,132,64652,1,2
124,232,64862,2,0,B|144:272|140:320,1,87.9999973773957,0|2
140,340,65176,1,0
136,360,65281,1,8
40,304,65491,5,2
228,280,65701,1,0
228,280,65911,1,2
280,140,66120,1,8
404,232,66330,1,2
456,88,66540,2,0,B|428:36|368:24|368:24|304:40,1,175.999994754791,4|8
216,80,67169,1,2
228,196,67379,6,0,B|196:228|148:232,1,87.9999973773957,0|2
60,156,67799,1,8
60,156,68009,1,2
36,288,68218,2,0,B|61:326|103:341,1,87.9999973773957,0|2
126,346,68533,2,0,B|103:302|110:258,1,87.9999973773957,2|2
120,240,68848,2,0,B|148:248,18,21.9999993443489
60,173,69897,6,0,B|68:129|100:95,1,87.9999973773957,4|2
113,79,70211,1,0
130,66,70316,1,8
180,176,70526,1,2
148,292,70736,2,0,B|180:324|224:336,1,87.9999973773957,0|2
244,344,71051,1,0
264,348,71155,1,8
308,224,71365,1,2
264,88,71575,2,0,B|296:60|344:56,1,87.9999973773957,0|2
368,52,71890,1,0
389,53,71995,1,8
348,184,72204,5,2
392,308,72414,1,0
392,308,72624,1,2
252,264,72834,1,8
112,260,73044,1,2
188,152,73253,2,0,B|208:108|208:64|176:24,1,131.999996066094,4|2
178,27,73673,2,0,B|136:76|84:88|16:72,1,175.999994754791,8|0
18,72,74302,1,2
80,176,74512,2,0,B|104:216|112:260,1,87.9999973773957,8|2
204,348,74932,6,0,B|200:280|244:224,1,131.999996066094,0|2
243,225,75351,2,0,B|276:248|332:248,1,87.9999973773957,8|2
456,144,75771,1,0
456,144,75876,1,0
456,144,75981,2,0,B|449:97|424:64,1,87.9999973773957,2|8
328,20,76400,1,2
296,140,76610,6,0,B|264:180|224:188,1,87.9999973773957,4|2
204,196,76925,1,0
184,200,77030,1,8
304,252,77239,1,2
192,112,77449,2,0,B|152:88|104:92,1,87.9999973773957,0|2
84,92,77764,1,0
64,96,77869,1,8
196,20,78079,1,2
88,180,78288,2,0,B|56:216|48:256,1,87.9999973773957,0|2
43,278,78603,1,0
44,299,78708,1,8
148,340,78918,5,2
248,268,79127,2,0,B|296:276|328:304,1,87.9999973773957,0|2
456,284,79547,2,0,B|424:248|424:204,1,87.9999973773957,8|2
452,84,79967,2,0,B|400:44|344:36|280:56,1,175.999994754791,4|8
200,100,80596,1,2
244,216,80806,6,0,B|264:264|252:304,2,87.9999973773957,0|2|8
200,100,81435,1,2
144,216,81645,2,0,B|123:264|99:288|55:308,1,131.999996066094,4|2
32,312,82065,2,0,B|64:248|64:200|32:140,1,175.999994754791,8|0
140,160,82694,2,0,B|188:164|224:140,1,87.9999973773957,2|8
252,40,83113,1,2
368,112,83323,6,0,B|400:148|404:192,1,87.9999973773957,4|2
404,212,83638,1,0
400,232,83743,1,8
324,332,83953,1,2
264,220,84162,2,0,B|240:180|200:156,1,87.9999973773957,4|2
184,148,84477,1,0
165,142,84582,1,8
292,108,84792,1,2
172,248,85002,6,0,B|136:280|124:324,1,87.9999973773957,4|2
116,340,85316,1,0
112,359,85421,1,8
80,232,85631,1,2
20,128,85841,1,0
32,108,85946,1,0
48,92,86051,1,2
68,80,86155,1,0
88,73,86260,2,0,B|124:48|172:55,1,87.9999973773957,8|2
332,120,86680,6,0,B|316:164|272:184,1,87.9999973773957,0|2
274,183,86995,2,0,B|224:184|192:200|168:248,1,131.999996066094,10|2
316,360,87519,6,0,B|356:344,1,43.9999986886979,0|0
196,360,87834,2,0,B|156:344,1,43.9999986886979,0|0
256,284,88148,1,4
256,192,88253,12,0,91715
