osu file format v9

[General]
AudioFilename: only my railgun (TV size).mp3
AudioLeadIn: 1000
PreviewTime: 7169
Countdown: 0
SampleSet: Normal
StackLeniency: 0.7
Mode: 0
LetterboxInBreaks: 0

[Editor]
DistanceSpacing: 1
BeatDivisor: 4
GridSize: 4

[Metadata]
Title:only my railgun (TV Size)
Artist:fripSide
Creator:Kite
Version:Easy
Source:To Aru Kagaku no Railgun
Tags:happy30 pheon opening raildex

[Difficulty]
HPDrainRate:2
CircleSize:3
OverallDifficulty:2
ApproachRate:3
SliderMultiplier:0.9
SliderTickRate:1

[Events]
//Background and Video events
0,0,"railgun.jpg"
Video,0,"To Aru Kagaku no Railgun OP.flv"
//Break Periods
//Storyboard Layer 0 (Background)
//Storyboard Layer 1 (Fail)
//Storyboard Layer 2 (Pass)
//Storyboard Layer 3 (Foreground)
//Storyboard Sound Samples
//Background Colour Transformations
3,100,163,162,255

[TimingPoints]
1086,419.58041958042,4,1,1,80,1,0
6960,-100,4,2,1,90,0,0
7799,-90.9090909090909,4,1,2,90,0,1
7904,-90.9090909090909,4,1,1,90,0,1
14512,-90.9090909090909,4,1,2,90,0,1
14617,-90.9090909090909,4,1,1,90,0,1
26051,-90.9090909090909,4,1,1,90,0,0
27939,-133.333333333333,4,2,1,90,0,0
33393,-133.333333333333,4,2,1,70,0,0
33813,-100,4,1,1,100,0,0
34652,-100,4,1,1,90,0,0
41365,-100,4,2,1,90,0,0
41470,-100,4,1,1,90,0,0
48079,-100,4,2,1,90,0,0
48183,-100,4,1,1,90,0,0
51435,-100,4,2,1,90,0,0
51540,-100,4,1,1,90,0,0
55841,-100,4,2,1,90,0,0
56470,-90.9090909090909,4,1,2,90,0,1
56575,-90.9090909090909,4,1,1,90,0,1
59827,-90.9090909090909,4,1,2,90,0,1
59932,-90.9090909090909,4,1,1,90,0,1
63183,-90.9090909090909,4,1,2,90,0,1
63288,-90.9090909090909,4,1,1,90,0,1
69792,-90.9090909090909,4,1,1,90,0,0
69897,-90.9090909090909,4,1,2,90,0,1
70002,-90.9090909090909,4,1,1,90,0,1
76610,-90.9090909090909,4,1,2,90,0,1
76715,-90.9090909090909,4,1,1,90,0,1
83323,-90.9090909090909,4,1,2,100,0,1
83428,-90.9090909090909,4,1,1,90,0,1
88148,-100,4,1,1,100,0,0
88253,-100,4,2,1,5,0,0

[Colours]
Combo1 : 31,201,250
Combo2 : 87,234,153
Combo3 : 250,85,37

[HitObjects]
401,348,1086,2,0,B|436:306|456:251|428:178,1,180,4|2
365,115,2344,1,2
347,202,2764,2,0,B|315:273|262:298|207:303,1,180,0|2
33,265,4442,5,0
33,174,4862,1,2
71,92,5281,2,0,B|103:54,2,45,0|2|0
139,151,6120,2,0,B|184:187|252:197|319:158,1,180,4|2
485,75,7799,6,0,B|482:124|454:170,1,98.9999970495702,4|8
372,112,8638,2,0,B|351:161|309:186,1,98.9999970495702,0|8
233,122,9477,2,0,B|194:154|140:161,2,98.9999970495702,0|8|0
323,81,10736,1,8
418,56,11155,6,0,B|461:73|493:121|483:182|428:218,1,197.99999409914,4|2
333,204,12414,1,8
235,187,12834,2,0,B|183:220|173:281|205:329|248:346,1,197.99999409914,4|2
345,364,14092,1,8
431,316,14512,6,0,B|469:289|491:237,1,98.9999970495702,4|8
396,216,15351,2,0,B|360:252|306:262,1,98.9999970495702,0|8
272,168,16190,2,0,B|296:128|295:72,2,98.9999970495702,0|8|0
228,256,17449,1,8
152,320,17869,6,0,B|79:319|36:249|81:176,1,197.99999409914,4|2
152,112,19127,1,8
245,81,19547,2,0,B|339:42,1,98.9999970495702,4|8
348,140,20386,2,0,B|448:156,1,98.9999970495702,2|8
412,248,21225,2,0,B|373:297|308:318|223:270,2,197.99999409914,6|6|6
256,192,23323,12,0,26051
390,341,27939,6,0,B|454:299|446:213,1,134.999995976687,0|2
418,164,29197,1,2
360,199,29617,2,0,B|248:276,1,134.999995976687,2|2
182,263,30876,1,2
123,229,31295,6,0,B|100:162|141:98,1,134.999995976687,2|2
203,122,32554,1,0
270,124,32974,1,2
336,112,33393,1,4
393,77,33813,2,0,B|465:24,1,90
495,108,34652,6,0,B|506:290,1,180,4|2
442,351,35911,1,8
394,274,36330,2,0,B|349:231|285:225|224:260,1,180,4|2
143,290,37589,1,8
93,214,38009,2,0,B|50:144|27:43,3,180,4|6|4|2
208,111,41365,6,0,B|277:141|344:127,2,135,4|2|8
123,80,43044,2,0,B|60:109|43:170|83:236,1,180,4|2
148,288,44302,1,8
236,303,44722,6,0,B|373:287,2,135,4|2|8
202,219,46400,2,0,B|225:157|281:131|353:151,1,180,4|2
434,177,47659,1,8
457,89,48079,6,0,B|415:33|335:29,2,135,4|2|8
387,146,49757,2,0,B|317:136|258:189,2,135,4|2|8
474,165,51435,2,0,B|525:258|449:361|344:318,1,270,4|2
256,192,53113,12,2,55421
395,300,56470,6,0,B|371:353|312:358,1,98.9999970495702,4|8
290,262,57309,2,0,B|288:212|239:178,1,98.9999970495702,2|8
184,261,58148,2,0,B|167:315|111:330,1,98.9999970495702,2|8
39,265,58988,2,0,B|75:171,1,98.9999970495702,0|8
106,78,59827,6,0,B|174:46|237:60|281:137,1,197.99999409914,4|2
290,226,61086,1,8
355,300,61505,2,0,B|400:328|450:328|498:296,2,148.499995574355,2|2|8
289,226,63183,6,0,B|194:249,1,98.9999970495702,4|8
93,256,64023,2,0,B|127:163,1,98.9999970495702,2|8
170,73,64862,2,0,B|241:144,2,98.9999970495702,2|8|2
75,44,66120,1,8
43,138,66540,6,0,B|42:212|103:255|182:231,1,197.99999409914,4|2
272,195,67799,1,8
369,211,68218,2,0,B|438:341,2,148.499995574355,6|2|8
327,120,69897,6,0,B|299:73|254:51,1,98.9999970495702,4|8
241,150,70736,2,0,B|255:206|229:247,1,98.9999970495702,2|8
146,191,71575,2,0,B|94:162|50:172,1,98.9999970495702,2|8
91,262,72414,2,0,B|127:300|132:355,1,98.9999970495702,2|8
224,317,73253,6,0,B|287:284|352:290|410:342,1,197.99999409914,4|2
506,349,74512,1,8
463,259,74932,2,0,B|420:190|450:109,2,148.499995574355,2|2|8
506,349,76610,6,0,B|409:379,1,98.9999970495702,4|8
314,356,77449,2,0,B|383:286,1,98.9999970495702,2|8
421,193,78288,2,0,B|323:215,2,98.9999970495702,2|8|0
482,114,79547,1,8
416,39,79967,6,0,B|349:8|279:14|227:67,1,197.99999409914,4|2
171,140,81225,1,8
192,236,81645,1,2
258,309,82065,1,8
355,325,82484,1,2
451,300,82904,1,8
503,216,83323,6,0,B|504:162|474:120,1,98.9999970495702,4|8
403,190,84162,2,0,B|366:222|311:225,1,98.9999970495702,6|8
328,126,85002,2,0,B|328:77|291:32,1,98.9999970495702,6|8
231,112,85841,2,0,B|190:146|135:144,2,98.9999970495702,2|8|2
157,46,87099,1,8
57,47,87519,2,0,B|20:192,1,148.499995574355,2|4
256,192,88358,12,0,91715
