osu file format v6

[General]
AudioFilename: only my railgun (TV Size).mp3
AudioLeadIn: 0
PreviewTime: 6283
Countdown: 0
SampleSet: Normal
StackLeniency: 0.2
Mode: 0
LetterboxInBreaks: 1

[Editor]
Bookmarks: 6913,13626,20339,27053,33766,40479,47193,55584,62297,69011,75724,82437,87262
DistanceSpacing: 0.699999988079071
BeatDivisor: 4
GridSize: 32

[Metadata]
Title:only my railgun (TV Size)
Artist:fripSide
Creator:DJPop
Version:Normal
Source:To Aru Kagaku no Railgun
Tags:

[Difficulty]
HPDrainRate:4
CircleSize:4
OverallDifficulty:4
SliderMultiplier:1.28
SliderTickRate:2

[Events]
//Background and Video events
0,0,"only my railgun (TV Size).png"
Video,200,"only my railgun (TV Size).avi"
//Break Periods
//Storyboard Layer 0 (Background)
//Storyboard Layer 1 (Fail)
//Storyboard Layer 2 (Pass)
//Storyboard Layer 3 (Foreground)
//Storyboard Sound Samples
//Background Colour Transformations
3,100,0,0,0

[TimingPoints]
200,419.58041958042,4,1,1,80,1,0
27053,-100,4,1,2,80,0,0
27472,-100,4,2,1,80,0,0
33556,-100,4,1,1,80,0,0
55584,-100,4,1,1,80,0,1
87367,-100,4,1,1,0,0,1

[Colours]
Combo1 : 65,55,115
Combo2 : 170,125,85
Combo3 : 150,60,60
Combo4 : 250,250,250

[HitObjects]
256,192,6284,5,8
256,192,6494,1,8
192,352,6913,6,0,C|96:352,2,96,4|2|0
256,352,7752,2,0,C|256:256,2,96,0|2|0
320,352,8591,2,0,C|416:352,2,96,0|2|0
256,352,9430,5,0
256,224,9850,1,2
256,96,10269,2,2,C|128:96,3,128
256,96,11948,2,2,C|352:96,2,96
256,192,12997,5,8
256,192,13206,1,8
320,32,13626,6,0,C|416:32,2,96,4|2|0
256,32,14465,2,0,C|256:128,2,96,0|2|0
192,32,15304,2,0,C|96:32,2,96,0|2|0
256,32,16144,5,0
256,160,16563,1,2
384,160,16983,2,2,C|480:256,1,128,6|2
384,352,17822,1,0
256,352,18241,1,2
128,352,18661,2,2,B|32:256,3,128,6|2|2|2
32,128,20339,6,0,C|32:32,2,96,4|2|0
96,96,21179,2,0,C|96:192,2,96,4|2|0
128,32,22018,2,0,C|384:32,3,256,4|0|0|2
448,64,24745,1,10
464,128,24955,1,10
480,192,25165,1,10
256,192,25374,12,6,27053
32,192,27892,5,0
112,144,28311,1,0
112,240,28731,1,2
480,192,29570,5,2
400,240,29990,1,0
400,144,30409,1,2
256,352,31248,5,0
256,272,31668,1,0
256,192,32088,1,2
256,112,32507,1,0
256,32,32927,2,0,C|128:32,1,128,2|2
32,128,33766,6,0,B|20:286|128:352,1,256,4|0
256,352,35025,1,2
384,351,35444,2,0,B|494:291|480:128,1,256,4|0
384,32,36703,1,2
256,64,37123,6,0,C|256:320,2,256,4|4|4
256,192,39430,1,2
256,192,39640,1,2
256,352,40479,6,0,C|256:256,2,96,4|0|0
128,352,41528,1,8
128,352,41738,1,8
32,256,42158,5,4
32,128,42577,2,0,C|32:32,2,96,0|0|8
32,128,43416,1,8
160,128,43836,5,4
256,32,44255,1,0
384,32,44675,2,0,C|336:128,2,96,0|8|8
384,32,45514,5,0
480,128,45934,1,12
480,256,46353,1,0
384,352,46773,1,12
288,256,47193,6,0,C|288:160,2,96,4|0|0
192,352,48241,1,8
192,352,48451,1,8
64,352,48871,6,0,B|32:344|14:304|32:264|66:256,1,128,4|0
64,160,49605,2,0,B|51:64|161:64,1,160,0|8
288,64,50549,5,4
416,96,50969,1,0
448,224,51388,2,0,C|448:320,2,96,0|8|8
384,192,52227,6,0,C|256:192,1,128,4|8
128,192,53067,2,0,C|256:192,1,128,4|8
256,32,53906,6,0,C|256:128,2,96,2|2|2
256,192,54955,5,8
256,192,55165,1,8
256,352,55584,6,0,C|256:256,1,96,4|2
192,352,56213,1,0
192,352,56423,2,0,C|192:256,1,96,0|2
128,352,57053,1,0
128,352,57262,2,0,C|128:256,1,96,0|2
64,352,57892,1,0
64,352,58102,1,0
64,224,58521,1,2
64,96,58941,6,2,C|192:96,1,128
320,96,59780,2,2,C|448:96,1,128
384,224,60619,2,2,C|384:320,2,96,2|2|2
256,192,61668,5,8
256,192,61878,1,8
256,32,62297,6,0,C|256:128,1,96,4|2
320,32,62927,1,0
320,32,63137,2,0,C|320:128,1,96,0|2
384,32,63766,1,0
384,32,63976,2,0,C|384:128,1,96,0|2
448,32,64605,1,0
448,32,64815,1,0
448,160,65234,1,2
352,256,65654,6,0,B|336:320|256:356|176:320|160:253,1,256,4|0
256,160,66913,1,2
256,32,67332,2,2,C|160:32,2,96,6|2|2
160,112,68381,5,8
160,112,68591,1,8
64,192,69011,5,4
64,288,69325,1,2
160,288,69640,1,0
160,352,69850,1,0
256,352,70165,1,2
256,256,70479,1,0
320,256,70689,1,0
416,256,71004,1,2
416,352,71318,1,0
480,352,71528,1,0
480,224,71948,1,2
480,96,72367,5,4
368,32,72787,1,2
256,96,73206,1,0
144,32,73626,1,2
32,96,74046,1,2
32,192,74360,1,2
32,288,74675,1,2
160,192,75095,5,8
160,192,75304,1,8
288,96,75724,5,4
384,96,76039,1,2
384,192,76353,1,0
448,192,76563,1,0
448,288,76878,1,2
352,288,77193,1,0
352,352,77402,1,0
256,352,77717,1,2
256,256,78032,1,0
192,256,78241,1,0
64,256,78661,1,2
64,128,79081,6,2,C|192:128,1,128,6|2
320,128,79920,2,2,C|448:128,1,128
448,256,80759,5,4
320,256,81179,1,2
192,256,81598,1,0
64,256,82018,1,2
96,128,82437,5,4
160,48,82752,1,2
224,128,83067,1,0
288,128,83276,1,4
352,48,83591,1,2
416,128,83906,1,0
384,192,84116,6,0,C|128:192,3,256,4|0|0|14
192,304,86948,1,14
320,304,87262,1,14
256,192,87367,12,0,89780
