osu file format v6

[General]
AudioFilename: only my railgun (TV Size).mp3
AudioLeadIn: 0
PreviewTime: 6283
Countdown: 0
SampleSet: Normal
StackLeniency: 0.2
Mode: 0
LetterboxInBreaks: 1

[Editor]
Bookmarks: 6913,13626,20339,27053,33766,40479,47193,55584,62297,69011,75724,82437,87262
DistanceSpacing: 1
BeatDivisor: 4
GridSize: 32

[Metadata]
Title:only my railgun (TV Size)
Artist:fripSide
Creator:DJPop
Version:Hard
Source:To Aru Kagaku no Railgun
Tags:

[Difficulty]
HPDrainRate:5
CircleSize:4
OverallDifficulty:6
SliderMultiplier:1.6
SliderTickRate:2

[Events]
//Background and Video events
0,0,"only my railgun (TV Size).png"
Video,200,"only my railgun (TV Size).avi"
//Break Periods
//Storyboard Layer 0 (Background)
//Storyboard Layer 1 (Fail)
//Storyboard Layer 2 (Pass)
//Storyboard Layer 3 (Foreground)
//Storyboard Sound Samples
//Background Colour Transformations
3,100,0,0,0

[TimingPoints]
200,419.58041958042,4,1,1,80,1,0
26843,-100,4,1,1,0,0,0
26948,-100,4,1,2,80,0,0
27472,-100,4,2,1,80,0,0
32927,-200,4,2,1,80,0,0
33346,-100,4,2,1,80,0,0
33556,-100,4,1,1,80,0,0
55584,-100,4,1,1,80,0,1
87367,-100,4,1,1,0,0,1

[Colours]
Combo1 : 65,55,115
Combo2 : 170,125,85
Combo3 : 150,60,60
Combo4 : 250,250,250

[HitObjects]
32,32,6284,5,8
64,96,6494,1,8
96,160,6703,1,0
128,224,6913,5,4
192,224,7123,2,0,C|240:224,1,40,0|2
256,320,7542,1,0
320,352,7752,1,0
384,352,7962,2,0,C|432:352,1,40,0|2
448,256,8381,1,0
480,192,8591,5,0
480,128,8801,2,0,C|480:80,1,40,0|2
384,64,9220,1,0
320,32,9430,1,0
256,64,9640,1,0
192,32,9850,1,2
128,64,10060,1,0
64,96,10269,6,2,C|64:256,3,160
160,352,11948,6,2,C|288:352,2,120
160,224,12997,1,8
192,160,13206,1,8
256,128,13416,1,0
320,160,13626,5,4
352,224,13836,2,0,C|352:272,1,40,0|2
320,352,14255,1,0
256,352,14465,1,0
192,352,14675,2,0,C|144:352,1,40,0|2
64,320,15095,1,0
32,256,15304,5,0
32,192,15514,2,0,C|32:144,1,40,0|2
64,64,15934,1,0
128,32,16144,1,0
192,64,16353,1,0
256,32,16563,1,2
320,64,16773,1,0
384,32,16983,6,2,B|480:56|480:144,1,160,6|2
352,192,17822,1,0
416,224,18032,1,0
352,256,18241,1,2
416,288,18451,1,0
352,320,18661,6,2,C|192:320,3,160,6|2|2|2
64,320,20339,5,4
64,256,20549,2,0,C|64:208,1,40,0|2
160,192,20969,1,0
224,224,21179,1,4
288,224,21388,2,0,C|336:224,1,40,0|2
416,192,21808,1,0
384,128,22018,6,0,B|417:68|480:64,2,120,4|8|8
320,160,22857,2,0,B|320:32,2,120,0|8|8
256,128,23696,6,0,B|223:68|160:64,2,120,4|8|8
192,160,24535,2,10,C|112:160,3,80,2|10|10|10
256,192,25374,12,0,26843
256,352,27053,5,6
352,32,27892,1,0
320,96,28102,1,0
256,128,28311,1,0
192,96,28521,1,0
160,32,28731,1,2
480,288,29570,5,2
416,256,29780,1,0
384,192,29990,1,0
416,128,30200,1,0
480,96,30409,1,2
32,32,31248,5,0
96,32,31458,1,0
160,64,31668,1,0
160,128,31878,1,0
128,192,32088,5,2
64,192,32297,1,0
32,256,32507,1,0
32,320,32717,1,0
96,352,32927,2,0,C|176:352,1,80,2|2
352,352,33766,6,2,B|376:312|416:294|456:312|480:354,1,160,6|0
480,224,34605,1,0
448,160,34815,1,0
416,224,35025,1,0
384,160,35234,1,0
352,224,35444,6,2,B|262:208|256:112,1,160,6|0
384,64,36283,1,0
320,32,36493,1,0
256,32,36703,1,0
192,32,36913,1,0
128,64,37123,6,2,B|96:132|16:96|32:32,2,160,6|0|6
192,96,38172,1,0
224,160,38381,1,0
192,224,38591,1,0
128,256,38801,6,2,B|120:296|138:341|184:360|224:352,1,160,6|0
256,288,39430,1,2
288,352,39640,2,2,B|328:360|373:342|392:296|384:256,1,160,2|0
480,160,40479,5,4
480,96,40689,2,0,C|448:64,1,40,0|2
384,32,41004,2,0,C|352:64,1,40,0|2
224,32,41528,1,0
160,32,41738,1,0
96,32,41948,1,0
32,32,42158,5,4
32,160,42577,1,0
32,224,42787,1,0
32,224,42892,2,2,C|32:352,1,120
160,352,43626,1,0
160,352,43731,1,0
160,352,43836,5,4
192,288,44046,1,0
256,256,44255,1,0
320,288,44465,1,0
352,352,44675,2,0,C|400:352,1,40,0|2
464,352,44990,1,2
480,256,45304,1,0
448,192,45514,5,2
336,160,45828,2,0,C|288:160,1,40,2|4
224,192,46144,1,2
160,160,46353,2,2,B|120:144|108:96|120:48|162:32,1,160,2|6
288,32,47193,5,4
352,32,47402,2,0,C|384:64,1,40,0|2
448,64,47717,2,0,C|480:32,1,40,0|2
480,160,48241,1,0
480,224,48451,1,0
480,288,48661,1,0
480,352,48871,6,0,C|320:352,1,160,4|0
256,352,49500,1,0
256,352,49605,2,2,C|48:352,1,200
32,288,50339,1,0
64,224,50549,5,4
192,192,50969,1,0
256,160,51179,1,0
320,192,51388,1,0
384,192,51598,2,0,C|416:160,1,40,0|2
448,64,52018,1,0
384,32,52227,6,0,B|320:0|320:128|256:96,1,160,4|2
184,96,52857,1,0
184,96,52962,1,0
184,96,53067,2,0,B|120:128|120:0|56:32,1,160,4|2
112,192,53906,5,2
256,192,54220,1,2
400,192,54535,1,2
480,352,54955,1,8
416,352,55165,1,8
352,352,55374,1,0
288,352,55584,5,4
256,288,55794,2,0,C|256:240,1,40,0|2
176,320,56213,2,0,C|176:368,2,40,0|0|0
112,288,56633,2,0,C|112:240,1,40,0|2
32,192,57053,1,0
32,128,57262,5,0
32,64,57472,2,0,C|64:32,1,40,0|2
160,64,57892,1,0
192,128,58102,1,0
256,160,58311,1,0
320,128,58521,1,2
352,64,58731,1,0
416,32,58941,6,2,C|416:192,1,160
480,80,59780,2,2,C|480:240,1,160
384,320,60619,6,2,B|400:352|434:359|464:352|480:319,2,120
256,320,61668,1,8
256,256,61878,1,8
256,192,62088,1,0
256,128,62297,5,4
256,64,62507,2,0,C|256:16,1,40,0|2
144,64,62927,1,0
80,96,63137,1,0
48,160,63346,2,0,C|48:208,1,40,0|2
96,288,63766,1,0
128,352,63976,5,0
160,288,64186,2,0,C|192:256,1,40,0|2
288,288,64605,1,0
320,352,64815,1,0
352,288,65025,1,0
384,352,65234,1,2
416,288,65444,1,0
448,352,65654,6,2,B|488:336|501:288|488:240|447:224,1,160,6|2
480,96,66493,1,0
448,32,66703,1,0
416,96,66913,1,2
384,32,67123,1,0
352,96,67332,6,2,B|297:96|288:64|256:32,2,120,6|2|2
256,192,68381,1,8
256,256,68591,1,8
256,320,68801,1,0
192,352,69011,5,4
128,352,69220,1,0
128,352,69325,1,2
32,320,69640,1,0
32,256,69850,1,0
32,192,70060,1,0
32,192,70165,1,2
128,160,70479,1,0
96,96,70689,5,0
128,32,70899,1,0
128,32,71004,1,2
224,64,71318,1,0
256,128,71528,1,0
320,96,71738,1,0
352,160,71948,1,2
416,128,72158,1,0
448,192,72367,5,4
256,256,72787,1,2
64,192,73206,1,0
256,128,73626,1,2
256,320,74046,5,2
256,192,74360,1,2
256,64,74675,1,2
64,32,75095,1,8
32,96,75304,1,8
64,160,75514,1,0
32,224,75724,5,4
64,288,75934,1,0
64,288,76039,1,2
160,320,76353,1,0
224,352,76563,1,0
288,320,76773,1,0
288,320,76878,1,2
384,288,77193,1,0
448,256,77402,5,0
480,192,77612,1,0
480,192,77717,1,2
448,96,78032,1,0
416,32,78241,1,0
384,96,78451,1,0
320,96,78661,1,2
288,32,78871,1,0
256,96,79081,5,4
256,288,79500,1,2
96,192,79920,1,0
64,128,80130,1,0
32,192,80339,1,2
64,256,80549,1,0
96,192,80759,5,4
256,96,81179,1,2
416,192,81598,1,0
256,288,82018,1,2
448,352,82437,5,4
480,288,82647,1,0
480,288,82752,1,2
480,192,83067,1,0
480,128,83276,1,4
448,64,83486,1,0
448,64,83591,1,2
352,32,83906,1,0
288,32,84116,5,4
176,64,84430,1,8
64,96,84745,1,8
32,160,84955,1,0
64,272,85269,1,8
160,352,85584,1,8
224,352,85794,5,0
336,320,86109,1,8
448,288,86423,1,8
480,224,86633,1,14
400,128,86948,1,14
480,32,87262,1,14
256,192,87315,12,0,89780
