osu file format v11

[General]
AudioFilename: bgm-7nm.mp3
AudioLeadIn: 0
PreviewTime: 9434
Countdown: 0
SampleSet: Soft
StackLeniency: 0.4
Mode: 3
LetterboxInBreaks: 0

[Editor]
DistanceSpacing: 1
BeatDivisor: 4
GridSize: 8

[Metadata]
Title:only my railgun (TV Size)
TitleUnicode:only my railgun (TV Size)
Artist:fripSide
ArtistUnicode:fripSide
Creator:DJPop
Version:7K NM
Source:To Aru Kagaku no Railgun
Tags:SEiBiN mania
BeatmapID:193132
BeatmapSetID:63089

[Difficulty]
HPDrainRate:4
CircleSize:7
OverallDifficulty:7
ApproachRate:7
SliderMultiplier:0.64
SliderTickRate:1

[Events]
//Background and Video events
0,0,"only my railgun (TV Size).jpg"
Video,0,"only my railgun (TV Size).avi"
//Break Periods
//Storyboard Layer 0 (Background)
//Storyboard Layer 1 (Fail)
//Storyboard Layer 2 (Pass)
//Storyboard Layer 3 (Foreground)
//Storyboard Sound Samples
//Background Colour Transformations
3,100,0,0,0

[TimingPoints]
-6,419.58041958042,4,2,2,60,1,0

[HitObjects]
329,320,3350,1,4,2:0:2
329,320,3560,1,4,2:0:2
329,320,3770,1,4,2:0:2
36,320,3980,1,8,2:0:2
329,320,4084,1,4,2:0:2
329,320,4399,1,4,2:0:2
36,320,4609,1,8,2:0:2
36,320,4819,1,8,2:0:2
329,320,4924,1,4,2:0:2
402,320,5238,1,4,2:0:2
402,320,5448,1,4,2:0:2
109,320,5658,1,8,2:0:2
402,320,5763,1,4,2:0:2
402,320,6077,1,4,2:0:2
109,320,6287,1,8,2:0:2
109,320,6497,1,8,2:0:2
402,320,6602,1,4,2:0:2
475,320,6917,1,4,2:0:2
475,320,7126,1,4,2:0:2
182,320,7336,1,8,2:0:2
475,320,7441,1,4,2:0:2
475,320,7756,1,4,2:0:2
182,320,7966,1,8,2:0:2
182,320,8175,1,8,2:0:2
475,320,8280,1,4,2:0:2
329,320,10063,1,2,3:0:2
109,320,10168,1,2,3:0:2
329,320,10378,1,4,3:0:2
109,320,10693,1,2,3:0:2
329,320,10903,1,2,3:0:2
109,320,11007,1,2,3:0:2
329,320,11217,1,4,3:0:2
109,320,11532,1,2,3:0:2
475,320,11742,1,8,3:0:2
256,320,11847,1,8,3:0:2
475,320,12056,1,2,1:0:3
256,320,12371,1,8,3:0:2
402,320,12581,1,4,1:0:3
182,320,12686,1,4,1:0:3
402,320,12896,1,8,1:0:3
182,320,13210,1,4,1:0:3
256,320,13420,1,2,2:0:3
36,320,13525,1,2,2:0:3
256,320,13735,1,4,2:0:3
36,320,14049,1,2,2:0:3
256,320,14259,1,2,2:0:3
36,320,14364,1,2,2:0:3
256,320,14574,1,4,2:0:3
36,320,14889,1,2,2:0:3
402,320,15098,1,8,2:0:3
182,320,15203,1,8,2:0:3
402,320,15413,1,2,3:0:3
182,320,15728,1,8,2:0:3
329,320,15938,1,4,3:0:3
109,320,16042,1,4,3:0:3
329,320,16252,1,8,3:0:3
109,320,16567,1,4,3:0:3
256,320,16777,1,2,3:0:2
36,320,16882,1,2,3:0:2
256,320,17091,1,4,3:0:2
36,320,17406,1,2,3:0:2
256,320,17616,1,2,3:0:2
36,320,17721,1,2,3:0:2
256,320,17931,1,4,3:0:2
36,320,18245,1,2,3:0:2
475,320,18455,1,8,3:0:2
256,320,18560,1,8,3:0:2
475,320,18770,1,2,1:0:3
256,320,19084,1,8,3:0:2
402,320,19294,1,4,1:0:3
182,320,19399,1,4,1:0:3
402,320,19609,1,8,1:0:3
182,320,19924,1,4,1:0:3
329,320,20133,1,2,1:0:4
109,320,20238,1,2,1:0:4
329,320,20448,1,4,1:0:4
109,320,20763,1,2,1:0:4
329,320,20973,1,2,1:0:4
109,320,21077,1,2,1:0:4
329,320,21287,1,4,1:0:4
109,320,21602,1,2,1:0:4
475,320,21812,1,8,1:0:4
36,320,21917,1,8,1:0:4
475,320,22126,1,2,2:0:4
36,320,22441,1,8,1:0:4
475,320,22651,1,2,3:0:25
256,320,22966,1,4,3:0:25
36,320,23280,1,2,3:0:25
329,320,23490,1,8,3:0:25
109,320,23595,1,8,3:0:25
329,320,23805,1,2,1:0:26
109,320,24119,1,8,3:0:25
402,320,24329,1,4,1:0:26
182,320,24434,1,4,1:0:26
402,320,24644,1,8,1:0:26
256,320,24959,1,4,1:0:26
182,320,25168,1,2,2:0:26
36,320,25273,1,2,2:0:26
182,320,25483,1,4,2:0:26
36,320,25798,1,2,2:0:26
182,320,26007,1,2,2:0:26
36,320,26112,1,2,2:0:26
182,320,26322,1,4,2:0:26
36,320,26637,1,2,2:0:26
475,320,26847,1,4,2:0:4
329,320,26952,1,4,2:0:4
475,320,27161,1,8,2:0:4
329,320,27476,1,4,2:0:4
475,320,27686,1,4,2:0:4
329,320,27791,1,4,2:0:4
475,320,28000,1,8,2:0:4
329,320,28315,1,4,2:0:4
329,320,30203,1,4,3:0:5
109,320,30413,1,8,3:0:5
329,320,30623,1,2,1:0:6
402,320,30833,1,4,1:0:6
475,320,31042,1,8,1:0:6
256,320,31882,1,2,2:0:6
36,320,32091,1,4,2:0:6
256,320,32301,1,8,2:0:6
402,320,32511,1,4,1:0:6
475,320,32721,1,8,1:0:6
256,320,33560,1,4,3:0:5
182,320,33770,1,2,3:0:6
256,320,33980,1,2,1:0:6
402,320,34189,1,4,1:0:6
475,320,34399,1,8,1:0:6
329,320,35238,1,4,3:0:6
256,320,35448,1,8,3:0:6
329,320,35658,1,2,1:0:7
475,320,35868,1,4,1:0:7
109,320,36077,1,2,1:0:2
402,320,36077,1,2,3:0:4
182,320,36497,1,2,1:0:2
329,320,36497,1,4,3:0:4
256,320,36917,1,2,2:0:2
475,320,36917,1,8,3:0:4
475,320,37231,1,8,3:0:4
475,320,37546,1,8,3:0:4
182,320,37756,1,2,1:0:5
182,320,38070,1,2,1:0:5
182,320,38385,1,2,1:0:5
109,320,38595,1,8,1:0:2
329,320,38595,1,4,1:0:5
329,320,38910,1,4,1:0:5
329,320,39224,1,4,1:0:5
36,320,39434,1,8,1:0:5
36,320,39749,1,8,1:0:5
36,320,40063,1,8,1:0:5
182,320,40273,1,2,2:0:5
402,320,40273,1,2,2:0:2
182,320,40588,1,2,2:0:5
182,320,40903,1,2,2:0:5
36,320,41112,1,8,1:0:5
256,320,41112,1,8,1:0:2
36,320,41427,1,8,1:0:5
36,320,41742,1,8,1:0:5
109,320,41952,1,2,2:0:2
475,320,41952,1,4,2:0:5
475,320,42266,1,4,2:0:5
475,320,42581,1,4,2:0:5
475,320,42791,1,4,2:0:5
475,320,43105,1,4,2:0:5
475,320,43420,1,4,2:0:5
36,320,43630,1,4,3:0:16
109,320,43840,1,8,3:0:16
256,320,44049,1,2,1:0:17
36,320,44259,1,4,1:0:17
109,320,44469,1,8,1:0:17
256,320,44679,1,2,2:0:17
36,320,44889,1,4,2:0:17
109,320,45098,1,8,2:0:17
182,320,45308,1,2,3:0:17
329,320,45518,1,4,3:0:17
402,320,45728,1,8,3:0:17
182,320,45938,1,2,1:0:18
329,320,46147,1,4,1:0:18
402,320,46357,1,8,1:0:18
182,320,46567,1,2,2:0:18
329,320,46777,1,4,2:0:18
109,320,46987,1,8,2:0:18
256,320,47196,1,2,3:0:18
329,320,47406,1,4,3:0:18
109,320,47616,1,8,3:0:18
256,320,47826,1,2,1:0:19
329,320,48035,1,4,1:0:19
109,320,48245,1,8,1:0:19
256,320,48455,1,2,2:0:19
182,320,48665,1,4,2:0:19
256,320,48875,1,8,2:0:19
329,320,49084,1,2,3:0:19
402,320,49294,1,4,3:0:19
475,320,49504,1,8,3:0:19
402,320,49714,1,2,1:0:20
329,320,49924,1,4,1:0:20
256,320,50133,1,8,1:0:20
329,320,50343,1,2,2:0:20
36,320,50553,1,4,2:0:20
256,320,50763,1,8,2:0:20
182,320,50973,1,2,3:0:20
109,320,51182,1,4,3:0:20
182,320,51392,1,8,3:0:20
256,320,51602,1,2,1:0:21
329,320,51812,1,4,1:0:21
36,320,52021,1,8,1:0:21
109,320,52231,1,2,2:0:21
182,320,52441,1,4,2:0:21
256,320,52651,1,8,2:0:21
475,320,52861,1,2,3:0:21
402,320,53070,1,4,3:0:21
329,320,53280,1,8,3:0:21
256,320,53490,1,2,1:0:22
182,320,53700,128,4,54329:1:0:22
36,320,54329,1,8,1:0:22
109,320,54434,1,2,2:0:22
256,320,54539,128,4,55378:2:0:22
329,320,55378,128,8,57056:2:0:22
109,320,57056,1,8,1:0:2
402,320,57056,1,8,2:0:5
36,320,57371,1,2,2:0:2
475,320,57371,1,2,3:0:5
109,320,57686,1,8,1:0:2
402,320,57686,1,8,2:0:5
256,320,58735,1,4,2:0:7
36,320,58945,1,8,2:0:7
182,320,59049,1,2,3:0:7
329,320,59154,1,4,3:0:7
475,320,59259,1,8,3:0:7
329,320,59364,1,2,1:0:8
182,320,59469,1,4,1:0:8
36,320,59574,1,8,1:0:8
402,320,59889,1,2,2:0:8
109,320,60203,1,4,2:0:8
329,320,60413,128,8,61042:2:0:8
36,320,61042,1,2,3:0:8
182,320,61147,1,4,3:0:8
475,320,61252,128,8,62091:3:0:8
256,320,62091,128,2,62931:1:0:9
36,320,62931,1,4,1:0:9
109,320,63035,1,8,1:0:9
182,320,63140,1,2,2:0:9
475,320,63245,1,4,2:0:9
402,320,63350,1,8,2:0:9
329,320,63455,1,2,3:0:9
109,320,63560,1,4,3:0:9
36,320,63665,1,8,3:0:9
182,320,63770,128,2,64609:1:0:10
475,320,64609,128,4,65448:1:0:10
329,320,65448,128,8,66287:1:0:10
182,320,66287,128,2,67126:2:0:10
36,320,67126,128,4,67966:2:0:10
182,320,67966,1,8,2:0:10
256,320,68175,1,2,3:0:10
329,320,68385,1,4,3:0:10
402,320,68595,1,8,3:0:10
475,320,68700,1,2,1:0:11
329,320,68805,1,4,1:0:11
256,320,69014,1,8,1:0:11
36,320,69119,1,2,2:0:11
256,320,69224,1,4,2:0:11
36,320,69329,1,8,2:0:11
329,320,69434,1,2,3:0:11
256,320,69644,1,4,3:0:11
36,320,69749,1,8,3:0:11
256,320,69854,1,2,1:0:12
36,320,69959,1,4,1:0:12
329,320,70063,1,8,1:0:12
256,320,70273,1,2,2:0:12
36,320,70378,1,4,2:0:12
475,320,70483,1,8,2:0:12
402,320,70693,1,2,3:0:12
182,320,70798,1,4,3:0:12
402,320,70903,1,8,3:0:12
182,320,71007,1,2,1:0:13
475,320,71112,1,4,1:0:13
402,320,71322,1,8,1:0:13
182,320,71427,1,2,2:0:13
402,320,71532,1,4,2:0:13
182,320,71637,1,8,2:0:13
475,320,71742,1,2,3:0:13
402,320,71952,1,4,3:0:13
182,320,72056,1,8,3:0:13
36,320,72161,1,2,1:0:2
329,320,72161,1,2,2:0:2
109,320,72581,1,2,1:0:2
402,320,72581,1,4,1:0:2
182,320,73000,1,2,1:0:2
475,320,73000,1,2,3:0:2
109,320,73420,1,2,1:0:2
402,320,73420,1,4,1:0:2
36,320,73840,1,2,1:0:2
329,320,73840,1,8,3:0:2
109,320,74259,1,2,1:0:2
402,320,74259,1,4,1:0:2
475,320,74679,1,2,1:0:2
329,320,74889,1,8,1:0:23
182,320,75098,1,4,1:0:2
36,320,75308,1,4,2:0:23
109,320,75518,1,2,1:0:2
402,320,75518,1,2,2:0:2
182,320,75938,1,2,1:0:2
329,320,75938,1,4,1:0:2
36,320,76357,1,2,1:0:2
475,320,76357,1,2,2:0:3
109,320,76777,1,2,1:0:2
402,320,76777,1,4,1:0:2
182,320,77196,1,8,2:0:3
256,320,77511,1,2,3:0:3
329,320,77826,1,8,2:0:3
36,320,78035,1,2,1:0:2
182,320,78245,1,8,1:0:23
329,320,78455,1,2,1:0:2
475,320,78455,1,4,1:0:2
182,320,78665,1,4,2:0:23
36,320,78875,1,2,1:0:2
402,320,78875,1,8,1:0:2
109,320,79294,1,2,1:0:2
475,320,79294,1,4,1:0:2
36,320,79714,1,2,1:0:2
329,320,79714,1,2,3:0:2
182,320,80133,1,2,1:0:2
475,320,80133,1,4,1:0:2
109,320,80553,1,2,1:0:2
256,320,80553,1,8,3:0:2
256,320,80973,1,4,1:0:2
402,320,80973,1,2,1:0:2
36,320,81392,1,2,1:0:2
182,320,81602,1,8,1:0:23
329,320,81812,1,4,1:0:2
475,320,82021,1,4,2:0:23
109,320,82231,1,2,1:0:2
256,320,82231,1,8,1:0:2
402,320,82441,1,8,1:0:23
36,320,82651,1,4,1:0:2
329,320,82861,1,4,2:0:23
109,320,83070,1,2,1:0:2
402,320,83280,1,8,1:0:23
182,320,83490,1,4,1:0:2
475,320,83700,1,4,2:0:23
256,320,83910,1,2,2:0:2
402,320,83910,1,2,1:0:2
109,320,84119,1,8,1:0:23
475,320,84329,1,4,1:0:2
182,320,84539,1,4,2:0:23
402,320,84749,1,2,1:0:2
109,320,84959,1,8,1:0:23
329,320,85168,1,4,1:0:2
36,320,85378,1,4,2:0:23
256,320,85588,1,2,1:0:2
475,320,85588,1,2,2:0:2
182,320,86007,1,2,1:0:2
402,320,86007,1,4,1:0:2
109,320,86427,1,2,1:0:2
329,320,86427,1,8,1:0:2
36,320,86847,1,2,1:0:2
256,320,86847,1,4,1:0:2
109,320,87266,1,2,1:0:2
329,320,87266,1,2,2:0:26
329,320,87581,1,4,2:0:26
36,320,87686,1,4,1:0:2
182,320,87686,1,2,1:0:2
329,320,87896,1,2,2:0:26
109,320,88105,1,2,1:0:2
402,320,88105,1,2,2:0:26
402,320,88420,1,4,2:0:26
36,320,88525,1,4,1:0:2
182,320,88525,1,2,1:0:2
402,320,88735,1,2,2:0:26
109,320,88945,1,2,1:0:2
475,320,88945,1,4,2:0:4
475,320,89259,1,8,2:0:4
36,320,89364,1,4,1:0:2
182,320,89364,1,2,1:0:2
475,320,89574,1,4,2:0:4
109,320,89784,1,2,1:0:2
256,320,89784,1,2,3:0:22
402,320,89784,1,4,2:0:4
109,320,90098,1,2,1:0:2
256,320,90098,1,4,3:0:22
402,320,90098,1,8,2:0:4
109,320,90413,128,2,97336:1:0:2
256,320,90413,128,8,97336:3:0:22
402,320,90413,128,4,97336:2:0:4
