osu file format v11

[General]
AudioFilename: bgm-7hd.mp3
AudioLeadIn: 0
PreviewTime: 9434
Countdown: 0
SampleSet: Soft
StackLeniency: 0.4
Mode: 3
LetterboxInBreaks: 0

[Editor]
DistanceSpacing: 1
BeatDivisor: 4
GridSize: 8

[Metadata]
Title:only my railgun (TV Size)
TitleUnicode:only my railgun (TV Size)
Artist:fripSide
ArtistUnicode:fripSide
Creator:DJPop
Version:7K HD
Source:To Aru Kagaku no Railgun
Tags:SEiBiN mania
BeatmapID:193130
BeatmapSetID:63089

[Difficulty]
HPDrainRate:6
CircleSize:7
OverallDifficulty:7
ApproachRate:7
SliderMultiplier:0.64
SliderTickRate:1

[Events]
//Background and Video events
0,0,"only my railgun (TV Size).jpg"
Video,0,"only my railgun (TV Size).avi"
//Break Periods
//Storyboard Layer 0 (Background)
//Storyboard Layer 1 (Fail)
//Storyboard Layer 2 (Pass)
//Storyboard Layer 3 (Foreground)
//Storyboard Sound Samples
//Background Colour Transformations
3,100,0,0,0

[TimingPoints]
-6,419.58041958042,4,2,2,60,1,0

[HitObjects]
36,320,3350,1,2,1:0:2
475,320,3350,1,4,2:0:2
475,320,3560,1,4,2:0:2
36,320,3770,1,2,1:0:2
475,320,3770,1,4,2:0:2
329,320,3980,1,8,2:0:2
475,320,4084,1,4,2:0:2
36,320,4189,1,2,1:0:2
475,320,4399,1,4,2:0:2
36,320,4609,1,2,1:0:2
329,320,4609,1,8,2:0:2
329,320,4819,1,8,2:0:2
475,320,4924,1,4,2:0:2
36,320,5028,1,2,1:0:2
475,320,5238,1,4,2:0:2
36,320,5448,1,2,1:0:2
475,320,5448,1,4,2:0:2
329,320,5658,1,8,2:0:2
475,320,5763,1,4,2:0:2
36,320,5868,1,2,1:0:2
475,320,6077,1,4,2:0:2
36,320,6287,1,2,1:0:2
329,320,6287,1,8,2:0:2
329,320,6497,1,8,2:0:2
475,320,6602,1,4,2:0:2
36,320,6707,1,2,1:0:2
475,320,6917,1,4,2:0:2
36,320,7126,1,2,1:0:2
475,320,7126,1,4,2:0:2
329,320,7336,1,8,2:0:2
475,320,7441,1,4,2:0:2
36,320,7546,1,2,1:0:2
475,320,7756,1,4,2:0:2
36,320,7966,1,2,1:0:2
329,320,7966,1,8,2:0:2
329,320,8175,1,8,2:0:2
475,320,8280,1,4,2:0:2
109,320,8385,128,2,9854:1:0:2
402,320,8385,128,8,9854:1:0:7
36,320,9434,1,2,2:0:32
182,320,9539,1,4,2:0:32
256,320,9644,1,8,2:0:32
329,320,9749,1,2,3:0:32
475,320,9854,1,4,3:0:32
36,320,10063,1,2,1:0:2
182,320,10063,1,2,2:0:2
402,320,10063,1,4,2:0:7
256,320,10273,1,8,2:0:7
329,320,10378,1,2,3:0:7
36,320,10483,1,2,1:0:2
109,320,10483,1,4,1:0:2
402,320,10483,1,4,3:0:7
475,320,10588,1,8,3:0:7
402,320,10693,1,2,1:0:8
329,320,10798,1,4,1:0:8
36,320,10903,1,2,1:0:2
402,320,10903,128,8,11217:1:0:8
329,320,11217,128,2,11532:2:0:8
36,320,11322,1,2,1:0:2
109,320,11322,1,4,1:0:2
402,320,11532,1,4,2:0:8
36,320,11742,1,2,1:0:2
182,320,11742,128,8,12371:2:0:8
36,320,12161,1,2,1:0:2
109,320,12161,1,4,1:0:2
329,320,12371,1,2,3:0:8
402,320,12476,1,4,3:0:8
36,320,12581,1,2,1:0:2
475,320,12581,128,8,13420:3:0:8
36,320,13000,1,2,1:0:2
109,320,13000,1,4,1:0:2
36,320,13420,1,2,1:0:2
256,320,13420,128,2,14259:1:0:9
36,320,13840,1,2,1:0:2
109,320,13840,1,4,1:0:2
36,320,14259,1,2,1:0:2
182,320,14259,1,4,1:0:9
329,320,14364,1,8,1:0:9
402,320,14469,1,2,2:0:9
475,320,14574,1,4,2:0:9
36,320,14679,1,2,1:0:2
109,320,14679,1,4,1:0:2
402,320,14679,1,8,2:0:9
329,320,14784,1,2,3:0:9
256,320,14889,1,4,3:0:9
182,320,14994,1,8,3:0:9
36,320,15098,1,2,1:0:2
402,320,15098,128,2,15938:1:0:10
36,320,15518,1,2,1:0:2
109,320,15518,1,4,1:0:2
256,320,15518,1,2,2:0:2
36,320,15938,1,2,1:0:2
329,320,15938,1,8,1:0:2
475,320,15938,128,4,16777:1:0:10
36,320,16357,1,2,1:0:2
109,320,16357,1,4,1:0:2
36,320,16777,1,2,1:0:2
256,320,16777,128,8,17616:1:0:10
402,320,16777,1,2,2:0:2
36,320,17196,1,2,1:0:2
109,320,17196,1,4,1:0:2
36,320,17616,1,2,1:0:2
182,320,17616,128,2,18455:2:0:10
36,320,18035,1,2,1:0:2
109,320,18035,1,4,1:0:2
109,320,18455,128,4,19294:2:0:10
475,320,18455,1,2,1:0:2
402,320,18875,1,4,1:0:2
475,320,18875,1,2,1:0:2
36,320,19294,1,8,2:0:10
475,320,19294,1,2,1:0:2
182,320,19504,1,2,3:0:10
109,320,19714,1,4,1:0:2
256,320,19714,1,4,3:0:10
329,320,19714,1,2,1:0:2
402,320,19924,1,8,3:0:10
475,320,20028,1,2,1:0:11
36,320,20133,1,2,1:0:2
182,320,20133,1,8,1:0:2
329,320,20133,1,4,1:0:11
256,320,20343,1,8,1:0:11
109,320,20448,1,2,2:0:11
36,320,20553,1,2,1:0:2
256,320,20553,1,4,2:0:11
475,320,20553,1,4,1:0:2
109,320,20658,1,8,2:0:11
329,320,20763,1,2,3:0:11
36,320,20973,1,2,1:0:2
256,320,20973,1,4,3:0:11
109,320,21077,1,8,3:0:11
256,320,21182,1,2,1:0:12
109,320,21287,1,4,1:0:12
36,320,21392,1,2,1:0:2
329,320,21392,1,8,1:0:12
475,320,21392,1,4,1:0:2
256,320,21602,1,2,2:0:12
109,320,21707,1,4,2:0:12
182,320,21812,1,2,1:0:2
329,320,21812,1,2,2:0:2
475,320,21812,1,8,2:0:12
402,320,22021,1,2,3:0:12
256,320,22126,1,4,3:0:12
36,320,22231,1,4,1:0:2
182,320,22231,1,2,1:0:2
402,320,22231,1,8,3:0:12
256,320,22336,1,2,1:0:13
475,320,22441,1,4,1:0:13
182,320,22651,1,2,1:0:2
402,320,22651,1,8,1:0:13
256,320,22756,1,2,2:0:13
402,320,22861,1,4,2:0:13
256,320,22966,1,8,2:0:13
36,320,23070,1,4,1:0:2
182,320,23070,1,2,1:0:2
475,320,23070,1,2,3:0:13
402,320,23280,1,4,3:0:13
256,320,23385,1,8,3:0:13
36,320,23490,128,2,24329:1:0:14
329,320,23490,1,2,1:0:2
475,320,23490,1,8,1:0:2
109,320,23910,1,2,1:0:2
182,320,23910,1,4,1:0:2
256,320,24329,128,4,25168:1:0:14
329,320,24329,1,2,1:0:2
475,320,24329,1,2,2:0:2
109,320,24749,1,2,1:0:2
182,320,24749,1,4,1:0:2
36,320,25168,1,2,1:0:2
402,320,25168,1,8,1:0:14
475,320,25168,1,8,1:0:2
256,320,25378,1,2,2:0:14
109,320,25483,1,4,2:0:14
36,320,25588,1,2,1:0:2
256,320,25588,1,8,2:0:14
329,320,25588,1,4,1:0:2
109,320,25693,1,2,3:0:14
402,320,25798,1,4,3:0:14
36,320,26007,1,2,1:0:2
256,320,26007,1,8,3:0:14
109,320,26112,1,2,1:0:15
256,320,26217,1,4,1:0:15
109,320,26322,1,8,1:0:15
36,320,26427,1,2,1:0:2
329,320,26427,1,4,1:0:2
402,320,26427,1,2,2:0:15
256,320,26637,1,4,2:0:15
109,320,26742,1,8,2:0:15
36,320,26847,1,2,1:0:2
475,320,26847,1,2,3:0:15
402,320,27056,1,4,3:0:15
329,320,27161,1,8,3:0:15
36,320,27266,1,2,1:0:2
182,320,27266,1,4,1:0:2
402,320,27266,1,2,1:0:16
256,320,27476,1,4,1:0:16
109,320,27581,1,8,1:0:16
36,320,27686,1,2,1:0:2
475,320,27686,128,2,27896:2:0:16
329,320,27896,128,4,28105:2:0:16
109,320,28105,1,2,1:0:2
182,320,28105,128,8,28315:2:0:16
402,320,28105,1,4,1:0:2
36,320,28315,128,2,28525:3:0:16
256,320,28525,128,8,30203:1:0:7
36,320,30203,1,8,1:0:2
182,320,30203,1,2,2:0:31
329,320,30203,1,4,3:0:5
256,320,30413,1,8,3:0:5
329,320,30623,1,2,1:0:6
402,320,30833,1,4,1:0:6
475,320,31042,1,8,1:0:6
109,320,31882,1,4,2:0:31
256,320,31882,1,2,2:0:6
182,320,32091,1,4,2:0:6
256,320,32301,1,8,2:0:6
402,320,32511,1,4,1:0:6
475,320,32721,1,8,1:0:6
36,320,33560,1,8,2:0:31
329,320,33560,1,4,3:0:5
256,320,33770,1,2,3:0:6
329,320,33980,1,2,1:0:6
402,320,34189,1,4,1:0:6
475,320,34399,1,8,1:0:6
36,320,35238,1,8,1:0:24
109,320,35343,1,2,2:0:24
182,320,35448,1,4,2:0:24
256,320,35553,1,8,2:0:24
329,320,35658,1,2,3:0:24
256,320,35763,1,4,3:0:24
329,320,35868,1,8,3:0:24
402,320,35973,1,2,1:0:25
36,320,36077,1,2,1:0:2
256,320,36077,1,2,3:0:4
475,320,36077,1,4,1:0:25
109,320,36497,1,2,1:0:2
402,320,36497,1,4,3:0:4
182,320,36917,1,2,1:0:2
329,320,36917,1,2,2:0:2
475,320,36917,1,8,3:0:4
475,320,37231,1,8,3:0:4
109,320,37336,1,2,1:0:2
475,320,37546,1,8,3:0:4
36,320,37756,1,2,1:0:2
182,320,37756,1,2,1:0:5
182,320,38070,1,2,1:0:5
402,320,38175,1,2,1:0:2
182,320,38385,1,2,1:0:5
109,320,38595,1,2,1:0:2
329,320,38595,1,4,1:0:5
475,320,38595,1,8,1:0:2
329,320,38910,1,4,1:0:5
182,320,39014,1,2,1:0:2
329,320,39224,1,4,1:0:5
36,320,39434,1,8,1:0:5
402,320,39434,1,2,1:0:2
36,320,39749,1,8,1:0:5
256,320,39854,1,2,1:0:2
36,320,40063,1,8,1:0:5
182,320,40273,1,2,2:0:5
329,320,40273,1,2,2:0:2
475,320,40273,1,2,1:0:2
182,320,40588,1,2,2:0:5
402,320,40693,1,2,1:0:2
182,320,40903,1,2,2:0:5
36,320,41112,1,8,1:0:5
329,320,41112,1,8,1:0:2
475,320,41112,1,2,1:0:2
36,320,41427,1,8,1:0:5
402,320,41532,1,2,1:0:2
36,320,41742,1,8,1:0:5
109,320,41952,1,2,1:0:2
329,320,41952,1,2,2:0:2
475,320,41952,1,4,2:0:5
475,320,42266,1,4,2:0:5
256,320,42371,1,2,1:0:2
475,320,42581,1,4,2:0:5
109,320,42791,1,2,1:0:2
475,320,42791,1,4,2:0:5
475,320,43105,1,4,2:0:5
256,320,43210,1,2,1:0:2
475,320,43420,1,4,2:0:5
36,320,43630,1,4,3:0:16
182,320,43630,1,2,2:0:2
329,320,43630,1,2,1:0:2
109,320,43840,1,8,3:0:16
256,320,44049,1,2,1:0:17
402,320,44049,1,2,1:0:2
475,320,44049,1,4,1:0:2
36,320,44259,1,4,1:0:17
109,320,44469,1,8,1:0:17
329,320,44469,1,2,1:0:2
256,320,44679,1,2,2:0:17
36,320,44889,1,4,2:0:17
402,320,44889,1,2,1:0:2
109,320,45098,1,8,2:0:17
182,320,45308,1,2,3:0:17
256,320,45308,1,2,1:0:2
475,320,45308,1,8,1:0:2
329,320,45518,1,4,3:0:17
36,320,45728,1,4,1:0:2
109,320,45728,1,2,1:0:2
402,320,45728,1,8,3:0:17
182,320,45938,1,2,1:0:18
256,320,46147,1,2,1:0:2
329,320,46147,1,4,1:0:18
402,320,46357,1,8,1:0:18
109,320,46567,1,2,1:0:2
182,320,46567,1,2,2:0:18
329,320,46777,1,4,2:0:18
109,320,46987,1,8,2:0:18
402,320,46987,1,2,2:0:2
475,320,46987,1,2,1:0:2
256,320,47196,1,2,3:0:18
36,320,47406,1,4,1:0:2
182,320,47406,1,2,1:0:2
329,320,47406,1,4,3:0:18
109,320,47616,1,8,3:0:18
256,320,47826,1,2,1:0:19
475,320,47826,1,2,1:0:2
329,320,48035,1,4,1:0:19
109,320,48245,1,8,1:0:19
182,320,48245,1,2,1:0:2
256,320,48455,1,2,2:0:19
36,320,48665,1,2,1:0:2
182,320,48665,1,4,2:0:19
256,320,48875,1,8,2:0:19
36,320,49084,1,2,1:0:2
109,320,49084,1,2,2:0:2
182,320,49084,1,4,1:0:2
329,320,49084,1,2,3:0:19
402,320,49294,1,4,3:0:19
36,320,49504,1,2,1:0:2
475,320,49504,1,8,3:0:19
182,320,49609,1,4,1:0:2
402,320,49714,1,2,1:0:20
36,320,49924,1,2,1:0:2
109,320,49924,1,8,1:0:2
182,320,49924,1,4,1:0:2
329,320,49924,1,4,1:0:20
256,320,50133,1,8,1:0:20
109,320,50343,1,2,2:0:2
329,320,50343,1,2,2:0:20
475,320,50343,1,2,1:0:2
36,320,50553,1,4,2:0:20
256,320,50763,1,8,2:0:20
402,320,50763,1,4,1:0:2
475,320,50763,1,2,1:0:2
182,320,50973,1,2,3:0:20
109,320,51182,1,4,3:0:20
329,320,51182,1,2,1:0:2
182,320,51392,1,8,3:0:20
256,320,51602,1,2,1:0:21
475,320,51602,1,2,1:0:2
329,320,51812,1,4,1:0:21
36,320,52021,1,8,1:0:21
256,320,52021,1,2,1:0:2
402,320,52021,1,2,2:0:2
109,320,52231,1,2,2:0:21
182,320,52441,1,4,2:0:21
329,320,52441,1,2,1:0:2
475,320,52441,1,4,1:0:2
256,320,52651,1,8,2:0:21
36,320,52861,1,2,1:0:2
475,320,52861,1,2,3:0:21
402,320,53070,1,4,3:0:21
109,320,53280,1,2,1:0:2
329,320,53280,1,8,3:0:21
256,320,53490,1,2,1:0:22
182,320,53700,128,4,54329:1:0:22
402,320,53700,1,2,1:0:2
475,320,53700,1,2,2:0:2
329,320,54119,1,4,1:0:2
402,320,54119,1,2,1:0:2
36,320,54329,1,8,1:0:22
109,320,54434,1,2,2:0:22
256,320,54539,128,4,55378:2:0:22
402,320,54539,1,2,1:0:2
402,320,54959,1,2,1:0:2
36,320,55378,1,2,2:0:2
182,320,55378,1,2,1:0:2
329,320,55378,128,8,57056:2:0:22
109,320,55798,1,2,1:0:2
402,320,55798,1,4,1:0:2
36,320,56217,1,2,2:0:7
109,320,56287,1,8,3:0:32
182,320,56357,1,2,1:0:33
256,320,56427,1,4,1:0:33
402,320,56497,1,8,1:0:33
475,320,56567,1,2,2:0:33
36,320,56637,1,4,2:0:33
109,320,56707,1,8,2:0:33
182,320,56777,1,2,3:0:33
256,320,56847,1,4,3:0:33
402,320,56917,1,8,3:0:33
475,320,56987,1,2,1:0:34
109,320,57056,1,2,1:0:2
256,320,57056,1,8,1:0:2
402,320,57056,1,8,2:0:5
36,320,57371,1,2,1:0:2
256,320,57371,1,2,2:0:2
475,320,57371,1,2,3:0:5
109,320,57686,128,2,58525:1:0:2
256,320,57686,1,8,1:0:2
402,320,57686,128,8,58525:2:0:5
475,320,58105,1,2,2:0:32
329,320,58210,1,4,2:0:32
256,320,58315,1,8,2:0:32
182,320,58420,1,2,3:0:32
36,320,58525,1,4,3:0:32
182,320,58735,1,2,3:0:2
329,320,58735,1,2,2:0:2
475,320,58735,1,2,1:0:2
182,320,58840,1,2,3:0:2
182,320,59049,1,4,3:0:2
36,320,59154,1,4,1:0:2
475,320,59154,1,2,1:0:2
182,320,59364,1,2,3:0:2
182,320,59574,1,2,3:0:2
475,320,59574,1,2,1:0:2
182,320,59679,1,2,3:0:2
182,320,59889,1,4,3:0:2
36,320,59994,1,4,1:0:2
475,320,59994,1,2,1:0:2
182,320,60203,1,2,3:0:2
329,320,60413,1,8,3:0:2
475,320,60413,1,2,1:0:2
329,320,60518,1,8,3:0:2
329,320,60728,1,2,1:0:3
109,320,60833,1,4,1:0:2
475,320,60833,1,2,1:0:2
329,320,61042,1,8,3:0:2
256,320,61252,1,4,1:0:3
475,320,61252,1,2,1:0:2
256,320,61357,1,4,1:0:3
256,320,61567,1,8,1:0:3
109,320,61672,1,4,1:0:2
475,320,61672,1,2,1:0:2
256,320,61882,1,4,1:0:3
36,320,62091,1,2,2:0:3
402,320,62091,1,2,2:0:2
475,320,62091,1,2,1:0:2
36,320,62196,1,2,2:0:3
36,320,62406,1,4,2:0:3
256,320,62511,1,4,1:0:2
475,320,62511,1,2,1:0:2
36,320,62721,1,2,2:0:3
36,320,62931,1,2,2:0:3
475,320,62931,1,2,1:0:2
36,320,63035,1,2,2:0:3
36,320,63245,1,4,2:0:3
256,320,63350,1,4,1:0:2
475,320,63350,1,2,1:0:2
36,320,63560,1,2,2:0:3
182,320,63770,1,8,2:0:3
475,320,63770,1,2,1:0:2
182,320,63875,1,8,2:0:3
182,320,64084,1,2,3:0:3
329,320,64189,1,4,1:0:2
475,320,64189,1,2,1:0:2
182,320,64399,1,8,2:0:3
109,320,64609,1,4,3:0:3
475,320,64609,1,2,1:0:2
109,320,64714,1,4,3:0:3
109,320,64924,1,8,3:0:3
329,320,65028,1,4,1:0:2
475,320,65028,1,2,1:0:2
109,320,65238,1,4,3:0:3
36,320,65448,1,8,1:0:2
182,320,65448,1,2,3:0:2
475,320,65448,1,2,1:0:2
182,320,65553,1,2,3:0:2
182,320,65763,1,4,3:0:2
402,320,65868,1,4,1:0:2
475,320,65868,1,2,1:0:2
182,320,66077,1,2,3:0:2
182,320,66287,1,2,3:0:2
475,320,66287,1,2,1:0:2
182,320,66392,1,2,3:0:2
182,320,66602,1,4,3:0:2
402,320,66707,1,4,1:0:2
475,320,66707,1,2,1:0:2
182,320,66917,1,2,3:0:2
329,320,67126,1,8,3:0:2
475,320,67126,1,2,1:0:2
329,320,67231,1,8,3:0:2
329,320,67441,1,2,1:0:3
36,320,67546,1,4,1:0:2
475,320,67546,1,2,1:0:2
329,320,67756,1,8,3:0:2
256,320,67966,1,4,1:0:3
475,320,67966,1,2,1:0:2
256,320,68070,1,4,1:0:3
256,320,68280,1,8,1:0:3
36,320,68385,1,4,1:0:2
475,320,68385,1,2,1:0:2
256,320,68595,1,4,1:0:3
109,320,68805,1,2,1:0:4
402,320,68805,1,8,1:0:2
475,320,68805,1,2,1:0:2
109,320,68910,1,2,1:0:4
109,320,69119,1,4,1:0:4
329,320,69224,1,4,1:0:2
475,320,69224,1,2,1:0:2
109,320,69434,1,2,1:0:4
109,320,69644,1,2,1:0:4
475,320,69644,1,2,1:0:2
109,320,69749,1,2,1:0:4
109,320,69959,1,4,1:0:4
329,320,70063,1,4,1:0:2
475,320,70063,1,2,1:0:2
109,320,70273,1,2,1:0:4
36,320,70483,1,4,1:0:34
475,320,70483,1,2,2:0:2
109,320,70553,1,8,1:0:34
182,320,70623,1,2,2:0:34
256,320,70693,1,4,2:0:34
36,320,70903,1,4,1:0:2
256,320,70903,1,8,2:0:34
329,320,70973,1,2,3:0:34
402,320,71042,1,4,3:0:34
475,320,71112,1,8,3:0:34
36,320,71322,1,2,1:0:35
109,320,71392,1,4,1:0:35
182,320,71462,1,8,1:0:35
256,320,71532,1,2,2:0:35
329,320,71602,1,4,2:0:35
402,320,71672,1,8,2:0:35
36,320,71742,1,4,1:0:2
475,320,71742,1,2,3:0:35
109,320,71812,1,4,3:0:35
182,320,71882,1,8,3:0:35
256,320,71952,1,2,1:0:36
329,320,72021,1,4,1:0:36
402,320,72091,1,8,1:0:36
109,320,72161,1,2,1:0:23
256,320,72161,1,2,3:0:2
475,320,72161,1,2,2:0:2
109,320,72266,1,4,1:0:23
256,320,72266,1,2,3:0:2
109,320,72476,1,2,2:0:23
256,320,72476,1,4,3:0:2
329,320,72581,1,4,1:0:2
109,320,72791,1,4,2:0:23
256,320,72791,1,2,3:0:2
109,320,73000,1,2,1:0:23
256,320,73000,1,2,3:0:2
109,320,73105,1,4,1:0:23
256,320,73105,1,2,3:0:2
109,320,73315,1,2,2:0:23
256,320,73315,1,4,3:0:2
402,320,73420,1,4,1:0:2
109,320,73630,1,4,2:0:23
256,320,73630,1,2,3:0:2
329,320,73840,1,2,1:0:23
475,320,73840,1,8,3:0:2
329,320,73945,1,4,1:0:23
475,320,73945,1,8,3:0:2
329,320,74154,1,2,2:0:23
475,320,74154,1,2,1:0:3
36,320,74259,1,4,1:0:2
329,320,74469,1,4,2:0:23
475,320,74469,1,8,3:0:2
256,320,74679,1,2,1:0:23
402,320,74679,1,4,1:0:3
256,320,74784,1,4,1:0:23
402,320,74784,1,4,1:0:3
256,320,74994,1,2,2:0:23
402,320,74994,1,8,1:0:3
109,320,75098,1,4,1:0:2
256,320,75308,1,4,2:0:23
402,320,75308,1,4,1:0:3
36,320,75518,1,2,1:0:23
182,320,75518,1,2,2:0:3
475,320,75518,1,2,2:0:2
36,320,75623,1,4,1:0:23
182,320,75623,1,2,2:0:3
36,320,75833,1,2,2:0:23
182,320,75833,1,4,2:0:3
256,320,75938,1,4,1:0:2
36,320,76147,1,4,2:0:23
182,320,76147,1,2,2:0:3
36,320,76357,1,2,1:0:23
182,320,76357,1,2,2:0:3
36,320,76462,1,4,1:0:23
182,320,76462,1,2,2:0:3
36,320,76672,1,2,2:0:23
182,320,76672,1,4,2:0:3
329,320,76777,1,4,1:0:2
36,320,76987,1,4,2:0:23
182,320,76987,1,2,2:0:3
256,320,77196,1,2,1:0:23
402,320,77196,1,8,2:0:3
256,320,77301,1,4,1:0:23
402,320,77301,1,8,2:0:3
256,320,77511,1,2,2:0:23
402,320,77511,1,2,3:0:3
109,320,77616,1,4,1:0:2
256,320,77826,1,4,2:0:23
402,320,77826,1,8,2:0:3
182,320,78035,1,2,1:0:23
329,320,78035,1,4,3:0:3
182,320,78140,1,4,1:0:23
329,320,78140,1,4,3:0:3
182,320,78350,1,2,2:0:23
329,320,78350,1,8,3:0:3
475,320,78455,1,4,1:0:2
182,320,78665,1,4,2:0:23
329,320,78665,1,4,3:0:3
36,320,78875,1,2,1:0:23
256,320,78875,1,8,1:0:2
402,320,78875,1,2,3:0:2
36,320,78980,1,4,1:0:23
402,320,78980,1,2,3:0:2
36,320,79189,1,2,2:0:23
402,320,79189,1,4,3:0:2
182,320,79294,1,4,1:0:2
36,320,79504,1,4,2:0:23
402,320,79504,1,2,3:0:2
36,320,79714,1,2,1:0:23
402,320,79714,1,2,3:0:2
36,320,79819,1,4,1:0:23
402,320,79819,1,2,3:0:2
36,320,80028,1,2,2:0:23
402,320,80028,1,4,3:0:2
256,320,80133,1,4,1:0:2
36,320,80343,1,4,2:0:23
402,320,80343,1,2,3:0:2
182,320,80553,1,2,1:0:23
475,320,80553,1,8,3:0:2
182,320,80658,1,4,1:0:23
475,320,80658,1,8,3:0:2
182,320,80868,1,2,2:0:23
475,320,80868,1,2,1:0:3
329,320,80973,1,4,1:0:2
182,320,81182,1,4,2:0:23
475,320,81182,1,8,3:0:2
109,320,81392,1,2,1:0:23
402,320,81392,1,4,1:0:3
109,320,81497,1,4,1:0:23
402,320,81497,1,4,1:0:3
109,320,81707,1,2,2:0:23
402,320,81707,1,8,1:0:3
256,320,81812,1,4,1:0:2
109,320,82021,1,4,2:0:23
402,320,82021,1,4,1:0:3
36,320,82231,1,2,1:0:23
182,320,82231,1,2,1:0:4
329,320,82231,1,2,1:0:2
475,320,82231,1,8,1:0:2
36,320,82336,1,4,1:0:23
182,320,82336,1,2,1:0:4
36,320,82546,1,2,2:0:23
182,320,82546,1,4,1:0:4
109,320,82651,1,4,1:0:2
402,320,82651,1,2,1:0:2
36,320,82861,1,4,2:0:23
182,320,82861,1,2,1:0:4
36,320,83070,1,2,1:0:23
182,320,83070,1,2,1:0:4
402,320,83070,1,2,1:0:2
36,320,83175,1,4,1:0:23
182,320,83175,1,2,1:0:4
36,320,83385,1,2,2:0:23
182,320,83385,1,4,1:0:4
109,320,83490,1,4,1:0:2
402,320,83490,1,2,1:0:2
36,320,83700,1,4,2:0:23
182,320,83700,1,2,1:0:4
36,320,83910,1,2,2:0:2
182,320,83910,1,2,1:0:2
329,320,83910,1,2,1:0:23
475,320,83910,1,8,1:0:4
329,320,84014,1,4,1:0:23
475,320,84014,1,8,1:0:4
329,320,84224,1,2,2:0:23
475,320,84224,1,2,2:0:4
109,320,84329,1,2,1:0:2
402,320,84329,1,4,1:0:2
329,320,84539,1,4,2:0:23
475,320,84539,1,8,1:0:4
109,320,84749,1,2,1:0:2
329,320,84749,1,2,1:0:23
475,320,84749,1,2,3:0:25
329,320,85063,1,2,2:0:23
475,320,85063,1,4,3:0:25
109,320,85168,1,2,1:0:2
402,320,85168,1,4,1:0:2
329,320,85378,1,4,2:0:23
475,320,85378,1,2,3:0:25
36,320,85588,1,2,1:0:23
256,320,85588,1,8,3:0:25
402,320,85588,1,2,2:0:2
36,320,85693,1,4,1:0:23
256,320,85693,1,8,3:0:25
36,320,85903,1,2,2:0:23
256,320,85903,1,2,1:0:26
182,320,86007,1,4,1:0:2
36,320,86217,1,4,2:0:23
256,320,86217,1,8,3:0:25
109,320,86427,1,8,1:0:2
256,320,86427,1,2,1:0:23
475,320,86427,1,4,1:0:26
256,320,86532,1,4,1:0:23
475,320,86532,1,4,1:0:26
256,320,86742,1,2,2:0:23
475,320,86742,1,8,1:0:26
329,320,86847,1,4,1:0:2
256,320,87056,1,4,2:0:23
475,320,87056,1,4,1:0:26
36,320,87266,1,4,3:0:23
402,320,87266,1,2,2:0:2
182,320,87371,1,4,3:0:23
36,320,87476,1,4,3:0:23
182,320,87581,1,4,3:0:23
109,320,87686,1,4,3:0:23
475,320,87686,1,4,1:0:2
256,320,87791,1,4,3:0:23
109,320,87896,1,4,3:0:23
256,320,88000,1,4,3:0:23
182,320,88105,1,4,3:0:23
329,320,88210,1,4,3:0:23
182,320,88315,1,4,3:0:23
329,320,88420,1,4,3:0:23
36,320,88525,1,4,1:0:2
256,320,88525,1,4,3:0:23
402,320,88595,1,4,3:0:23
256,320,88665,1,4,3:0:23
402,320,88735,1,4,3:0:23
329,320,88840,1,8,3:0:23
475,320,88945,1,8,3:0:23
329,320,89049,1,8,3:0:23
475,320,89154,1,8,3:0:23
256,320,89259,1,8,3:0:23
36,320,89364,1,8,3:0:23
402,320,89364,1,4,1:0:2
109,320,89434,1,8,3:0:23
182,320,89504,1,8,3:0:23
256,320,89574,1,8,3:0:23
329,320,89679,1,2,1:0:24
109,320,89784,1,2,1:0:2
475,320,89784,1,2,1:0:24
402,320,89854,1,2,1:0:24
329,320,89924,1,2,1:0:24
256,320,89994,1,2,1:0:24
36,320,90098,1,2,1:0:2
182,320,90098,1,4,1:0:24
329,320,90203,1,4,1:0:24
475,320,90203,1,4,1:0:2
182,320,90308,1,4,1:0:24
36,320,90413,128,2,97336:1:0:2
109,320,90413,128,4,97336:1:0:24
256,320,90413,128,4,97336:2:0:4
402,320,90413,128,8,97336:1:0:2
475,320,90413,128,8,97336:3:0:22
