osu file format v11

[General]
AudioFilename: bgm-4nm.mp3
AudioLeadIn: 0
PreviewTime: 9434
Countdown: 0
SampleSet: Soft
StackLeniency: 0.4
Mode: 3
LetterboxInBreaks: 0

[Editor]
DistanceSpacing: 1
BeatDivisor: 4
GridSize: 8

[Metadata]
Title:only my railgun (TV Size)
TitleUnicode:only my railgun (TV Size)
Artist:fripSide
ArtistUnicode:fripSide
Creator:DJPop
Version:4K NM
Source:To Aru Kagaku no Railgun
Tags:SEiBiN mania
BeatmapID:193129
BeatmapSetID:63089

[Difficulty]
HPDrainRate:4
CircleSize:4
OverallDifficulty:5
ApproachRate:7
SliderMultiplier:0.64
SliderTickRate:1

[Events]
//Background and Video events
0,0,"only my railgun (TV Size).jpg"
Video,0,"only my railgun (TV Size).avi"
//Break Periods
//Storyboard Layer 0 (Background)
//Storyboard Layer 1 (Fail)
//Storyboard Layer 2 (Pass)
//Storyboard Layer 3 (Foreground)
//Storyboard Sound Samples
//Background Colour Transformations
3,100,0,0,0

[TimingPoints]
-6,419.58041958042,4,2,2,60,1,0

[HitObjects]
64,320,3350,1,4,2:0:29
64,320,3770,1,2,3:0:29
64,320,4189,1,8,3:0:29
192,320,4609,1,4,1:0:30
192,320,5028,1,4,2:0:29
192,320,5448,1,2,3:0:29
320,320,5868,1,8,3:0:29
320,320,6287,1,4,1:0:30
320,320,6707,1,4,2:0:29
448,320,7126,1,2,3:0:29
448,320,7546,1,8,3:0:29
448,320,7966,1,4,1:0:30
64,320,10063,1,2,1:0:2
320,320,10483,1,4,1:0:2
64,320,10903,1,2,1:0:2
320,320,11322,1,4,1:0:2
192,320,11742,1,2,1:0:2
448,320,12161,1,4,1:0:2
192,320,12581,1,2,1:0:2
448,320,13000,1,4,1:0:2
64,320,13420,1,2,1:0:2
192,320,13840,1,4,1:0:2
64,320,14259,1,2,1:0:2
192,320,14679,1,4,1:0:2
320,320,15098,1,2,1:0:2
448,320,15518,1,4,1:0:2
320,320,15938,1,2,1:0:2
448,320,16357,1,4,1:0:2
320,320,16777,1,2,1:0:2
64,320,17196,1,4,1:0:2
320,320,17616,1,2,1:0:2
64,320,18035,1,4,1:0:2
448,320,18455,1,2,1:0:2
192,320,18875,1,4,1:0:2
448,320,19294,1,2,1:0:2
192,320,19714,1,4,1:0:2
320,320,20133,1,2,1:0:2
448,320,20553,1,4,1:0:2
320,320,20973,1,2,1:0:2
448,320,21392,1,4,1:0:2
192,320,21812,1,2,1:0:2
64,320,22231,1,4,1:0:2
192,320,22651,1,2,1:0:2
64,320,23070,1,4,1:0:2
448,320,23490,1,2,1:0:2
320,320,23910,1,4,1:0:2
192,320,24329,1,2,1:0:2
64,320,24749,1,4,1:0:2
320,320,25168,1,2,1:0:2
448,320,25588,1,4,1:0:2
192,320,26007,1,2,1:0:2
320,320,26427,1,4,1:0:2
64,320,26847,1,2,1:0:2
192,320,27266,1,4,1:0:2
448,320,27686,1,2,1:0:2
64,320,28105,1,4,1:0:2
192,320,30203,1,8,1:0:25
320,320,30203,1,8,1:0:2
448,320,31882,1,2,2:0:25
64,320,32721,1,4,2:0:25
192,320,33560,1,8,1:0:25
64,320,35238,1,4,2:0:25
320,320,36077,1,2,3:0:4
192,320,36497,1,4,3:0:4
64,320,36917,1,2,1:0:2
320,320,36917,1,2,2:0:2
64,320,37336,1,2,1:0:2
64,320,37756,1,2,1:0:2
64,320,38175,1,2,1:0:2
192,320,38595,1,8,1:0:2
448,320,38595,1,2,1:0:2
448,320,39014,1,2,1:0:2
448,320,39434,1,2,1:0:2
448,320,39854,1,2,1:0:2
64,320,40273,1,2,2:0:2
320,320,40273,1,2,1:0:2
320,320,40693,1,2,1:0:2
192,320,41112,1,2,1:0:2
448,320,41112,1,8,1:0:2
192,320,41532,1,2,1:0:2
64,320,41952,1,2,2:0:2
320,320,41952,1,2,1:0:2
448,320,42371,1,2,1:0:2
192,320,42791,1,2,1:0:2
320,320,43210,1,2,1:0:2
64,320,43630,1,2,1:0:2
448,320,43630,1,2,2:0:2
192,320,44049,1,2,1:0:2
320,320,44049,1,4,1:0:2
64,320,44469,1,2,1:0:2
64,320,44889,1,2,1:0:2
64,320,45308,1,8,1:0:2
448,320,45308,1,2,1:0:2
192,320,45728,1,4,1:0:2
320,320,45728,1,2,1:0:2
448,320,46147,1,2,1:0:2
448,320,46567,1,2,1:0:2
64,320,46987,1,2,2:0:2
320,320,46987,1,2,1:0:2
192,320,47406,1,4,1:0:2
448,320,47406,1,2,1:0:2
320,320,47826,1,2,1:0:2
320,320,48245,1,2,1:0:2
192,320,48665,1,2,1:0:2
64,320,49084,1,2,1:0:2
448,320,49084,1,2,2:0:2
320,320,49504,1,2,1:0:2
64,320,49924,1,8,1:0:2
448,320,49924,1,2,1:0:2
192,320,50343,1,2,1:0:2
320,320,50343,1,2,2:0:2
64,320,50763,1,2,1:0:2
448,320,50763,1,4,1:0:2
192,320,51182,1,2,1:0:2
192,320,51602,1,2,1:0:2
192,320,52021,1,2,2:0:2
320,320,52021,1,2,1:0:2
64,320,52441,1,4,1:0:2
448,320,52441,1,2,1:0:2
320,320,52861,1,2,1:0:2
320,320,53280,1,2,1:0:2
64,320,53700,1,2,1:0:2
192,320,53700,1,2,2:0:2
320,320,54119,1,4,1:0:2
448,320,54119,1,2,1:0:2
64,320,54539,1,2,1:0:2
192,320,54959,1,2,1:0:2
320,320,55378,1,2,2:0:2
448,320,55378,1,2,1:0:2
64,320,55798,1,2,1:0:2
192,320,55798,1,4,1:0:2
448,320,56217,1,2,1:0:2
320,320,56637,1,2,1:0:2
64,320,57056,1,8,1:0:2
448,320,57056,1,8,2:0:5
64,320,57371,1,2,2:0:2
448,320,57371,1,2,3:0:5
64,320,57686,1,8,1:0:2
448,320,57686,1,8,2:0:5
192,320,58735,1,2,2:0:2
320,320,58735,1,4,2:0:7
448,320,59574,1,8,1:0:8
64,320,59889,1,2,2:0:8
448,320,60203,1,4,2:0:8
64,320,60413,128,8,61252:2:0:8
192,320,61672,1,4,1:0:2
448,320,62091,128,2,62931:1:0:9
320,320,63350,1,4,1:0:2
192,320,63770,1,2,1:0:2
64,320,64189,1,2,1:0:2
448,320,64189,1,4,1:0:2
320,320,64609,1,2,1:0:2
64,320,65028,1,4,1:0:2
448,320,65028,1,2,1:0:2
320,320,65448,128,8,66287:1:0:10
64,320,66707,1,4,1:0:2
192,320,67126,128,4,67966:2:0:10
448,320,68385,1,4,1:0:2
64,320,68805,1,4,1:0:11
320,320,68805,1,8,1:0:2
64,320,69434,1,2,3:0:11
64,320,70063,1,8,1:0:12
192,320,70483,1,2,2:0:2
448,320,70483,1,8,2:0:12
448,320,71112,1,4,1:0:13
448,320,71742,1,2,3:0:13
192,320,72161,1,2,3:0:2
320,320,72161,1,2,2:0:2
192,320,72476,1,4,3:0:2
192,320,73000,1,2,3:0:2
192,320,73315,1,4,3:0:2
448,320,73840,1,8,3:0:2
448,320,74154,1,2,1:0:3
320,320,74679,1,4,1:0:3
320,320,74994,1,8,1:0:3
64,320,75518,1,2,2:0:3
448,320,75518,1,2,2:0:2
64,320,75833,1,4,2:0:3
64,320,76357,1,2,2:0:3
64,320,76672,1,4,2:0:3
320,320,77196,1,8,2:0:3
320,320,77511,1,2,3:0:3
192,320,78035,1,4,3:0:3
192,320,78350,1,8,3:0:3
64,320,78875,1,8,1:0:2
448,320,78875,1,2,3:0:2
448,320,79189,1,4,3:0:2
448,320,79714,1,2,3:0:2
448,320,80028,1,4,3:0:2
320,320,80553,1,8,3:0:2
320,320,80868,1,2,1:0:3
192,320,81392,1,4,1:0:3
192,320,81707,1,8,1:0:3
64,320,82231,1,2,1:0:4
320,320,82231,1,8,1:0:2
64,320,82546,1,4,1:0:4
64,320,83070,1,2,1:0:4
64,320,83385,1,4,1:0:4
192,320,83910,1,2,2:0:2
448,320,83910,1,8,1:0:4
448,320,84224,1,2,2:0:4
448,320,84749,1,2,3:0:25
448,320,85063,1,4,3:0:25
64,320,85588,128,2,86427:1:0:14
192,320,85588,1,2,2:0:2
320,320,86427,1,8,1:0:2
448,320,86427,128,4,87266:1:0:14
64,320,87266,1,2,2:0:26
64,320,87581,1,4,2:0:26
192,320,88105,1,2,2:0:26
192,320,88420,1,4,2:0:26
320,320,88945,1,4,2:0:4
320,320,89259,1,8,2:0:4
448,320,89784,1,4,2:0:4
448,320,90098,1,8,2:0:4
64,320,90413,128,8,97336:1:0:2
448,320,90413,128,4,97336:2:0:4
