osu file format v11

[General]
AudioFilename: bgm-4mx.mp3
AudioLeadIn: 0
PreviewTime: 9434
Countdown: 0
SampleSet: Soft
StackLeniency: 0.4
Mode: 3
LetterboxInBreaks: 0

[Editor]
DistanceSpacing: 1
BeatDivisor: 4
GridSize: 8

[Metadata]
Title:only my railgun (TV Size)
TitleUnicode:only my railgun (TV Size)
Artist:fripSide
ArtistUnicode:fripSide
Creator:DJPop
Version:4K MX
Source:To Aru Kagaku no Railgun
Tags:SEiBiN mania
BeatmapID:193128
BeatmapSetID:63089

[Difficulty]
HPDrainRate:8
CircleSize:4
OverallDifficulty:7
ApproachRate:7
SliderMultiplier:0.64
SliderTickRate:1

[Events]
//Background and Video events
0,0,"only my railgun (TV Size).jpg"
Video,0,"only my railgun (TV Size).avi"
//Break Periods
//Storyboard Layer 0 (Background)
//Storyboard Layer 1 (Fail)
//Storyboard Layer 2 (Pass)
//Storyboard Layer 3 (Foreground)
//Storyboard Sound Samples
//Background Colour Transformations
3,100,0,0,0

[TimingPoints]
-6,419.58041958042,4,2,2,60,1,0

[HitObjects]
64,320,3350,1,4,2:0:29
448,320,3350,1,4,2:0:2
192,320,3560,1,8,2:0:29
448,320,3560,1,4,2:0:2
64,320,3770,1,2,3:0:29
448,320,3770,1,4,2:0:2
192,320,3980,1,4,3:0:29
320,320,3980,1,8,2:0:2
448,320,4084,1,4,2:0:2
64,320,4189,1,8,3:0:29
192,320,4399,1,2,1:0:30
448,320,4399,1,4,2:0:2
64,320,4609,1,4,1:0:30
320,320,4609,1,8,2:0:2
192,320,4819,1,8,1:0:30
320,320,4819,1,8,2:0:2
448,320,4924,1,4,2:0:2
64,320,5028,1,4,2:0:29
192,320,5238,1,8,2:0:29
448,320,5238,1,4,2:0:2
64,320,5448,1,2,3:0:29
448,320,5448,1,4,2:0:2
192,320,5658,1,4,3:0:29
320,320,5658,1,8,2:0:2
448,320,5763,1,4,2:0:2
64,320,5868,1,8,3:0:29
192,320,6077,1,2,1:0:30
448,320,6077,1,4,2:0:2
64,320,6287,1,4,1:0:30
320,320,6287,1,8,2:0:2
192,320,6497,1,8,1:0:30
320,320,6497,1,8,2:0:2
448,320,6602,1,4,2:0:2
64,320,6707,1,4,2:0:29
192,320,6917,1,8,2:0:29
448,320,6917,1,4,2:0:2
64,320,7126,1,2,3:0:29
448,320,7126,1,4,2:0:2
192,320,7336,1,4,3:0:29
320,320,7336,1,8,2:0:2
448,320,7441,1,4,2:0:2
64,320,7546,1,8,3:0:29
192,320,7756,1,2,1:0:30
448,320,7756,1,4,2:0:2
64,320,7966,1,4,1:0:30
320,320,7966,1,8,2:0:2
192,320,8175,1,8,1:0:30
320,320,8175,1,8,2:0:2
448,320,8280,1,4,2:0:2
64,320,8385,128,8,8595:1:0:7
192,320,8595,128,8,8805:3:0:31
320,320,8805,128,2,9014:1:0:32
448,320,9014,128,4,9224:1:0:32
64,320,9224,128,8,9434:1:0:32
448,320,9434,1,2,2:0:32
320,320,9539,1,4,2:0:32
192,320,9644,1,8,2:0:32
64,320,9749,1,2,3:0:32
448,320,9854,1,4,3:0:32
192,320,10063,1,2,1:0:2
320,320,10063,1,4,2:0:7
448,320,10063,1,2,2:0:2
64,320,10273,1,8,2:0:7
192,320,10378,1,2,3:0:7
64,320,10483,1,2,1:0:2
320,320,10483,1,4,3:0:7
448,320,10588,1,8,3:0:7
192,320,10693,1,2,1:0:8
64,320,10798,1,4,1:0:8
320,320,10903,128,8,11217:1:0:8
448,320,10903,1,2,1:0:2
192,320,11217,128,2,11532:2:0:8
64,320,11322,1,2,1:0:2
320,320,11532,1,4,2:0:8
64,320,11742,128,8,12371:2:0:8
448,320,11742,1,2,1:0:2
320,320,12161,1,2,1:0:2
192,320,12371,1,2,3:0:8
320,320,12476,1,4,3:0:8
64,320,12581,1,2,1:0:2
448,320,12581,128,8,13420:3:0:8
192,320,13000,1,2,1:0:2
192,320,13420,128,2,14259:1:0:9
320,320,13420,1,2,1:0:2
448,320,13840,1,2,1:0:2
64,320,14259,1,4,1:0:9
448,320,14259,1,2,1:0:2
192,320,14364,1,8,1:0:9
320,320,14469,1,2,2:0:9
448,320,14574,1,4,2:0:9
192,320,14679,1,2,1:0:2
320,320,14679,1,8,2:0:9
64,320,14784,1,2,3:0:9
448,320,14889,1,4,3:0:9
192,320,14994,1,8,3:0:9
64,320,15098,1,2,1:0:2
320,320,15098,128,2,15938:1:0:10
64,320,15518,1,2,1:0:2
192,320,15518,1,2,2:0:2
64,320,15938,1,2,1:0:2
192,320,15938,1,8,1:0:2
448,320,15938,128,4,16777:1:0:10
64,320,16357,1,2,1:0:2
64,320,16777,1,2,1:0:2
192,320,16777,1,2,2:0:2
320,320,16777,128,8,17616:1:0:10
448,320,17196,1,2,1:0:2
64,320,17616,1,2,1:0:2
192,320,17616,128,2,18455:2:0:10
320,320,18035,1,2,1:0:2
64,320,18455,128,4,19294:2:0:10
448,320,18455,1,2,1:0:2
320,320,18875,1,2,1:0:2
192,320,19294,1,2,1:0:2
320,320,19294,1,8,2:0:10
448,320,19504,1,2,3:0:10
64,320,19714,1,2,1:0:2
192,320,19714,1,4,3:0:10
448,320,19924,1,8,3:0:10
320,320,20028,1,2,1:0:11
64,320,20133,1,2,1:0:2
192,320,20133,1,8,1:0:2
448,320,20133,1,4,1:0:11
320,320,20343,1,8,1:0:11
192,320,20448,1,2,2:0:11
64,320,20553,1,2,1:0:2
320,320,20553,1,4,2:0:11
192,320,20658,1,8,2:0:11
448,320,20763,1,2,3:0:11
64,320,20973,1,2,1:0:2
320,320,20973,1,4,3:0:11
192,320,21077,1,8,3:0:11
320,320,21182,1,2,1:0:12
192,320,21287,1,4,1:0:12
64,320,21392,1,2,1:0:2
448,320,21392,1,8,1:0:12
320,320,21602,1,2,2:0:12
192,320,21707,1,4,2:0:12
64,320,21812,1,2,1:0:2
320,320,21812,1,2,2:0:2
448,320,21812,1,8,2:0:12
320,320,22021,1,2,3:0:12
192,320,22126,1,4,3:0:12
64,320,22231,1,2,1:0:2
320,320,22231,1,8,3:0:12
192,320,22336,1,2,1:0:13
448,320,22441,1,4,1:0:13
64,320,22651,1,2,1:0:2
320,320,22651,1,8,1:0:13
192,320,22756,1,2,2:0:13
320,320,22861,1,4,2:0:13
192,320,22966,1,8,2:0:13
64,320,23070,1,2,1:0:2
448,320,23070,1,2,3:0:13
320,320,23280,1,4,3:0:13
192,320,23385,1,8,3:0:13
64,320,23490,128,2,24329:1:0:14
320,320,23490,1,2,1:0:2
448,320,23490,1,8,1:0:2
320,320,23910,1,2,1:0:2
192,320,24329,1,2,1:0:2
320,320,24329,1,2,2:0:2
448,320,24329,128,4,25168:1:0:14
192,320,24749,1,2,1:0:2
192,320,25168,1,2,1:0:2
320,320,25168,1,8,1:0:14
448,320,25378,1,2,2:0:14
64,320,25483,1,4,2:0:14
192,320,25588,1,2,1:0:2
448,320,25588,1,8,2:0:14
64,320,25693,1,2,3:0:14
320,320,25798,1,4,3:0:14
192,320,26007,1,2,1:0:2
448,320,26007,1,8,3:0:14
64,320,26112,1,2,1:0:15
448,320,26217,1,4,1:0:15
64,320,26322,1,8,1:0:15
192,320,26427,1,2,1:0:2
320,320,26427,1,2,2:0:15
448,320,26637,1,4,2:0:15
64,320,26742,1,8,2:0:15
192,320,26847,1,2,1:0:2
320,320,26847,1,2,3:0:15
192,320,27056,1,4,3:0:15
64,320,27161,1,8,3:0:15
192,320,27266,1,2,1:0:16
448,320,27266,1,2,1:0:2
320,320,27476,1,4,1:0:16
64,320,27581,1,8,1:0:16
192,320,27686,1,2,1:0:2
448,320,27686,128,2,27896:2:0:16
320,320,27896,128,4,28105:2:0:16
192,320,28105,128,8,28315:2:0:16
448,320,28105,1,2,1:0:2
64,320,28315,128,2,28525:3:0:16
448,320,28525,128,8,28735:1:0:7
320,320,28735,128,8,28945:3:0:31
192,320,28945,128,2,29154:1:0:32
64,320,29154,128,4,29364:1:0:32
448,320,29364,128,8,29574:1:0:32
64,320,29574,1,2,2:0:32
192,320,29679,1,4,2:0:32
320,320,29784,1,8,2:0:32
448,320,29889,1,2,3:0:32
64,320,29994,1,4,3:0:32
192,320,30203,1,4,3:0:5
320,320,30203,1,8,1:0:2
64,320,30413,1,8,3:0:5
192,320,30623,1,2,1:0:6
320,320,30833,1,4,1:0:6
448,320,31042,1,8,1:0:6
320,320,31882,1,2,2:0:6
64,320,32091,1,4,2:0:6
320,320,32301,1,8,2:0:6
192,320,32511,1,4,1:0:6
448,320,32721,1,8,1:0:6
192,320,33560,1,4,3:0:5
64,320,33770,1,2,3:0:6
192,320,33980,1,2,1:0:6
320,320,34189,1,4,1:0:6
448,320,34399,1,8,1:0:6
64,320,35238,1,8,1:0:24
192,320,35343,1,2,2:0:24
320,320,35448,1,4,2:0:24
448,320,35553,1,8,2:0:24
64,320,35658,1,2,3:0:24
192,320,35763,1,4,3:0:24
320,320,35868,1,8,3:0:24
448,320,35973,1,2,1:0:25
192,320,36077,1,2,1:0:2
320,320,36077,1,2,3:0:4
64,320,36497,1,2,1:0:2
448,320,36497,1,4,3:0:4
64,320,36917,1,2,2:0:2
192,320,36917,1,4,3:0:5
448,320,36917,1,8,3:0:4
320,320,37126,1,8,3:0:5
448,320,37231,1,8,3:0:4
192,320,37336,1,2,2:0:6
64,320,37546,1,4,1:0:6
448,320,37546,1,8,3:0:4
192,320,37756,1,2,1:0:5
320,320,37756,1,8,1:0:6
192,320,38070,1,2,1:0:5
192,320,38385,1,2,1:0:5
64,320,38595,1,2,2:0:6
192,320,38595,1,8,1:0:2
320,320,38595,1,4,1:0:5
448,320,38805,1,4,2:0:6
320,320,38910,1,4,1:0:5
64,320,39014,1,8,2:0:6
192,320,39224,1,2,2:0:30
320,320,39224,1,4,1:0:5
64,320,39434,1,8,1:0:5
448,320,39434,1,4,2:0:30
64,320,39749,1,8,1:0:5
64,320,40063,1,8,1:0:5
64,320,40273,1,2,2:0:2
192,320,40273,1,4,3:0:5
320,320,40273,1,2,2:0:5
448,320,40483,1,2,3:0:6
320,320,40588,1,2,2:0:5
192,320,40693,1,2,1:0:6
64,320,40903,1,8,2:0:30
320,320,40903,1,2,2:0:5
192,320,41112,1,8,1:0:5
320,320,41112,1,8,1:0:2
448,320,41112,1,4,2:0:30
64,320,41322,1,2,3:0:30
192,320,41427,1,8,1:0:5
448,320,41532,1,4,3:0:30
192,320,41742,1,8,1:0:5
320,320,41742,1,8,3:0:30
64,320,41952,1,2,1:0:31
192,320,41952,1,2,2:0:2
448,320,41952,1,4,2:0:5
320,320,42161,1,8,3:0:5
448,320,42266,1,4,2:0:5
192,320,42371,1,2,2:0:6
64,320,42581,1,4,1:0:31
448,320,42581,1,4,2:0:5
192,320,42791,1,8,1:0:31
448,320,42791,1,4,2:0:5
448,320,43105,1,4,2:0:5
448,320,43420,1,4,2:0:5
64,320,43630,128,4,43840:3:0:16
320,320,43630,1,2,1:0:2
448,320,43630,1,2,2:0:2
192,320,43840,128,8,44049:3:0:16
320,320,44049,128,2,44259:1:0:17
448,320,44049,1,2,1:0:2
64,320,44259,128,4,44469:1:0:17
192,320,44469,128,8,44679:1:0:17
448,320,44469,1,2,1:0:2
320,320,44679,128,2,44889:2:0:17
64,320,44889,128,4,45098:2:0:17
448,320,44889,1,2,1:0:2
320,320,45098,128,8,45308:2:0:17
64,320,45308,1,2,1:0:2
192,320,45308,128,2,45518:3:0:17
448,320,45308,1,8,1:0:2
320,320,45518,128,4,45728:3:0:17
64,320,45728,1,2,1:0:2
448,320,45728,128,8,45938:3:0:17
192,320,45938,128,2,46147:1:0:18
64,320,46147,1,2,1:0:2
320,320,46147,128,4,46357:1:0:18
448,320,46357,128,8,46567:1:0:18
64,320,46567,1,2,1:0:2
192,320,46567,128,2,46777:2:0:18
320,320,46777,128,4,46987:2:0:18
64,320,46987,128,8,47196:2:0:18
192,320,46987,1,2,2:0:2
448,320,46987,1,2,1:0:2
192,320,47196,128,2,47406:3:0:18
320,320,47406,1,2,1:0:2
448,320,47406,128,4,47616:3:0:18
64,320,47616,128,8,47826:3:0:18
192,320,47826,128,2,48035:1:0:19
320,320,47826,1,2,1:0:2
448,320,48035,128,4,48245:1:0:19
64,320,48245,128,8,48455:1:0:19
320,320,48245,1,2,1:0:2
192,320,48455,128,2,48665:2:0:19
64,320,48665,128,4,48875:2:0:19
448,320,48665,1,2,1:0:2
320,320,48875,128,8,49084:2:0:19
64,320,49084,1,2,2:0:2
192,320,49084,128,2,49294:3:0:19
448,320,49084,1,2,1:0:2
320,320,49294,128,4,49504:3:0:19
64,320,49504,1,2,1:0:2
448,320,49504,128,8,49714:3:0:19
320,320,49714,128,2,49924:1:0:20
64,320,49924,1,2,1:0:2
192,320,49924,128,4,50133:1:0:20
448,320,49924,1,8,1:0:2
64,320,50133,128,8,50343:1:0:20
192,320,50343,1,2,2:0:2
320,320,50343,1,2,1:0:2
448,320,50343,128,2,50553:2:0:20
192,320,50553,128,4,50763:2:0:20
64,320,50763,1,2,1:0:2
320,320,50763,128,8,50973:2:0:20
192,320,50973,128,2,51182:3:0:20
64,320,51182,128,4,51392:3:0:20
448,320,51182,1,2,1:0:2
192,320,51392,128,8,51602:3:0:20
64,320,51602,1,2,1:0:2
320,320,51602,128,2,51812:1:0:21
448,320,51812,128,4,52021:1:0:21
64,320,52021,128,8,52231:1:0:21
192,320,52021,1,2,1:0:2
320,320,52021,1,2,2:0:2
448,320,52231,128,2,52441:2:0:21
64,320,52441,1,2,1:0:2
192,320,52441,128,4,52651:2:0:21
320,320,52651,128,8,52861:2:0:21
64,320,52861,1,2,1:0:2
448,320,52861,128,2,53070:3:0:21
192,320,53070,128,4,53280:3:0:21
64,320,53280,1,2,1:0:2
320,320,53280,128,8,53490:3:0:21
192,320,53490,128,2,53700:1:0:22
64,320,53700,128,4,54329:1:0:22
320,320,53700,1,2,2:0:2
448,320,53700,1,2,1:0:2
448,320,54119,1,2,1:0:2
320,320,54329,1,8,1:0:22
192,320,54434,1,2,2:0:22
64,320,54539,1,2,1:0:2
320,320,54539,128,4,55378:2:0:22
64,320,54959,1,2,1:0:2
64,320,55378,1,2,2:0:2
192,320,55378,1,2,1:0:2
448,320,55378,128,8,57056:2:0:22
192,320,55798,1,2,1:0:2
64,320,56217,1,2,2:0:7
192,320,56287,1,8,3:0:32
320,320,56357,1,2,1:0:33
64,320,56427,1,4,1:0:33
192,320,56497,1,8,1:0:33
320,320,56567,1,2,2:0:33
64,320,56637,1,4,2:0:33
192,320,56707,1,8,2:0:33
320,320,56777,1,2,3:0:33
64,320,56847,1,4,3:0:33
192,320,56917,1,8,3:0:33
320,320,56987,1,2,1:0:34
64,320,57056,1,8,2:0:5
192,320,57056,1,8,1:0:2
320,320,57371,1,2,2:0:2
448,320,57371,1,2,3:0:5
64,320,57686,1,8,2:0:5
192,320,57686,1,8,1:0:2
448,320,57896,1,8,1:0:32
192,320,58105,1,2,2:0:32
448,320,58210,1,4,2:0:32
64,320,58315,1,8,2:0:32
320,320,58420,1,2,3:0:32
64,320,58525,1,4,3:0:32
192,320,58735,1,2,3:0:2
320,320,58735,1,2,2:0:2
448,320,58735,1,2,1:0:2
192,320,58840,1,2,3:0:2
192,320,59049,1,4,3:0:2
64,320,59154,1,4,1:0:2
448,320,59154,1,2,1:0:2
192,320,59364,1,2,3:0:2
192,320,59574,1,2,3:0:2
448,320,59574,1,2,1:0:2
192,320,59679,1,2,3:0:2
192,320,59889,1,4,3:0:2
64,320,59994,1,4,1:0:2
448,320,59994,1,2,1:0:2
192,320,60203,1,2,3:0:2
64,320,60413,1,2,1:0:2
448,320,60413,1,8,3:0:2
448,320,60518,1,8,3:0:2
448,320,60728,1,2,1:0:3
64,320,60833,1,2,1:0:2
192,320,60833,1,4,1:0:2
448,320,61042,1,8,3:0:2
64,320,61252,1,2,1:0:2
320,320,61252,1,4,1:0:3
320,320,61357,1,4,1:0:3
320,320,61567,1,8,1:0:3
64,320,61672,1,2,1:0:2
192,320,61672,1,4,1:0:2
320,320,61882,1,4,1:0:3
64,320,62091,1,2,2:0:3
192,320,62091,1,2,2:0:2
448,320,62091,1,2,1:0:2
64,320,62196,1,2,2:0:3
64,320,62406,1,4,2:0:3
320,320,62511,1,4,1:0:2
448,320,62511,1,2,1:0:2
64,320,62721,1,2,2:0:3
64,320,62931,1,2,2:0:3
448,320,62931,1,2,1:0:2
64,320,63035,1,2,2:0:3
64,320,63245,1,4,2:0:3
320,320,63350,1,4,1:0:2
448,320,63350,1,2,1:0:2
64,320,63560,1,2,2:0:3
192,320,63770,1,2,1:0:2
320,320,63770,1,8,2:0:3
320,320,63875,1,8,2:0:3
320,320,64084,1,2,3:0:3
192,320,64189,1,2,1:0:2
448,320,64189,1,4,1:0:2
320,320,64399,1,8,2:0:3
192,320,64609,1,4,3:0:3
320,320,64609,1,2,1:0:2
192,320,64714,1,4,3:0:3
192,320,64924,1,8,3:0:3
64,320,65028,1,4,1:0:2
320,320,65028,1,2,1:0:2
192,320,65238,1,4,3:0:3
64,320,65448,1,2,3:0:2
320,320,65448,1,8,1:0:2
448,320,65448,1,2,1:0:2
64,320,65553,1,2,3:0:2
64,320,65763,1,4,3:0:2
192,320,65868,1,4,1:0:2
448,320,65868,1,2,1:0:2
64,320,66077,1,2,3:0:2
64,320,66287,1,2,3:0:2
448,320,66287,1,2,1:0:2
64,320,66392,1,2,3:0:2
64,320,66602,1,4,3:0:2
192,320,66707,1,4,1:0:2
448,320,66707,1,2,1:0:2
64,320,66917,1,2,3:0:2
192,320,67126,1,2,1:0:2
448,320,67126,1,8,3:0:2
448,320,67231,1,8,3:0:2
448,320,67441,1,2,1:0:3
64,320,67546,1,4,1:0:2
192,320,67546,1,2,1:0:2
448,320,67756,1,8,3:0:2
192,320,67966,1,2,1:0:2
320,320,67966,1,4,1:0:3
320,320,68070,1,4,1:0:3
320,320,68280,1,8,1:0:3
64,320,68385,1,4,1:0:2
192,320,68385,1,2,1:0:2
320,320,68595,1,4,1:0:3
64,320,68805,1,8,1:0:2
192,320,68805,1,2,1:0:4
320,320,68805,1,2,1:0:2
192,320,68910,1,2,1:0:4
192,320,69119,1,4,1:0:4
320,320,69224,1,2,1:0:2
448,320,69224,1,4,1:0:2
192,320,69434,1,2,1:0:4
192,320,69644,1,2,1:0:4
320,320,69644,1,2,1:0:2
192,320,69749,1,2,1:0:4
192,320,69959,1,4,1:0:4
320,320,70063,1,2,1:0:2
448,320,70063,1,4,1:0:2
192,320,70273,1,2,1:0:4
64,320,70483,1,4,1:0:34
448,320,70483,1,2,1:0:2
192,320,70553,1,8,1:0:34
320,320,70623,1,2,2:0:34
448,320,70693,1,4,2:0:34
64,320,70903,1,2,1:0:2
448,320,70903,1,8,2:0:34
320,320,70973,1,2,3:0:34
192,320,71042,1,4,3:0:34
64,320,71112,1,8,3:0:34
64,320,71322,1,2,1:0:35
448,320,71322,1,2,1:0:2
192,320,71392,1,4,1:0:35
320,320,71462,1,8,1:0:35
64,320,71532,1,2,2:0:35
192,320,71602,1,4,2:0:35
448,320,71672,1,8,2:0:35
64,320,71742,1,2,3:0:35
320,320,71812,1,4,3:0:35
448,320,71882,1,8,3:0:35
192,320,71952,1,2,1:0:36
320,320,72021,1,4,1:0:36
448,320,72091,1,8,1:0:36
64,320,72161,1,2,2:0:2
192,320,72161,1,2,3:0:2
320,320,72161,1,4,2:0:7
192,320,72266,1,2,3:0:2
448,320,72371,1,8,2:0:7
64,320,72476,1,2,3:0:7
320,320,72476,1,4,3:0:2
448,320,72581,1,4,3:0:7
192,320,72686,1,8,3:0:7
64,320,72791,1,2,3:0:2
320,320,72791,1,2,1:0:8
192,320,72896,1,4,1:0:8
320,320,73000,128,8,73315:1:0:8
448,320,73000,1,2,3:0:2
448,320,73105,1,2,3:0:2
64,320,73315,1,4,3:0:2
192,320,73315,128,2,73630:2:0:8
320,320,73630,1,4,2:0:8
448,320,73630,1,2,3:0:2
64,320,73840,128,8,74469:2:0:8
448,320,73840,1,8,3:0:2
448,320,73945,1,8,3:0:2
320,320,74154,1,2,1:0:3
192,320,74469,1,2,3:0:8
448,320,74469,1,8,3:0:2
320,320,74574,1,4,3:0:8
64,320,74679,1,4,1:0:3
448,320,74679,128,8,75518:3:0:8
64,320,74784,1,4,1:0:3
192,320,74994,1,8,1:0:3
64,320,75308,1,4,1:0:3
64,320,75518,1,2,2:0:2
192,320,75518,128,2,76357:1:0:9
320,320,75518,1,2,2:0:3
320,320,75623,1,2,2:0:3
448,320,75833,1,4,2:0:3
320,320,76147,1,2,2:0:3
64,320,76357,1,4,1:0:9
448,320,76357,1,2,2:0:3
192,320,76462,1,8,1:0:9
448,320,76462,1,2,2:0:3
320,320,76567,1,2,2:0:9
64,320,76672,1,4,2:0:3
448,320,76672,1,4,2:0:9
320,320,76777,1,8,2:0:9
192,320,76882,1,2,3:0:9
64,320,76987,1,4,3:0:9
448,320,76987,1,2,2:0:3
192,320,77091,1,8,3:0:9
64,320,77196,1,8,2:0:3
320,320,77196,128,2,78035:1:0:10
64,320,77301,1,8,2:0:3
448,320,77511,1,2,3:0:3
192,320,77826,1,8,2:0:3
64,320,78035,1,4,3:0:3
448,320,78035,128,4,78875:1:0:10
64,320,78140,1,4,3:0:3
320,320,78350,1,8,3:0:3
192,320,78665,1,4,3:0:3
64,320,78875,1,2,3:0:2
192,320,78875,1,8,1:0:2
320,320,78875,128,8,79714:1:0:10
64,320,78980,1,2,3:0:2
448,320,79189,1,4,3:0:2
64,320,79504,1,2,3:0:2
192,320,79714,128,2,80553:2:0:10
448,320,79714,1,2,3:0:2
448,320,79819,1,2,3:0:2
64,320,80028,1,4,3:0:2
448,320,80343,1,2,3:0:2
64,320,80553,128,4,81392:2:0:10
320,320,80553,1,8,3:0:2
320,320,80658,1,8,3:0:2
448,320,80868,1,2,1:0:3
320,320,81182,1,8,3:0:2
192,320,81392,1,4,1:0:3
320,320,81392,1,8,2:0:10
192,320,81497,1,4,1:0:3
448,320,81602,1,2,3:0:10
64,320,81707,1,8,1:0:3
192,320,81812,1,4,3:0:10
64,320,82021,1,4,1:0:3
448,320,82021,1,8,3:0:10
320,320,82126,1,2,1:0:11
64,320,82231,1,2,1:0:4
192,320,82231,1,8,1:0:2
448,320,82231,1,4,1:0:11
64,320,82336,1,2,1:0:4
448,320,82441,1,8,1:0:11
192,320,82546,1,2,2:0:11
320,320,82546,1,4,1:0:4
448,320,82651,1,4,2:0:11
192,320,82756,1,8,2:0:11
64,320,82861,1,2,1:0:4
448,320,82861,1,2,3:0:11
320,320,83070,1,2,1:0:4
448,320,83070,1,4,3:0:11
192,320,83175,1,8,3:0:11
320,320,83175,1,2,1:0:4
448,320,83280,1,2,1:0:12
64,320,83385,1,4,1:0:4
192,320,83385,1,4,1:0:12
448,320,83490,1,8,1:0:12
320,320,83700,1,2,1:0:4
448,320,83700,1,2,2:0:12
192,320,83805,1,4,2:0:12
64,320,83910,1,2,2:0:2
320,320,83910,1,8,2:0:12
448,320,83910,1,8,1:0:4
448,320,84014,1,8,1:0:4
320,320,84119,1,2,3:0:12
64,320,84224,1,4,3:0:12
192,320,84224,1,2,2:0:4
320,320,84329,1,8,3:0:12
64,320,84434,1,2,1:0:13
320,320,84539,1,4,1:0:13
448,320,84539,1,8,1:0:4
192,320,84749,1,2,3:0:25
320,320,84749,1,8,1:0:13
64,320,84854,1,2,2:0:13
320,320,84959,1,4,2:0:13
64,320,85063,1,8,2:0:13
448,320,85063,1,4,3:0:25
320,320,85168,1,2,3:0:13
192,320,85378,1,2,3:0:25
320,320,85378,1,4,3:0:13
64,320,85483,1,8,3:0:13
192,320,85588,1,8,3:0:25
320,320,85588,1,2,2:0:2
448,320,85588,128,2,86427:1:0:14
192,320,85693,1,8,3:0:25
192,320,85903,1,2,1:0:26
192,320,86217,1,8,3:0:25
64,320,86427,128,4,87266:1:0:14
192,320,86427,1,8,1:0:2
320,320,86427,1,4,1:0:26
320,320,86532,1,4,1:0:26
320,320,86742,1,8,1:0:26
320,320,87056,1,4,1:0:26
192,320,87266,1,2,2:0:2
320,320,87266,1,8,1:0:14
448,320,87266,1,2,2:0:26
448,320,87371,1,2,2:0:26
192,320,87476,1,2,2:0:14
64,320,87581,1,4,2:0:14
448,320,87581,1,4,2:0:26
192,320,87686,1,8,2:0:14
64,320,87791,1,2,3:0:14
320,320,87896,1,4,3:0:14
448,320,87896,1,2,2:0:26
192,320,88105,1,8,3:0:14
448,320,88105,1,2,2:0:26
64,320,88210,1,2,1:0:15
448,320,88210,1,2,2:0:26
192,320,88315,1,4,1:0:15
64,320,88420,1,8,1:0:15
448,320,88420,1,4,2:0:26
320,320,88525,1,2,2:0:15
192,320,88735,1,4,2:0:15
448,320,88735,1,2,2:0:26
64,320,88840,1,8,2:0:15
192,320,88945,1,8,2:0:14
448,320,88945,1,4,2:0:4
64,320,89049,1,2,3:0:14
448,320,89049,1,4,2:0:4
320,320,89154,1,4,3:0:14
448,320,89259,1,8,2:0:4
192,320,89364,1,8,3:0:14
64,320,89469,1,2,1:0:15
192,320,89574,1,4,1:0:15
448,320,89574,1,4,2:0:4
64,320,89679,1,8,1:0:15
192,320,89784,1,2,3:0:22
320,320,89784,1,4,2:0:4
448,320,89784,1,2,1:0:2
64,320,90098,1,2,1:0:2
192,320,90098,1,4,3:0:22
320,320,90098,1,8,2:0:4
64,320,90413,128,2,97336:1:0:2
192,320,90413,128,8,97336:1:0:2
320,320,90413,128,8,97336:3:0:22
448,320,90413,128,4,97336:2:0:4
