osu file format v11

[General]
AudioFilename: bgm-4hd.mp3
AudioLeadIn: 0
PreviewTime: 9434
Countdown: 0
SampleSet: Soft
StackLeniency: 0.4
Mode: 3
LetterboxInBreaks: 0

[Editor]
DistanceSpacing: 1
BeatDivisor: 4
GridSize: 8

[Metadata]
Title:only my railgun (TV Size)
TitleUnicode:only my railgun (TV Size)
Artist:fripSide
ArtistUnicode:fripSide
Creator:DJPop
Version:4K HD
Source:To Aru Kagaku no Railgun
Tags:SEiBiN mania
BeatmapID:193127
BeatmapSetID:63089

[Difficulty]
HPDrainRate:6
CircleSize:4
OverallDifficulty:7
ApproachRate:7
SliderMultiplier:0.64
SliderTickRate:1

[Events]
//Background and Video events
0,0,"only my railgun (TV Size).jpg"
Video,0,"only my railgun (TV Size).avi"
//Break Periods
//Storyboard Layer 0 (Background)
//Storyboard Layer 1 (Fail)
//Storyboard Layer 2 (Pass)
//Storyboard Layer 3 (Foreground)
//Storyboard Sound Samples
//Background Colour Transformations
3,100,0,0,0

[TimingPoints]
0,419.58041958042,4,2,2,60,1,0

[HitObjects]
320,320,3356,1,4,2:0:2
320,320,3566,1,4,2:0:2
320,320,3776,1,4,2:0:2
64,320,3986,1,8,2:0:2
320,320,4090,1,4,2:0:2
320,320,4405,1,4,2:0:2
64,320,4615,1,8,2:0:2
64,320,4825,1,8,2:0:2
320,320,4930,1,4,2:0:2
448,320,5244,1,4,2:0:2
448,320,5454,1,4,2:0:2
192,320,5664,1,8,2:0:2
448,320,5769,1,4,2:0:2
448,320,6083,1,4,2:0:2
192,320,6293,1,8,2:0:2
192,320,6503,1,8,2:0:2
448,320,6608,1,4,2:0:2
448,320,6923,1,4,2:0:2
448,320,7132,1,4,2:0:2
64,320,7342,1,8,2:0:2
448,320,7447,1,4,2:0:2
448,320,7762,1,4,2:0:2
64,320,7972,1,8,2:0:2
64,320,8181,1,8,2:0:2
448,320,8286,1,4,2:0:2
192,320,8391,128,2,9860:1:0:2
320,320,8391,128,8,9860:1:0:7
192,320,10069,1,4,2:0:7
320,320,10069,1,2,2:0:2
64,320,10279,1,8,2:0:7
192,320,10384,1,2,3:0:7
320,320,10489,1,4,3:0:7
448,320,10594,1,8,3:0:7
192,320,10699,1,2,1:0:8
64,320,10804,1,4,1:0:8
320,320,10909,1,8,1:0:8
192,320,11223,1,2,2:0:8
320,320,11538,1,4,2:0:8
64,320,11748,128,8,12377:2:0:8
192,320,12377,1,2,3:0:8
320,320,12482,1,4,3:0:8
448,320,12587,128,8,13426:3:0:8
192,320,13426,128,2,14265:1:0:9
64,320,14265,1,4,1:0:9
192,320,14370,1,8,1:0:9
320,320,14475,1,2,2:0:9
448,320,14580,1,4,2:0:9
320,320,14685,1,8,2:0:9
64,320,14790,1,2,3:0:9
448,320,14895,1,4,3:0:9
192,320,15000,1,8,3:0:9
320,320,15104,128,2,15944:1:0:10
192,320,15524,1,2,2:0:2
64,320,15944,1,8,1:0:2
448,320,15944,128,4,16783:1:0:10
192,320,16783,1,2,2:0:2
320,320,16783,128,8,17622:1:0:10
192,320,17622,128,2,18461:2:0:10
64,320,18461,128,4,19300:2:0:10
320,320,19300,1,8,2:0:10
192,320,19510,1,2,3:0:10
64,320,19720,1,4,3:0:10
320,320,19930,1,8,3:0:10
448,320,20034,1,2,1:0:11
64,320,20139,1,4,1:0:11
192,320,20139,1,8,1:0:2
320,320,20349,1,8,1:0:11
192,320,20454,1,2,2:0:11
320,320,20559,1,4,2:0:11
192,320,20664,1,8,2:0:11
448,320,20769,1,2,3:0:11
192,320,20979,1,4,3:0:11
320,320,21083,1,8,3:0:11
192,320,21188,1,2,1:0:12
320,320,21293,1,4,1:0:12
64,320,21398,1,8,1:0:12
320,320,21608,1,2,2:0:12
192,320,21713,1,4,2:0:12
320,320,21818,1,2,2:0:2
448,320,21818,1,8,2:0:12
192,320,22027,1,2,3:0:12
320,320,22132,1,4,3:0:12
192,320,22237,1,8,3:0:12
320,320,22342,1,2,1:0:13
64,320,22447,1,4,1:0:13
320,320,22657,1,8,1:0:13
192,320,22762,1,2,2:0:13
320,320,22867,1,4,2:0:13
192,320,22972,1,8,2:0:13
448,320,23076,1,2,3:0:13
192,320,23286,1,4,3:0:13
320,320,23391,1,8,3:0:13
64,320,23496,128,2,24335:1:0:14
192,320,23496,1,8,1:0:2
320,320,24335,1,2,2:0:2
448,320,24335,128,4,25174:1:0:14
192,320,25174,1,8,1:0:14
320,320,25174,1,8,1:0:2
64,320,25384,1,2,2:0:14
320,320,25489,1,4,2:0:14
192,320,25594,1,8,2:0:14
448,320,25699,1,2,3:0:14
64,320,25804,1,4,3:0:14
448,320,26013,1,8,3:0:14
192,320,26118,1,2,1:0:15
320,320,26223,1,4,1:0:15
64,320,26328,1,8,1:0:15
448,320,26433,1,2,2:0:15
192,320,26643,1,4,2:0:15
320,320,26748,1,8,2:0:15
64,320,26853,1,2,3:0:15
320,320,27062,1,4,3:0:15
192,320,27167,1,8,3:0:15
448,320,27272,1,2,1:0:16
64,320,27482,1,4,1:0:16
192,320,27587,1,8,1:0:16
448,320,27692,128,2,27902:2:0:16
320,320,27902,128,4,28111:2:0:16
192,320,28111,128,8,28321:2:0:16
64,320,28321,128,2,28531:3:0:16
192,320,30209,1,4,3:0:5
320,320,30209,1,8,1:0:2
64,320,30419,1,8,3:0:5
192,320,30629,1,2,1:0:6
320,320,30839,1,4,1:0:6
448,320,31048,1,8,1:0:6
320,320,31888,1,2,2:0:6
64,320,32097,1,4,2:0:6
320,320,32307,1,8,2:0:6
192,320,32517,1,4,1:0:6
448,320,32727,1,8,1:0:6
192,320,33566,1,4,3:0:5
64,320,33776,1,2,3:0:6
192,320,33986,1,2,1:0:6
320,320,34195,1,4,1:0:6
448,320,34405,1,8,1:0:6
320,320,35244,1,4,3:0:6
64,320,35454,1,8,3:0:6
320,320,35664,1,2,1:0:7
192,320,35874,1,4,1:0:7
320,320,36083,1,2,1:0:2
448,320,36083,1,2,3:0:4
64,320,36503,1,4,3:0:4
192,320,36503,1,2,1:0:2
192,320,36923,1,2,2:0:2
448,320,36923,1,8,3:0:4
448,320,37237,1,8,3:0:4
448,320,37552,1,8,3:0:4
192,320,37762,1,2,1:0:5
192,320,38076,1,2,1:0:5
192,320,38391,1,2,1:0:5
64,320,38601,1,8,1:0:2
320,320,38601,1,4,1:0:5
320,320,38916,1,4,1:0:5
320,320,39230,1,4,1:0:5
64,320,39440,1,8,1:0:5
64,320,39755,1,8,1:0:5
64,320,40069,1,8,1:0:5
192,320,40279,1,2,2:0:5
448,320,40279,1,2,2:0:2
192,320,40594,1,2,2:0:5
192,320,40909,1,2,2:0:5
64,320,41118,1,8,1:0:2
320,320,41118,1,8,1:0:5
320,320,41433,1,8,1:0:5
320,320,41748,1,8,1:0:5
192,320,41958,1,2,2:0:2
448,320,41958,1,4,2:0:5
448,320,42272,1,4,2:0:5
448,320,42587,1,4,2:0:5
448,320,42797,1,4,2:0:5
448,320,43111,1,4,2:0:5
448,320,43426,1,4,2:0:5
64,320,43636,1,4,3:0:16
448,320,43636,1,2,2:0:2
192,320,43846,1,8,3:0:16
320,320,44055,1,2,1:0:17
64,320,44265,1,4,1:0:17
192,320,44475,1,8,1:0:17
320,320,44685,1,2,2:0:17
64,320,44895,1,4,2:0:17
320,320,45104,1,8,2:0:17
64,320,45314,1,8,1:0:2
192,320,45314,1,2,3:0:17
320,320,45524,1,4,3:0:17
448,320,45734,1,8,3:0:17
192,320,45944,1,2,1:0:18
320,320,46153,1,4,1:0:18
448,320,46363,1,8,1:0:18
192,320,46573,1,2,2:0:18
320,320,46783,1,4,2:0:18
64,320,46993,1,8,2:0:18
320,320,46993,1,2,2:0:2
192,320,47202,1,2,3:0:18
448,320,47412,1,4,3:0:18
64,320,47622,1,8,3:0:18
192,320,47832,1,2,1:0:19
448,320,48041,1,4,1:0:19
64,320,48251,1,8,1:0:19
192,320,48461,1,2,2:0:19
64,320,48671,1,4,2:0:19
320,320,48881,1,8,2:0:19
64,320,49090,1,2,2:0:2
192,320,49090,1,2,3:0:19
320,320,49300,1,4,3:0:19
448,320,49510,1,8,3:0:19
320,320,49720,1,2,1:0:20
192,320,49930,1,4,1:0:20
448,320,49930,1,8,1:0:2
64,320,50139,1,8,1:0:20
64,320,50349,1,2,2:0:2
448,320,50349,1,2,2:0:20
192,320,50559,1,4,2:0:20
320,320,50769,1,8,2:0:20
192,320,50979,1,2,3:0:20
64,320,51188,1,4,3:0:20
192,320,51398,1,8,3:0:20
320,320,51608,1,2,1:0:21
448,320,51818,1,4,1:0:21
64,320,52027,1,8,1:0:21
320,320,52027,1,2,2:0:2
448,320,52237,1,2,2:0:21
192,320,52447,1,4,2:0:21
320,320,52657,1,8,2:0:21
448,320,52867,1,2,3:0:21
192,320,53076,1,4,3:0:21
320,320,53286,1,8,3:0:21
192,320,53496,1,2,1:0:22
64,320,53706,128,4,54335:1:0:22
448,320,53706,1,2,2:0:2
320,320,54335,1,8,1:0:22
192,320,54440,1,2,2:0:22
448,320,54545,128,4,55384:2:0:22
64,320,55384,128,8,57062:2:0:22
192,320,55384,1,2,2:0:2
448,320,56223,128,2,57062:2:0:7
192,320,57062,1,8,1:0:2
320,320,57062,1,8,2:0:5
64,320,57377,1,2,2:0:2
448,320,57377,1,2,3:0:5
192,320,57692,1,8,1:0:2
320,320,57692,1,8,2:0:5
192,320,58741,1,2,2:0:2
320,320,58741,1,2,3:0:2
320,320,58846,1,2,3:0:2
64,320,59055,1,4,3:0:2
448,320,59160,1,4,1:0:2
320,320,59370,1,2,3:0:2
64,320,59580,1,2,3:0:2
64,320,59685,1,2,3:0:2
320,320,59895,1,4,3:0:2
192,320,60000,1,4,1:0:2
64,320,60209,1,2,3:0:2
448,320,60419,1,8,3:0:2
448,320,60524,1,8,3:0:2
192,320,60734,1,2,1:0:3
64,320,60839,1,4,1:0:2
448,320,61048,1,8,3:0:2
192,320,61258,1,4,1:0:3
192,320,61363,1,4,1:0:3
320,320,61573,1,8,1:0:3
448,320,61678,1,4,1:0:2
192,320,61888,1,4,1:0:3
64,320,62097,1,2,2:0:3
448,320,62097,1,2,2:0:2
64,320,62202,1,2,2:0:3
320,320,62412,1,4,2:0:3
192,320,62517,1,4,1:0:2
64,320,62727,1,2,2:0:3
320,320,62937,1,2,2:0:3
320,320,63041,1,2,2:0:3
64,320,63251,1,4,2:0:3
448,320,63356,1,4,1:0:2
320,320,63566,1,2,2:0:3
192,320,63776,1,8,2:0:3
192,320,63881,1,8,2:0:3
448,320,64090,1,2,3:0:3
64,320,64195,1,4,1:0:2
192,320,64405,1,8,2:0:3
448,320,64615,1,4,3:0:3
448,320,64720,1,4,3:0:3
192,320,64930,1,8,3:0:3
320,320,65034,1,4,1:0:2
448,320,65244,1,4,3:0:3
192,320,65454,1,2,3:0:2
320,320,65454,1,8,1:0:2
192,320,65559,1,2,3:0:2
64,320,65769,1,4,3:0:2
448,320,65874,1,4,1:0:2
192,320,66083,1,2,3:0:2
64,320,66293,1,2,3:0:2
64,320,66398,1,2,3:0:2
192,320,66608,1,4,3:0:2
320,320,66713,1,4,1:0:2
64,320,66923,1,2,3:0:2
320,320,67132,1,8,3:0:2
320,320,67237,1,8,3:0:2
64,320,67447,1,2,1:0:3
448,320,67552,1,4,1:0:2
320,320,67762,1,8,3:0:2
192,320,67972,1,4,1:0:3
192,320,68076,1,4,1:0:3
448,320,68286,1,8,1:0:3
64,320,68391,1,4,1:0:2
192,320,68601,1,4,1:0:3
64,320,68811,1,8,1:0:2
448,320,68811,1,2,1:0:4
448,320,68916,1,2,1:0:4
320,320,69125,1,4,1:0:4
192,320,69230,1,4,1:0:2
448,320,69440,1,2,1:0:4
320,320,69650,1,2,1:0:4
320,320,69755,1,2,1:0:4
448,320,69965,1,4,1:0:4
64,320,70069,1,4,1:0:2
320,320,70279,1,2,1:0:4
192,320,70489,1,8,1:0:4
448,320,70489,1,2,2:0:2
192,320,70594,1,8,1:0:4
320,320,70804,1,2,2:0:4
64,320,70909,1,4,1:0:2
192,320,71118,1,8,1:0:4
320,320,71328,1,8,1:0:4
320,320,71433,1,8,1:0:4
192,320,71643,1,2,2:0:4
448,320,71748,1,4,1:0:2
320,320,71958,1,8,1:0:4
192,320,72167,1,4,2:0:7
448,320,72167,1,2,2:0:2
64,320,72377,1,8,2:0:7
192,320,72482,1,2,3:0:7
320,320,72587,1,4,3:0:7
448,320,72692,1,8,3:0:7
192,320,72797,1,2,1:0:8
64,320,72902,1,4,1:0:8
320,320,73006,1,8,1:0:8
192,320,73321,1,2,2:0:8
320,320,73636,1,4,2:0:8
64,320,73846,128,8,74475:2:0:8
192,320,74475,1,2,3:0:8
320,320,74580,1,4,3:0:8
448,320,74685,128,8,75524:3:0:8
192,320,75524,128,2,76363:1:0:9
320,320,75524,1,2,2:0:2
64,320,76363,1,4,1:0:9
192,320,76468,1,8,1:0:9
320,320,76573,1,2,2:0:9
448,320,76678,1,4,2:0:9
320,320,76783,1,8,2:0:9
64,320,76888,1,2,3:0:9
448,320,76993,1,4,3:0:9
192,320,77097,1,8,3:0:9
320,320,77202,128,2,78041:1:0:10
448,320,78041,128,4,78881:1:0:10
64,320,78881,1,8,1:0:2
320,320,78881,128,8,79720:1:0:10
192,320,79720,128,2,80559:2:0:10
64,320,80559,128,4,81398:2:0:10
320,320,81398,1,8,2:0:10
192,320,81608,1,2,3:0:10
64,320,81818,1,4,3:0:10
320,320,82027,1,8,3:0:10
448,320,82132,1,2,1:0:11
64,320,82237,1,4,1:0:11
192,320,82237,1,8,1:0:2
320,320,82447,1,8,1:0:11
192,320,82552,1,2,2:0:11
320,320,82657,1,4,2:0:11
192,320,82762,1,8,2:0:11
448,320,82867,1,2,3:0:11
192,320,83076,1,4,3:0:11
320,320,83181,1,8,3:0:11
192,320,83286,1,2,1:0:12
320,320,83391,1,4,1:0:12
64,320,83496,1,8,1:0:12
320,320,83706,1,2,2:0:12
192,320,83811,1,4,2:0:12
320,320,83916,1,2,2:0:2
448,320,83916,1,8,2:0:12
192,320,84125,1,2,3:0:12
320,320,84230,1,4,3:0:12
192,320,84335,1,8,3:0:12
320,320,84440,1,2,1:0:13
64,320,84545,1,4,1:0:13
320,320,84755,1,8,1:0:13
192,320,84860,1,2,2:0:13
320,320,84965,1,4,2:0:13
192,320,85069,1,8,2:0:13
448,320,85174,1,2,3:0:13
192,320,85384,1,4,3:0:13
320,320,85489,1,8,3:0:13
64,320,85594,128,2,86433:1:0:14
192,320,85594,1,2,2:0:2
320,320,86433,1,8,1:0:2
448,320,86433,128,4,87272:1:0:14
192,320,87272,1,8,1:0:14
320,320,87272,1,2,2:0:2
64,320,87482,1,2,2:0:14
320,320,87587,1,4,2:0:14
192,320,87692,1,8,2:0:14
448,320,87797,1,2,3:0:14
64,320,87902,1,4,3:0:14
448,320,88111,1,8,3:0:14
192,320,88216,1,2,1:0:15
320,320,88321,1,4,1:0:15
64,320,88426,1,8,1:0:15
448,320,88531,1,2,2:0:15
192,320,88741,1,4,2:0:15
64,320,88846,1,8,2:0:15
320,320,88951,1,8,2:0:14
192,320,89055,1,2,3:0:14
448,320,89160,1,4,3:0:14
320,320,89370,1,8,3:0:14
448,320,89475,1,2,1:0:15
192,320,89580,1,4,1:0:15
320,320,89685,1,8,1:0:15
64,320,89790,1,2,3:0:22
448,320,89790,1,4,2:0:4
64,320,90104,1,4,3:0:22
448,320,90104,1,8,2:0:4
64,320,90419,128,8,97342:3:0:22
448,320,90419,128,8,97342:1:0:2
