osu file format v9

[General]
AudioFilename: only my railgun.mp3
AudioLeadIn: 0
PreviewTime: -1
Countdown: 0
SampleSet: Soft
StackLeniency: 0.7
Mode: 0
LetterboxInBreaks: 1

[Editor]
DistanceSpacing: 1.3
BeatDivisor: 4
GridSize: 4

[Metadata]
Title:only my railgun (Jubeatsu)
Artist:fripSide
Creator:Lybydose
Version:Basic
Source:Toaru Kagaku no Railgun
Tags:jubeat

[Difficulty]
HPDrainRate:0
CircleSize:0
OverallDifficulty:7
ApproachRate:10
SliderMultiplier:1.6
SliderTickRate:1

[Events]
//Background and Video events
0,0,"railgun.png"
//Break Periods
//Storyboard Layer 0 (Background)
//Storyboard Layer 1 (Fail)
//Storyboard Layer 2 (Pass)
//Storyboard Layer 3 (Foreground)
Sprite,Foreground,Centre,"sb\copious.png",320,240 S,0,-4000,,1.152 M,0,-4000,109495,559,251
Sprite,Foreground,Centre,"sb\ready.png",320,240 S,0,-1400,,0.6919998 M,0,-1400,-200,325,-10,323,251
Sprite,Foreground,Centre,"sb\go.png",320,240 M,0,-200,,319,250 S,0,-200,0,0.7920002,1.872 S,0,0,50,1.872,1.728 F,0,100,329,1,0
Sprite,Foreground,Centre,"sb\mask.png",320,240 S,0,-4000,,0.8560004 M,0,-4000,109495,331,240
Animation,Foreground,Centre,"marker\marker_.png",373,95,29,33,LoopOnce L,94033,1 F,0,0,,1 S,0,957,,0.608
Animation,Foreground,Centre,"marker\marker_.png",373,199,29,33,LoopOnce L,93717,1 F,0,0,,1 S,0,957,,0.608
Animation,Foreground,Centre,"marker\marker_.png",269,199,29,33,LoopOnce L,93403,1 F,0,0,,1 S,0,957,,0.608
Animation,Foreground,Centre,"marker\marker_.png",373,303,29,33,LoopOnce L,92984,1 F,0,0,,1 S,0,957,,0.608
Animation,Foreground,Centre,"marker\marker_.png",269,303,29,33,LoopOnce L,92564,1 F,0,0,,1 S,0,957,,0.608
Animation,Foreground,Centre,"marker\marker_.png",373,407,29,33,LoopOnce L,92145,1 F,0,0,,1 S,0,957,,0.608
Animation,Foreground,Centre,"marker\marker_.png",269,407,29,33,LoopOnce L,91725,1 F,0,0,,1 S,0,957,,0.608
Animation,Foreground,Centre,"marker\marker_.png",165,303,29,33,LoopOnce L,90886,1 F,0,0,,1 S,0,957,,0.608
Animation,Foreground,Centre,"marker\marker_.png",477,199,29,33,LoopOnce L,90047,1 F,0,0,,1 S,0,957,,0.608
Animation,Foreground,Centre,"marker\marker_.png",373,95,29,33,LoopOnce L,89208,1 F,0,0,,1 S,0,957,,0.608
Animation,Foreground,Centre,"marker\marker_.png",373,199,29,33,LoopOnce L,88788,1 F,0,0,,1 S,0,957,,0.608
Animation,Foreground,Centre,"marker\marker_.png",269,199,29,33,LoopOnce L,88368,1 F,0,0,,1 S,0,957,,0.608
Animation,Foreground,Centre,"marker\marker_.png",373,303,29,33,LoopOnce L,87949,1 F,0,0,,1 S,0,957,,0.608
Animation,Foreground,Centre,"marker\marker_.png",269,303,29,33,LoopOnce L,87529,1 F,0,0,,1 S,0,957,,0.608
Animation,Foreground,Centre,"marker\marker_.png",477,303,29,33,LoopOnce L,87110,1 F,0,0,,1 S,0,957,,0.608
Animation,Foreground,Centre,"marker\marker_.png",165,303,29,33,LoopOnce L,86690,1 F,0,0,,1 S,0,957,,0.608
Animation,Foreground,Centre,"marker\marker_.png",373,407,29,33,LoopOnce L,85851,1 F,0,0,,1 S,0,957,,0.608
Animation,Foreground,Centre,"marker\marker_.png",269,407,29,33,LoopOnce L,85431,1 F,0,0,,1 S,0,957,,0.608
Animation,Foreground,Centre,"marker\marker_.png",165,407,29,33,LoopOnce L,85012,1 F,0,0,,1 S,0,957,,0.608
Animation,Foreground,Centre,"marker\marker_.png",269,303,29,33,LoopOnce L,84173,1 F,0,0,,1 S,0,957,,0.608
Animation,Foreground,Centre,"marker\marker_.png",165,199,29,33,LoopOnce L,83334,1 F,0,0,,1 S,0,957,,0.608
Animation,Foreground,Centre,"marker\marker_.png",477,199,29,33,LoopOnce L,82494,1 F,0,0,,1 S,0,957,,0.608
Animation,Foreground,Centre,"marker\marker_.png",269,95,29,33,LoopOnce L,81655,1 F,0,0,,1 S,0,957,,0.608
Animation,Foreground,Centre,"marker\marker_.png",373,95,29,33,LoopOnce L,80816,1 F,0,0,,1 S,0,957,,0.608
Animation,Foreground,Centre,"marker\marker_.png",477,199,29,33,LoopOnce L,80396,1 F,0,0,,1 S,0,957,,0.608
Animation,Foreground,Centre,"marker\marker_.png",165,199,29,33,LoopOnce L,79977,1 F,0,0,,1 S,0,957,,0.608
Animation,Foreground,Centre,"marker\marker_.png",477,303,29,33,LoopOnce L,79557,1 F,0,0,,1 S,0,957,,0.608
Animation,Foreground,Centre,"marker\marker_.png",165,303,29,33,LoopOnce L,79138,1 F,0,0,,1 S,0,957,,0.608
Animation,Foreground,Centre,"marker\marker_.png",477,407,29,33,LoopOnce L,78717,1 F,0,0,,1 S,0,957,,0.608
Animation,Foreground,Centre,"marker\marker_.png",165,407,29,33,LoopOnce L,78299,1 F,0,0,,1 S,0,957,,0.608
Animation,Foreground,Centre,"marker\marker_.png",373,303,29,33,LoopOnce L,77459,1 F,0,0,,1 S,0,957,,0.608
Animation,Foreground,Centre,"marker\marker_.png",165,199,29,33,LoopOnce L,76620,1 F,0,0,,1 S,0,957,,0.608
Animation,Foreground,Centre,"marker\marker_.png",477,199,29,33,LoopOnce L,75781,1 F,0,0,,1 S,0,957,,0.608
Animation,Foreground,Centre,"marker\marker_.png",373,303,29,33,LoopOnce L,74942,1 F,0,0,,1 S,0,957,,0.608
Animation,Foreground,Centre,"marker\marker_.png",269,303,29,33,LoopOnce L,74102,1 F,0,0,,1 S,0,957,,0.608
Animation,Foreground,Centre,"marker\marker_.png",477,199,29,33,LoopOnce L,73683,1 F,0,0,,1 S,0,957,,0.608
Animation,Foreground,Centre,"marker\marker_.png",165,199,29,33,LoopOnce L,73263,1 F,0,0,,1 S,0,957,,0.608
Animation,Foreground,Centre,"marker\marker_.png",373,407,29,33,LoopOnce L,72424,1 F,0,0,,1 S,0,957,,0.608
Animation,Foreground,Centre,"marker\marker_.png",269,407,29,33,LoopOnce L,72004,1 F,0,0,,1 S,0,957,,0.608
Animation,Foreground,Centre,"marker\marker_.png",165,407,29,33,LoopOnce L,71585,1 F,0,0,,1 S,0,957,,0.608
Animation,Foreground,Centre,"marker\marker_.png",269,303,29,33,LoopOnce L,70746,1 F,0,0,,1 S,0,957,,0.608
Animation,Foreground,Centre,"marker\marker_.png",165,199,29,33,LoopOnce L,69907,1 F,0,0,,1 S,0,957,,0.608
Animation,Foreground,Centre,"marker\marker_.png",477,199,29,33,LoopOnce L,69067,1 F,0,0,,1 S,0,957,,0.608
Animation,Foreground,Centre,"marker\marker_.png",269,95,29,33,LoopOnce L,68228,1 F,0,0,,1 S,0,957,,0.608
Animation,Foreground,Centre,"marker\marker_.png",373,95,29,33,LoopOnce L,67389,1 F,0,0,,1 S,0,957,,0.608
Animation,Foreground,Centre,"marker\marker_.png",477,199,29,33,LoopOnce L,66969,1 F,0,0,,1 S,0,957,,0.608
Animation,Foreground,Centre,"marker\marker_.png",165,199,29,33,LoopOnce L,66550,1 F,0,0,,1 S,0,957,,0.608
Animation,Foreground,Centre,"marker\marker_.png",477,303,29,33,LoopOnce L,66130,1 F,0,0,,1 S,0,957,,0.608
Animation,Foreground,Centre,"marker\marker_.png",165,303,29,33,LoopOnce L,65711,1 F,0,0,,1 S,0,957,,0.608
Animation,Foreground,Centre,"marker\marker_.png",477,407,29,33,LoopOnce L,65292,1 F,0,0,,1 S,0,957,,0.608
Animation,Foreground,Centre,"marker\marker_.png",165,407,29,33,LoopOnce L,64872,1 F,0,0,,1 S,0,957,,0.608
Animation,Foreground,Centre,"marker\marker_.png",373,303,29,33,LoopOnce L,64032,1 F,0,0,,1 S,0,957,,0.608
Animation,Foreground,Centre,"marker\marker_.png",165,199,29,33,LoopOnce L,63193,1 F,0,0,,1 S,0,957,,0.608
Animation,Foreground,Centre,"marker\marker_.png",477,199,29,33,LoopOnce L,62354,1 F,0,0,,1 S,0,957,,0.608
Animation,Foreground,Centre,"marker\marker_.png",269,303,29,33,LoopOnce L,61291,1 F,0,0,,1 S,0,957,,0.608
Animation,Foreground,Centre,"marker\marker_.png",269,407,29,33,LoopOnce L,60977,1 F,0,0,,1 S,0,957,,0.608
Animation,Foreground,Centre,"marker\marker_.png",373,407,29,33,LoopOnce L,60662,1 F,0,0,,1 S,0,957,,0.608
Animation,Foreground,Centre,"marker\marker_.png",477,95,29,33,LoopOnce L,59823,1 F,0,0,,1 S,0,957,,0.608
Animation,Foreground,Centre,"marker\marker_.png",269,95,29,33,LoopOnce L,58984,1 F,0,0,,1 S,0,957,,0.608
Animation,Foreground,Centre,"marker\marker_.png",477,199,29,33,LoopOnce L,58145,1 F,0,0,,1 S,0,957,,0.608
Animation,Foreground,Centre,"marker\marker_.png",165,303,29,33,LoopOnce L,57305,1 F,0,0,,1 S,0,957,,0.608
Animation,Foreground,Centre,"marker\marker_.png",373,407,29,33,LoopOnce L,56466,1 F,0,0,,1 S,0,957,,0.608
Animation,Foreground,Centre,"marker\marker_.png",269,303,29,33,LoopOnce L,55627,1 F,0,0,,1 S,0,957,,0.608
Animation,Foreground,Centre,"marker\marker_.png",165,303,29,33,LoopOnce L,55208,1 F,0,0,,1 S,0,957,,0.608
Animation,Foreground,Centre,"marker\marker_.png",269,199,29,33,LoopOnce L,54788,1 F,0,0,,1 S,0,957,,0.608
Animation,Foreground,Centre,"marker\marker_.png",373,199,29,33,LoopOnce L,54368,1 F,0,0,,1 S,0,957,,0.608
Animation,Foreground,Centre,"marker\marker_.png",477,303,29,33,LoopOnce L,53949,1 F,0,0,,1 S,0,957,,0.608
Animation,Foreground,Centre,"marker\marker_.png",373,407,29,33,LoopOnce L,53110,1 F,0,0,,1 S,0,957,,0.608
Animation,Foreground,Centre,"marker\marker_.png",269,303,29,33,LoopOnce L,52270,1 F,0,0,,1 S,0,957,,0.608
Animation,Foreground,Centre,"marker\marker_.png",165,303,29,33,LoopOnce L,51851,1 F,0,0,,1 S,0,957,,0.608
Animation,Foreground,Centre,"marker\marker_.png",165,199,29,33,LoopOnce L,51431,1 F,0,0,,1 S,0,957,,0.608
Animation,Foreground,Centre,"marker\marker_.png",477,303,29,33,LoopOnce L,51012,1 F,0,0,,1 S,0,957,,0.608
Animation,Foreground,Centre,"marker\marker_.png",477,199,29,33,LoopOnce L,50592,1 F,0,0,,1 S,0,957,,0.608
Animation,Foreground,Centre,"marker\marker_.png",165,95,29,33,LoopOnce L,49753,1 F,0,0,,1 S,0,957,,0.608
Animation,Foreground,Centre,"marker\marker_.png",269,199,29,33,LoopOnce L,48914,1 F,0,0,,1 S,0,957,,0.608
Animation,Foreground,Centre,"marker\marker_.png",373,303,29,33,LoopOnce L,48494,1 F,0,0,,1 S,0,957,,0.608
Animation,Foreground,Centre,"marker\marker_.png",269,303,29,33,LoopOnce L,48075,1 F,0,0,,1 S,0,957,,0.608
Animation,Foreground,Centre,"marker\marker_.png",373,407,29,33,LoopOnce L,47655,1 F,0,0,,1 S,0,957,,0.608
Animation,Foreground,Centre,"marker\marker_.png",269,407,29,33,LoopOnce L,47236,1 F,0,0,,1 S,0,957,,0.608
Animation,Foreground,Centre,"marker\marker_.png",477,303,29,33,LoopOnce L,46396,1 F,0,0,,1 S,0,957,,0.608
Animation,Foreground,Centre,"marker\marker_.png",165,199,29,33,LoopOnce L,45557,1 F,0,0,,1 S,0,957,,0.608
Animation,Foreground,Centre,"marker\marker_.png",373,95,29,33,LoopOnce L,44718,1 F,0,0,,1 S,0,957,,0.608
Animation,Foreground,Centre,"marker\marker_.png",269,199,29,33,LoopOnce L,43879,1 F,0,0,,1 S,0,957,,0.608
Animation,Foreground,Centre,"marker\marker_.png",373,199,29,33,LoopOnce L,43459,1 F,0,0,,1 S,0,957,,0.608
Animation,Foreground,Centre,"marker\marker_.png",477,199,29,33,LoopOnce L,43040,1 F,0,0,,1 S,0,957,,0.608
Animation,Foreground,Centre,"marker\marker_.png",373,303,29,33,LoopOnce L,42201,1 F,0,0,,1 S,0,957,,0.608
Animation,Foreground,Centre,"marker\marker_.png",269,303,29,33,LoopOnce L,41781,1 F,0,0,,1 S,0,957,,0.608
Animation,Foreground,Centre,"marker\marker_.png",165,303,29,33,LoopOnce L,41361,1 F,0,0,,1 S,0,957,,0.608
Animation,Foreground,Centre,"marker\marker_.png",477,95,29,33,LoopOnce L,40522,1 F,0,0,,1 S,0,957,,0.608
Animation,Foreground,Centre,"marker\marker_.png",373,199,29,33,LoopOnce L,40103,1 F,0,0,,1 S,0,957,,0.608
Animation,Foreground,Centre,"marker\marker_.png",269,303,29,33,LoopOnce L,39683,1 F,0,0,,1 S,0,957,,0.608
Animation,Foreground,Centre,"marker\marker_.png",477,407,29,33,LoopOnce L,38844,1 F,0,0,,1 S,0,957,,0.608
Animation,Foreground,Centre,"marker\marker_.png",165,303,29,33,LoopOnce L,38005,1 F,0,0,,1 S,0,957,,0.608
Animation,Foreground,Centre,"marker\marker_.png",269,199,29,33,LoopOnce L,37166,1 F,0,0,,1 S,0,957,,0.608
Animation,Foreground,Centre,"marker\marker_.png",373,303,29,33,LoopOnce L,36326,1 F,0,0,,1 S,0,957,,0.608
Animation,Foreground,Centre,"marker\marker_.png",165,303,29,33,LoopOnce L,35487,1 F,0,0,,1 S,0,957,,0.608
Animation,Foreground,Centre,"marker\marker_.png",477,199,29,33,LoopOnce L,34648,1 F,0,0,,1 S,0,957,,0.608
Animation,Foreground,Centre,"marker\marker_.png",165,95,29,33,LoopOnce L,33809,1 F,0,0,,1 S,0,957,,0.608
Animation,Foreground,Centre,"marker\marker_.png",373,199,29,33,LoopOnce L,31711,1 F,0,0,,1 S,0,957,,0.608
Animation,Foreground,Centre,"marker\marker_.png",269,199,29,33,LoopOnce L,31291,1 F,0,0,,1 S,0,957,,0.608
Animation,Foreground,Centre,"marker\marker_.png",373,303,29,33,LoopOnce L,30872,1 F,0,0,,1 S,0,957,,0.608
Animation,Foreground,Centre,"marker\marker_.png",269,303,29,33,LoopOnce L,30452,1 F,0,0,,1 S,0,957,,0.608
Animation,Foreground,Centre,"marker\marker_.png",373,407,29,33,LoopOnce L,30033,1 F,0,0,,1 S,0,957,,0.608
Animation,Foreground,Centre,"marker\marker_.png",269,407,29,33,LoopOnce L,29613,1 F,0,0,,1 S,0,957,,0.608
Animation,Foreground,Centre,"marker\marker_.png",165,303,29,33,LoopOnce L,28774,1 F,0,0,,1 S,0,957,,0.608
Animation,Foreground,Centre,"marker\marker_.png",477,199,29,33,LoopOnce L,27935,1 F,0,0,,1 S,0,957,,0.608
Animation,Foreground,Centre,"marker\marker_.png",373,95,29,33,LoopOnce L,27096,1 F,0,0,,1 S,0,957,,0.608
Animation,Foreground,Centre,"marker\marker_.png",373,199,29,33,LoopOnce L,26676,1 F,0,0,,1 S,0,957,,0.608
Animation,Foreground,Centre,"marker\marker_.png",269,199,29,33,LoopOnce L,26256,1 F,0,0,,1 S,0,957,,0.608
Animation,Foreground,Centre,"marker\marker_.png",373,303,29,33,LoopOnce L,25837,1 F,0,0,,1 S,0,957,,0.608
Animation,Foreground,Centre,"marker\marker_.png",269,303,29,33,LoopOnce L,25417,1 F,0,0,,1 S,0,957,,0.608
Animation,Foreground,Centre,"marker\marker_.png",477,303,29,33,LoopOnce L,24998,1 F,0,0,,1 S,0,957,,0.608
Animation,Foreground,Centre,"marker\marker_.png",165,303,29,33,LoopOnce L,24578,1 F,0,0,,1 S,0,957,,0.608
Animation,Foreground,Centre,"marker\marker_.png",373,407,29,33,LoopOnce L,23739,1 F,0,0,,1 S,0,957,,0.608
Animation,Foreground,Centre,"marker\marker_.png",269,407,29,33,LoopOnce L,23319,1 F,0,0,,1 S,0,957,,0.608
Animation,Foreground,Centre,"marker\marker_.png",165,407,29,33,LoopOnce L,22900,1 F,0,0,,1 S,0,957,,0.608
Animation,Foreground,Centre,"marker\marker_.png",269,303,29,33,LoopOnce L,22061,1 F,0,0,,1 S,0,957,,0.608
Animation,Foreground,Centre,"marker\marker_.png",165,199,29,33,LoopOnce L,21222,1 F,0,0,,1 S,0,957,,0.608
Animation,Foreground,Centre,"marker\marker_.png",477,199,29,33,LoopOnce L,20382,1 F,0,0,,1 S,0,957,,0.608
Animation,Foreground,Centre,"marker\marker_.png",269,95,29,33,LoopOnce L,19543,1 F,0,0,,1 S,0,957,,0.608
Animation,Foreground,Centre,"marker\marker_.png",373,95,29,33,LoopOnce L,18704,1 F,0,0,,1 S,0,957,,0.608
Animation,Foreground,Centre,"marker\marker_.png",477,199,29,33,LoopOnce L,18284,1 F,0,0,,1 S,0,957,,0.608
Animation,Foreground,Centre,"marker\marker_.png",165,199,29,33,LoopOnce L,17865,1 F,0,0,,1 S,0,957,,0.608
Animation,Foreground,Centre,"marker\marker_.png",477,303,29,33,LoopOnce L,17445,1 F,0,0,,1 S,0,957,,0.608
Animation,Foreground,Centre,"marker\marker_.png",165,303,29,33,LoopOnce L,17026,1 F,0,0,,1 S,0,957,,0.608
Animation,Foreground,Centre,"marker\marker_.png",477,407,29,33,LoopOnce L,16607,1 F,0,0,,1 S,0,957,,0.608
Animation,Foreground,Centre,"marker\marker_.png",165,407,29,33,LoopOnce L,16187,1 F,0,0,,1 S,0,957,,0.608
Animation,Foreground,Centre,"marker\marker_.png",373,303,29,33,LoopOnce L,15347,1 F,0,0,,1 S,0,957,,0.608
Animation,Foreground,Centre,"marker\marker_.png",165,199,29,33,LoopOnce L,14508,1 F,0,0,,1 S,0,957,,0.608
Animation,Foreground,Centre,"marker\marker_.png",477,199,29,33,LoopOnce L,13669,1 F,0,0,,1 S,0,957,,0.608
Animation,Foreground,Centre,"marker\marker_.png",373,407,29,33,LoopOnce L,11991,1 F,0,0,,1 S,0,957,,0.608
Animation,Foreground,Centre,"marker\marker_.png",269,303,29,33,LoopOnce L,11571,1 F,0,0,,1 S,0,957,,0.608
Animation,Foreground,Centre,"marker\marker_.png",373,303,29,33,LoopOnce L,11152,1 F,0,0,,1 S,0,957,,0.608
Animation,Foreground,Centre,"marker\marker_.png",373,199,29,33,LoopOnce L,10732,1 F,0,0,,1 S,0,957,,0.608
Animation,Foreground,Centre,"marker\marker_.png",269,199,29,33,LoopOnce L,10312,1 F,0,0,,1 S,0,957,,0.608
Animation,Foreground,Centre,"marker\marker_.png",165,199,29,33,LoopOnce L,9893,1 F,0,0,,1 S,0,957,,0.608
Animation,Foreground,Centre,"marker\marker_.png",165,303,29,33,LoopOnce L,9473,1 F,0,0,,1 S,0,957,,0.608
Animation,Foreground,Centre,"marker\marker_.png",165,407,29,33,LoopOnce L,9054,1 F,0,0,,1 S,0,957,,0.608
Animation,Foreground,Centre,"marker\marker_.png",269,407,29,33,LoopOnce L,8634,1 F,0,0,,1 S,0,957,,0.608
Animation,Foreground,Centre,"marker\marker_.png",373,407,29,33,LoopOnce L,8215,1 F,0,0,,1 S,0,957,,0.608
Animation,Foreground,Centre,"marker\marker_.png",477,407,29,33,LoopOnce L,7795,1 F,0,0,,1 S,0,957,,0.608
Animation,Foreground,Centre,"marker\marker_.png",477,303,29,33,LoopOnce L,7375,1 F,0,0,,1 S,0,957,,0.608
Animation,Foreground,Centre,"marker\marker_.png",477,199,29,33,LoopOnce L,6956,1 F,0,0,,1 S,0,957,,0.608
Animation,Foreground,Centre,"marker\marker_.png",477,95,29,33,LoopOnce L,6536,1 F,0,0,,1 S,0,957,,0.608
Animation,Foreground,Centre,"marker\marker_.png",373,95,29,33,LoopOnce L,6117,1 F,0,0,,1 S,0,957,,0.608
Animation,Foreground,Centre,"marker\marker_.png",269,95,29,33,LoopOnce L,5697,1 F,0,0,,1 S,0,957,,0.608
Animation,Foreground,Centre,"marker\marker_.png",165,95,29,33,LoopOnce L,5277,1 F,0,0,,1 S,0,957,,0.608
Animation,Foreground,Centre,"marker\marker_.png",165,199,29,33,LoopOnce L,4858,1 F,0,0,,1 S,0,957,,0.608
Animation,Foreground,Centre,"marker\marker_.png",165,303,29,33,LoopOnce L,4438,1 F,0,0,,1 S,0,957,,0.608
Animation,Foreground,Centre,"marker\marker_.png",165,407,29,33,LoopOnce L,4019,1 F,0,0,,1 S,0,957,,0.608
Animation,Foreground,Centre,"marker\marker_.png",269,407,29,33,LoopOnce L,3599,1 F,0,0,,1 S,0,957,,0.608
Animation,Foreground,Centre,"marker\marker_.png",373,407,29,33,LoopOnce L,3180,1 F,0,0,,1 S,0,957,,0.608
Animation,Foreground,Centre,"marker\marker_.png",477,407,29,33,LoopOnce L,2760,1 F,0,0,,1 S,0,957,,0.608
Animation,Foreground,Centre,"marker\marker_.png",477,303,29,33,LoopOnce L,2340,1 F,0,0,,1 S,0,957,,0.608
Animation,Foreground,Centre,"marker\marker_.png",477,199,29,33,LoopOnce L,1921,1 F,0,0,,1 S,0,957,,0.608
Animation,Foreground,Centre,"marker\marker_.png",373,199,29,33,LoopOnce L,1501,1 F,0,0,,1 S,0,957,,0.608
Animation,Foreground,Centre,"marker\marker_.png",269,199,29,33,LoopOnce L,1082,1 F,0,0,,1 S,0,957,,0.608
Animation,Foreground,Centre,"marker\marker_.png",269,303,29,33,LoopOnce L,662,1 F,0,0,,1 S,0,957,,0.608
Animation,Foreground,Centre,"marker\marker_.png",373,303,29,33,LoopOnce L,243,1 F,0,0,,1 S,0,957,,0.608
Sprite,Foreground,Centre,"sb\start.png",320,240 S,0,-4000,,0.704 M,0,-1,-295,378,302
Sprite,Foreground,Centre,"sb\jubeat.png",320,240 S,0,-4000,,0.8480002 R,0,-4000,,1.568 M,0,-4000,109495,575,325
Sprite,Foreground,Centre,"sb\test_button_up.png",320,240 S,0,-4000,,0.536 M,0,-4000,109495,165,95
Sprite,Foreground,Centre,"sb\test_button_up.png",320,240 S,0,-4000,,0.536 M,0,-4000,109495,269,95
Sprite,Foreground,Centre,"sb\test_button_up.png",320,240 S,0,-4000,,0.536 M,0,-4000,109495,373,95
Sprite,Foreground,Centre,"sb\test_button_up.png",320,240 S,0,-4000,,0.536 M,0,-4000,109495,477,95
Sprite,Foreground,Centre,"sb\test_button_up.png",320,240 S,0,-4000,,0.536 M,0,-4000,109495,373,199
Sprite,Foreground,Centre,"sb\test_button_up.png",320,240 S,0,-4000,,0.536 M,0,-4000,109495,269,199
Sprite,Foreground,Centre,"sb\test_button_up.png",320,240 S,0,-4000,,0.536 M,0,-4000,109495,165,199
Sprite,Foreground,Centre,"sb\test_button_up.png",320,240 S,0,-4000,,0.536 M,0,-4000,109495,477,199
Sprite,Foreground,Centre,"sb\test_button_up.png",320,240 S,0,-4000,,0.536 M,0,-4000,109495,373,303
Sprite,Foreground,Centre,"sb\test_button_up.png",320,240 S,0,-4000,,0.536 M,0,-4000,109495,269,303
Sprite,Foreground,Centre,"sb\test_button_up.png",320,240 S,0,-4000,,0.536 M,0,-4000,109495,165,303
Sprite,Foreground,Centre,"sb\test_button_up.png",320,240 S,0,-4000,,0.536 M,0,-4000,109495,477,303
Sprite,Foreground,Centre,"sb\test_button_up.png",320,240 S,0,-4000,,0.536 M,0,-4000,109495,373,407
Sprite,Foreground,Centre,"sb\test_button_up.png",320,240 S,0,-4000,,0.536 M,0,-4000,109495,269,407
Sprite,Foreground,Centre,"sb\test_button_up.png",320,240 S,0,-4000,,0.536 M,0,-4000,109495,165,407
Sprite,Foreground,Centre,"sb\test_button_up.png",320,240 S,0,-4000,,0.536 M,0,-4000,109495,477,407
//Storyboard Sound Samples
//Background Colour Transformations
3,100,163,162,255

[TimingPoints]
705,419.58041958042,4,2,1,41,1,0
62187,419.58041958042,4,2,1,41,1,0
62816,419.58041958042,4,2,1,41,1,0

[HitObjects]
309,245,705,1,8
205,245,1124,1,8
205,141,1544,1,8
309,141,1963,1,8
413,141,2383,1,8
413,245,2802,1,8
413,349,3222,1,8
309,349,3642,1,8
205,349,4061,1,8
101,349,4481,1,8
101,245,4900,1,8
101,141,5320,1,8
101,37,5739,1,8
205,37,6159,1,8
309,37,6579,1,8
413,37,6998,1,8
413,141,7418,1,8
413,245,7837,1,8
413,349,8257,1,8
309,349,8677,1,8
205,349,9096,1,8
101,349,9516,1,8
101,245,9935,1,8
101,141,10355,1,8
205,141,10774,1,8
309,141,11194,1,8
309,245,11614,1,8
205,245,12033,1,8
309,349,12453,1,8
413,141,14131,1,8
101,141,14970,1,8
309,245,15809,1,8
101,349,16649,1,8
413,349,17069,1,8
101,245,17488,1,8
413,245,17907,1,8
101,141,18327,1,8
413,141,18746,1,8
309,37,19166,1,8
205,37,20005,1,8
413,141,20844,1,8
101,141,21684,1,8
205,245,22523,1,8
101,349,23362,1,8
205,349,23781,1,8
309,349,24201,1,8
101,245,25040,1,8
413,245,25460,1,8
205,245,25879,1,8
309,245,26299,1,8
205,141,26718,1,8
309,141,27138,1,8
309,37,27558,1,8
413,141,28397,1,8
101,245,29236,1,8
205,349,30075,1,8
309,349,30495,1,8
205,245,30914,1,8
309,245,31334,1,8
205,141,31753,1,8
309,141,32173,1,8
101,37,34271,1,8
413,141,35110,1,8
101,245,35949,1,8
309,245,36788,1,8
205,141,37628,1,8
101,245,38467,1,8
413,349,39306,1,8
205,245,40145,1,8
309,141,40565,1,8
413,37,40984,1,8
101,245,41823,1,8
205,245,42243,1,8
309,245,42663,1,8
413,141,43502,1,8
309,141,43921,1,8
205,141,44341,1,8
309,37,45180,1,8
101,141,46019,1,8
413,245,46858,1,8
205,349,47698,1,8
309,349,48117,1,8
205,245,48537,1,8
309,245,48956,1,8
205,141,49376,1,8
101,37,50215,1,8
413,141,51054,1,8
413,245,51474,1,8
101,141,51893,1,8
101,245,52313,1,8
205,245,52732,1,8
309,349,53572,1,8
413,245,54411,1,8
309,141,54830,1,8
205,141,55250,1,8
101,245,55670,1,8
205,245,56089,1,8
309,349,56928,1,8
101,245,57767,1,8
413,141,58607,1,8
205,37,59446,1,8
413,37,60285,1,8
309,349,61124,1,8
205,349,61439,1,8
205,245,61753,1,8
413,141,62816,1,8
101,141,63655,1,8
309,245,64494,1,8
101,349,65334,1,8
413,349,65754,1,8
101,245,66173,1,8
413,245,66592,1,8
101,141,67012,1,8
413,141,67431,1,8
309,37,67851,1,8
205,37,68690,1,8
413,141,69529,1,8
101,141,70369,1,8
205,245,71208,1,8
101,349,72047,1,8
205,349,72466,1,8
309,349,72886,1,8
101,141,73725,1,8
413,141,74145,1,8
205,245,74564,1,8
309,245,75404,1,8
413,141,76243,1,8
101,141,77082,1,8
309,245,77921,1,8
101,349,78761,1,8
413,349,79179,1,8
101,245,79600,1,8
413,245,80019,1,8
101,141,80439,1,8
413,141,80858,1,8
309,37,81278,1,8
205,37,82117,1,8
413,141,82956,1,8
101,141,83796,1,8
205,245,84635,1,8
101,349,85474,1,8
205,349,85893,1,8
309,349,86313,1,8
101,245,87152,1,8
413,245,87572,1,8
205,245,87991,1,8
309,245,88411,1,8
205,141,88830,1,8
309,141,89250,1,8
309,37,89670,1,8
413,141,90509,1,8
101,245,91348,1,8
205,349,92187,1,8
309,349,92607,1,8
205,245,93026,1,8
309,245,93446,1,8
205,141,93865,1,8
309,141,94179,1,8
309,37,94495,1,8
