osu file format v9

[General]
AudioFilename: only my railgun.mp3
AudioLeadIn: 0
PreviewTime: -1
Countdown: 0
SampleSet: Soft
StackLeniency: 0.7
Mode: 0
LetterboxInBreaks: 1

[Editor]
DistanceSpacing: 1.3
BeatDivisor: 4
GridSize: 4

[Metadata]
Title:only my railgun (Jubeatsu)
Artist:fripSide
Creator:Lybydose
Version:Advanced
Source:Toaru Kagaku no Railgun
Tags:jubeat

[Difficulty]
HPDrainRate:0
CircleSize:0
OverallDifficulty:7
ApproachRate:10
SliderMultiplier:1.6
SliderTickRate:1

[Events]
//Background and Video events
0,0,"railgun.png"
//Break Periods
//Storyboard Layer 0 (Background)
//Storyboard Layer 1 (Fail)
//Storyboard Layer 2 (Pass)
//Storyboard Layer 3 (Foreground)
Sprite,Foreground,Centre,"sb\copious.png",320,240 S,0,-4000,,1.152 M,0,-4000,109494,559,251
Sprite,Foreground,Centre,"sb\ready.png",320,240 S,0,-1400,,0.6919998 M,0,-1400,-200,325,-10,323,251
Sprite,Foreground,Centre,"sb\go.png",320,240 M,0,-200,,319,250 S,0,-200,0,0.7920002,1.872 S,0,0,50,1.872,1.728 F,0,100,329,1,0
Sprite,Foreground,Centre,"sb\mask.png",320,240 S,0,-4000,,0.8560004 M,0,-4000,109494,331,240
Animation,Foreground,Centre,"marker\marker_.png",373,95,29,33,LoopOnce L,94032,1 F,0,0,,1 S,0,957,,0.608
Animation,Foreground,Centre,"marker\marker_.png",373,199,29,33,LoopOnce L,93717,1 F,0,0,,1 S,0,957,,0.608
Animation,Foreground,Centre,"marker\marker_.png",269,199,29,33,LoopOnce L,93403,1 F,0,0,,1 S,0,957,,0.608
Animation,Foreground,Centre,"marker\marker_.png",373,303,29,33,LoopOnce L,92984,1 F,0,0,,1 S,0,957,,0.608
Animation,Foreground,Centre,"marker\marker_.png",269,303,29,33,LoopOnce L,92564,1 F,0,0,,1 S,0,957,,0.608
Animation,Foreground,Centre,"marker\marker_.png",373,407,29,33,LoopOnce L,92145,1 F,0,0,,1 S,0,957,,0.608
Animation,Foreground,Centre,"marker\marker_.png",269,407,29,33,LoopOnce L,91725,1 F,0,0,,1 S,0,957,,0.608
Animation,Foreground,Centre,"marker\marker_.png",477,199,29,33,LoopOnce L,91201,1 F,0,0,,1 S,0,957,,0.608
Animation,Foreground,Centre,"marker\marker_.png",373,199,29,33,LoopOnce L,91096,1 F,0,0,,1 S,0,957,,0.608
Animation,Foreground,Centre,"marker\marker_.png",269,95,29,33,LoopOnce L,90886,1 F,0,0,,1 S,0,957,,0.608
Animation,Foreground,Centre,"marker\marker_.png",165,95,29,33,LoopOnce L,90676,1 F,0,0,,1 S,0,957,,0.608
Animation,Foreground,Centre,"marker\marker_.png",165,407,29,33,LoopOnce L,90361,1 F,0,0,,1 S,0,957,,0.608
Animation,Foreground,Centre,"marker\marker_.png",269,407,29,33,LoopOnce L,90257,1 F,0,0,,1 S,0,957,,0.608
Animation,Foreground,Centre,"marker\marker_.png",373,303,29,33,LoopOnce L,90047,1 F,0,0,,1 S,0,957,,0.608
Animation,Foreground,Centre,"marker\marker_.png",477,303,29,33,LoopOnce L,89837,1 F,0,0,,1 S,0,957,,0.608
Animation,Foreground,Centre,"marker\marker_.png",477,95,29,33,LoopOnce L,89522,1 F,0,0,,1 S,0,957,,0.608
Animation,Foreground,Centre,"marker\marker_.png",373,95,29,33,LoopOnce L,89417,1 F,0,0,,1 S,0,957,,0.608
Animation,Foreground,Centre,"marker\marker_.png",269,199,29,33,LoopOnce L,89208,1 F,0,0,,1 S,0,957,,0.608
Animation,Foreground,Centre,"marker\marker_.png",477,407,29,33,LoopOnce L,88788,1 F,0,0,,1 S,0,957,,0.608
Animation,Foreground,Centre,"marker\marker_.png",165,303,29,33,LoopOnce L,88368,1 F,0,0,,1 S,0,957,,0.608
Animation,Foreground,Centre,"marker\marker_.png",373,199,29,33,LoopOnce L,87949,1 F,0,0,,1 S,0,957,,0.608
Animation,Foreground,Centre,"marker\marker_.png",269,95,29,33,LoopOnce L,87529,1 F,0,0,,1 S,0,957,,0.608
Animation,Foreground,Centre,"marker\marker_.png",269,303,29,33,LoopOnce L,87320,1 F,0,0,,1 S,0,957,,0.608
Animation,Foreground,Centre,"marker\marker_.png",373,303,29,33,LoopOnce L,87110,1 F,0,0,,1 S,0,957,,0.608
Animation,Foreground,Centre,"marker\marker_.png",269,407,29,33,LoopOnce L,86900,1 F,0,0,,1 S,0,957,,0.608
Animation,Foreground,Centre,"marker\marker_.png",373,407,29,33,LoopOnce L,86690,1 F,0,0,,1 S,0,957,,0.608
Animation,Foreground,Centre,"marker\marker_.png",165,199,29,33,LoopOnce L,85851,1 F,0,0,,1 S,0,957,,0.608
Animation,Foreground,Centre,"marker\marker_.png",477,199,29,33,LoopOnce L,85641,1 F,0,0,,1 S,0,957,,0.608
Animation,Foreground,Centre,"marker\marker_.png",165,303,29,33,LoopOnce L,85431,1 F,0,0,,1 S,0,957,,0.608
Animation,Foreground,Centre,"marker\marker_.png",477,303,29,33,LoopOnce L,85222,1 F,0,0,,1 S,0,957,,0.608
Animation,Foreground,Centre,"marker\marker_.png",165,407,29,33,LoopOnce L,85012,1 F,0,0,,1 S,0,957,,0.608
Animation,Foreground,Centre,"marker\marker_.png",477,407,29,33,LoopOnce L,84802,1 F,0,0,,1 S,0,957,,0.608
Animation,Foreground,Centre,"marker\marker_.png",165,95,29,33,LoopOnce L,84487,1 F,0,0,,1 S,0,957,,0.608
Animation,Foreground,Centre,"marker\marker_.png",269,95,29,33,LoopOnce L,84382,1 F,0,0,,1 S,0,957,,0.608
Animation,Foreground,Centre,"marker\marker_.png",477,95,29,33,LoopOnce L,84173,1 F,0,0,,1 S,0,957,,0.608
Animation,Foreground,Centre,"marker\marker_.png",269,303,29,33,LoopOnce L,83963,1 F,0,0,,1 S,0,957,,0.608
Animation,Foreground,Centre,"marker\marker_.png",477,303,29,33,LoopOnce L,83648,1 F,0,0,,1 S,0,957,,0.608
Animation,Foreground,Centre,"marker\marker_.png",373,303,29,33,LoopOnce L,83543,1 F,0,0,,1 S,0,957,,0.608
Animation,Foreground,Centre,"marker\marker_.png",165,303,29,33,LoopOnce L,83334,1 F,0,0,,1 S,0,957,,0.608
Animation,Foreground,Centre,"marker\marker_.png",373,199,29,33,LoopOnce L,83124,1 F,0,0,,1 S,0,957,,0.608
Animation,Foreground,Centre,"marker\marker_.png",165,199,29,33,LoopOnce L,82809,1 F,0,0,,1 S,0,957,,0.608
Animation,Foreground,Centre,"marker\marker_.png",269,199,29,33,LoopOnce L,82704,1 F,0,0,,1 S,0,957,,0.608
Animation,Foreground,Centre,"marker\marker_.png",477,199,29,33,LoopOnce L,82494,1 F,0,0,,1 S,0,957,,0.608
Animation,Foreground,Centre,"marker\marker_.png",477,407,29,33,LoopOnce L,82285,1 F,0,0,,1 S,0,957,,0.608
Animation,Foreground,Centre,"marker\marker_.png",373,407,29,33,LoopOnce L,82075,1 F,0,0,,1 S,0,957,,0.608
Animation,Foreground,Centre,"marker\marker_.png",269,407,29,33,LoopOnce L,81865,1 F,0,0,,1 S,0,957,,0.608
Animation,Foreground,Centre,"marker\marker_.png",269,95,29,33,LoopOnce L,81445,1 F,0,0,,1 S,0,957,,0.608
Animation,Foreground,Centre,"marker\marker_.png",373,199,29,33,LoopOnce L,81131,1 F,0,0,,1 S,0,957,,0.608
Animation,Foreground,Centre,"marker\marker_.png",269,303,29,33,LoopOnce L,80816,1 F,0,0,,1 S,0,957,,0.608
Animation,Foreground,Centre,"marker\marker_.png",477,407,29,33,LoopOnce L,80396,1 F,0,0,,1 S,0,957,,0.608
Animation,Foreground,Centre,"marker\marker_.png",165,407,29,33,LoopOnce L,79977,1 F,0,0,,1 S,0,957,,0.608
Animation,Foreground,Centre,"marker\marker_.png",477,95,29,33,LoopOnce L,79557,1 F,0,0,,1 S,0,957,,0.608
Animation,Foreground,Centre,"marker\marker_.png",165,95,29,33,LoopOnce L,79138,1 F,0,0,,1 S,0,957,,0.608
Animation,Foreground,Centre,"marker\marker_.png",477,199,29,33,LoopOnce L,78928,1 F,0,0,,1 S,0,957,,0.608
Animation,Foreground,Centre,"marker\marker_.png",165,303,29,33,LoopOnce L,78718,1 F,0,0,,1 S,0,957,,0.608
Animation,Foreground,Centre,"marker\marker_.png",477,303,29,33,LoopOnce L,78508,1 F,0,0,,1 S,0,957,,0.608
Animation,Foreground,Centre,"marker\marker_.png",165,407,29,33,LoopOnce L,78299,1 F,0,0,,1 S,0,957,,0.608
Animation,Foreground,Centre,"marker\marker_.png",477,407,29,33,LoopOnce L,78089,1 F,0,0,,1 S,0,957,,0.608
Animation,Foreground,Centre,"marker\marker_.png",165,95,29,33,LoopOnce L,77774,1 F,0,0,,1 S,0,957,,0.608
Animation,Foreground,Centre,"marker\marker_.png",269,95,29,33,LoopOnce L,77669,1 F,0,0,,1 S,0,957,,0.608
Animation,Foreground,Centre,"marker\marker_.png",477,95,29,33,LoopOnce L,77459,1 F,0,0,,1 S,0,957,,0.608
Animation,Foreground,Centre,"marker\marker_.png",269,303,29,33,LoopOnce L,77250,1 F,0,0,,1 S,0,957,,0.608
Animation,Foreground,Centre,"marker\marker_.png",477,303,29,33,LoopOnce L,76935,1 F,0,0,,1 S,0,957,,0.608
Animation,Foreground,Centre,"marker\marker_.png",373,303,29,33,LoopOnce L,76830,1 F,0,0,,1 S,0,957,,0.608
Animation,Foreground,Centre,"marker\marker_.png",165,303,29,33,LoopOnce L,76620,1 F,0,0,,1 S,0,957,,0.608
Animation,Foreground,Centre,"marker\marker_.png",373,199,29,33,LoopOnce L,76410,1 F,0,0,,1 S,0,957,,0.608
Animation,Foreground,Centre,"marker\marker_.png",165,199,29,33,LoopOnce L,76096,1 F,0,0,,1 S,0,957,,0.608
Animation,Foreground,Centre,"marker\marker_.png",269,199,29,33,LoopOnce L,75991,1 F,0,0,,1 S,0,957,,0.608
Animation,Foreground,Centre,"marker\marker_.png",477,199,29,33,LoopOnce L,75781,1 F,0,0,,1 S,0,957,,0.608
Animation,Foreground,Centre,"marker\marker_.png",477,407,29,33,LoopOnce L,75571,1 F,0,0,,1 S,0,957,,0.608
Animation,Foreground,Centre,"marker\marker_.png",373,407,29,33,LoopOnce L,75361,1 F,0,0,,1 S,0,957,,0.608
Animation,Foreground,Centre,"marker\marker_.png",269,407,29,33,LoopOnce L,75152,1 F,0,0,,1 S,0,957,,0.608
Animation,Foreground,Centre,"marker\marker_.png",477,303,29,33,LoopOnce L,74732,1 F,0,0,,1 S,0,957,,0.608
Animation,Foreground,Centre,"marker\marker_.png",477,95,29,33,LoopOnce L,74417,1 F,0,0,,1 S,0,957,,0.608
Animation,Foreground,Centre,"marker\marker_.png",269,199,29,33,LoopOnce L,74102,1 F,0,0,,1 S,0,957,,0.608
Animation,Foreground,Centre,"marker\marker_.png",269,303,29,33,LoopOnce L,73893,1 F,0,0,,1 S,0,957,,0.608
Animation,Foreground,Centre,"marker\marker_.png",373,303,29,33,LoopOnce L,73683,1 F,0,0,,1 S,0,957,,0.608
Animation,Foreground,Centre,"marker\marker_.png",269,407,29,33,LoopOnce L,73473,1 F,0,0,,1 S,0,957,,0.608
Animation,Foreground,Centre,"marker\marker_.png",373,407,29,33,LoopOnce L,73263,1 F,0,0,,1 S,0,957,,0.608
Animation,Foreground,Centre,"marker\marker_.png",165,199,29,33,LoopOnce L,72424,1 F,0,0,,1 S,0,957,,0.608
Animation,Foreground,Centre,"marker\marker_.png",477,199,29,33,LoopOnce L,72214,1 F,0,0,,1 S,0,957,,0.608
Animation,Foreground,Centre,"marker\marker_.png",165,303,29,33,LoopOnce L,72004,1 F,0,0,,1 S,0,957,,0.608
Animation,Foreground,Centre,"marker\marker_.png",477,303,29,33,LoopOnce L,71795,1 F,0,0,,1 S,0,957,,0.608
Animation,Foreground,Centre,"marker\marker_.png",165,407,29,33,LoopOnce L,71585,1 F,0,0,,1 S,0,957,,0.608
Animation,Foreground,Centre,"marker\marker_.png",477,407,29,33,LoopOnce L,71375,1 F,0,0,,1 S,0,957,,0.608
Animation,Foreground,Centre,"marker\marker_.png",165,95,29,33,LoopOnce L,71060,1 F,0,0,,1 S,0,957,,0.608
Animation,Foreground,Centre,"marker\marker_.png",269,95,29,33,LoopOnce L,70955,1 F,0,0,,1 S,0,957,,0.608
Animation,Foreground,Centre,"marker\marker_.png",477,95,29,33,LoopOnce L,70746,1 F,0,0,,1 S,0,957,,0.608
Animation,Foreground,Centre,"marker\marker_.png",269,303,29,33,LoopOnce L,70536,1 F,0,0,,1 S,0,957,,0.608
Animation,Foreground,Centre,"marker\marker_.png",477,303,29,33,LoopOnce L,70221,1 F,0,0,,1 S,0,957,,0.608
Animation,Foreground,Centre,"marker\marker_.png",373,303,29,33,LoopOnce L,70116,1 F,0,0,,1 S,0,957,,0.608
Animation,Foreground,Centre,"marker\marker_.png",165,303,29,33,LoopOnce L,69907,1 F,0,0,,1 S,0,957,,0.608
Animation,Foreground,Centre,"marker\marker_.png",373,199,29,33,LoopOnce L,69697,1 F,0,0,,1 S,0,957,,0.608
Animation,Foreground,Centre,"marker\marker_.png",165,199,29,33,LoopOnce L,69382,1 F,0,0,,1 S,0,957,,0.608
Animation,Foreground,Centre,"marker\marker_.png",269,199,29,33,LoopOnce L,69277,1 F,0,0,,1 S,0,957,,0.608
Animation,Foreground,Centre,"marker\marker_.png",477,199,29,33,LoopOnce L,69067,1 F,0,0,,1 S,0,957,,0.608
Animation,Foreground,Centre,"marker\marker_.png",477,407,29,33,LoopOnce L,68858,1 F,0,0,,1 S,0,957,,0.608
Animation,Foreground,Centre,"marker\marker_.png",373,407,29,33,LoopOnce L,68648,1 F,0,0,,1 S,0,957,,0.608
Animation,Foreground,Centre,"marker\marker_.png",269,407,29,33,LoopOnce L,68438,1 F,0,0,,1 S,0,957,,0.608
Animation,Foreground,Centre,"marker\marker_.png",269,95,29,33,LoopOnce L,68018,1 F,0,0,,1 S,0,957,,0.608
Animation,Foreground,Centre,"marker\marker_.png",373,199,29,33,LoopOnce L,67704,1 F,0,0,,1 S,0,957,,0.608
Animation,Foreground,Centre,"marker\marker_.png",269,303,29,33,LoopOnce L,67389,1 F,0,0,,1 S,0,957,,0.608
Animation,Foreground,Centre,"marker\marker_.png",477,407,29,33,LoopOnce L,66969,1 F,0,0,,1 S,0,957,,0.608
Animation,Foreground,Centre,"marker\marker_.png",165,407,29,33,LoopOnce L,66550,1 F,0,0,,1 S,0,957,,0.608
Animation,Foreground,Centre,"marker\marker_.png",477,95,29,33,LoopOnce L,66130,1 F,0,0,,1 S,0,957,,0.608
Animation,Foreground,Centre,"marker\marker_.png",165,95,29,33,LoopOnce L,65711,1 F,0,0,,1 S,0,957,,0.608
Animation,Foreground,Centre,"marker\marker_.png",477,199,29,33,LoopOnce L,65501,1 F,0,0,,1 S,0,957,,0.608
Animation,Foreground,Centre,"marker\marker_.png",165,303,29,33,LoopOnce L,65291,1 F,0,0,,1 S,0,957,,0.608
Animation,Foreground,Centre,"marker\marker_.png",477,303,29,33,LoopOnce L,65081,1 F,0,0,,1 S,0,957,,0.608
Animation,Foreground,Centre,"marker\marker_.png",165,407,29,33,LoopOnce L,64872,1 F,0,0,,1 S,0,957,,0.608
Animation,Foreground,Centre,"marker\marker_.png",477,407,29,33,LoopOnce L,64662,1 F,0,0,,1 S,0,957,,0.608
Animation,Foreground,Centre,"marker\marker_.png",165,95,29,33,LoopOnce L,64347,1 F,0,0,,1 S,0,957,,0.608
Animation,Foreground,Centre,"marker\marker_.png",269,95,29,33,LoopOnce L,64242,1 F,0,0,,1 S,0,957,,0.608
Animation,Foreground,Centre,"marker\marker_.png",477,95,29,33,LoopOnce L,64032,1 F,0,0,,1 S,0,957,,0.608
Animation,Foreground,Centre,"marker\marker_.png",269,303,29,33,LoopOnce L,63823,1 F,0,0,,1 S,0,957,,0.608
Animation,Foreground,Centre,"marker\marker_.png",477,303,29,33,LoopOnce L,63508,1 F,0,0,,1 S,0,957,,0.608
Animation,Foreground,Centre,"marker\marker_.png",373,303,29,33,LoopOnce L,63403,1 F,0,0,,1 S,0,957,,0.608
Animation,Foreground,Centre,"marker\marker_.png",165,303,29,33,LoopOnce L,63193,1 F,0,0,,1 S,0,957,,0.608
Animation,Foreground,Centre,"marker\marker_.png",373,199,29,33,LoopOnce L,62983,1 F,0,0,,1 S,0,957,,0.608
Animation,Foreground,Centre,"marker\marker_.png",165,199,29,33,LoopOnce L,62669,1 F,0,0,,1 S,0,957,,0.608
Animation,Foreground,Centre,"marker\marker_.png",269,199,29,33,LoopOnce L,62564,1 F,0,0,,1 S,0,957,,0.608
Animation,Foreground,Centre,"marker\marker_.png",477,199,29,33,LoopOnce L,62354,1 F,0,0,,1 S,0,957,,0.608
Animation,Foreground,Centre,"marker\marker_.png",477,407,29,33,LoopOnce L,62145,1 F,0,0,,1 S,0,957,,0.608
Animation,Foreground,Centre,"marker\marker_.png",373,407,29,33,LoopOnce L,61935,1 F,0,0,,1 S,0,957,,0.608
Animation,Foreground,Centre,"marker\marker_.png",269,407,29,33,LoopOnce L,61725,1 F,0,0,,1 S,0,957,,0.608
Animation,Foreground,Centre,"marker\marker_.png",373,303,29,33,LoopOnce L,61291,1 F,0,0,,1 S,0,957,,0.608
Animation,Foreground,Centre,"marker\marker_.png",477,95,29,33,LoopOnce L,60977,1 F,0,0,,1 S,0,957,,0.608
Animation,Foreground,Centre,"marker\marker_.png",269,199,29,33,LoopOnce L,60662,1 F,0,0,,1 S,0,957,,0.608
Animation,Foreground,Centre,"marker\marker_.png",373,407,29,33,LoopOnce L,59823,1 F,0,0,,1 S,0,957,,0.608
Animation,Foreground,Centre,"marker\marker_.png",269,407,29,33,LoopOnce L,59718,1 F,0,0,,1 S,0,957,,0.608
Animation,Foreground,Centre,"marker\marker_.png",165,407,29,33,LoopOnce L,59614,1 F,0,0,,1 S,0,957,,0.608
Animation,Foreground,Centre,"marker\marker_.png",477,303,29,33,LoopOnce L,58984,1 F,0,0,,1 S,0,957,,0.608
Animation,Foreground,Centre,"marker\marker_.png",165,303,29,33,LoopOnce L,58774,1 F,0,0,,1 S,0,957,,0.608
Animation,Foreground,Centre,"marker\marker_.png",269,199,29,33,LoopOnce L,58459,1 F,0,0,,1 S,0,957,,0.608
Animation,Foreground,Centre,"marker\marker_.png",373,199,29,33,LoopOnce L,58354,1 F,0,0,,1 S,0,957,,0.608
Animation,Foreground,Centre,"marker\marker_.png",269,95,29,33,LoopOnce L,58145,1 F,0,0,,1 S,0,957,,0.608
Animation,Foreground,Centre,"marker\marker_.png",477,95,29,33,LoopOnce L,57935,1 F,0,0,,1 S,0,957,,0.608
Animation,Foreground,Centre,"marker\marker_.png",165,95,29,33,LoopOnce L,57725,1 F,0,0,,1 S,0,957,,0.608
Animation,Foreground,Centre,"marker\marker_.png",477,199,29,33,LoopOnce L,57305,1 F,0,0,,1 S,0,957,,0.608
Animation,Foreground,Centre,"marker\marker_.png",165,199,29,33,LoopOnce L,57096,1 F,0,0,,1 S,0,957,,0.608
Animation,Foreground,Centre,"marker\marker_.png",373,303,29,33,LoopOnce L,56361,1 F,0,0,,1 S,0,957,,0.608
Animation,Foreground,Centre,"marker\marker_.png",269,303,29,33,LoopOnce L,56256,1 F,0,0,,1 S,0,957,,0.608
Animation,Foreground,Centre,"marker\marker_.png",373,407,29,33,LoopOnce L,56047,1 F,0,0,,1 S,0,957,,0.608
Animation,Foreground,Centre,"marker\marker_.png",477,407,29,33,LoopOnce L,55627,1 F,0,0,,1 S,0,957,,0.608
Animation,Foreground,Centre,"marker\marker_.png",165,407,29,33,LoopOnce L,55418,1 F,0,0,,1 S,0,957,,0.608
Animation,Foreground,Centre,"marker\marker_.png",477,303,29,33,LoopOnce L,55208,1 F,0,0,,1 S,0,957,,0.608
Animation,Foreground,Centre,"marker\marker_.png",165,199,29,33,LoopOnce L,54998,1 F,0,0,,1 S,0,957,,0.608
Animation,Foreground,Centre,"marker\marker_.png",373,303,29,33,LoopOnce L,54578,1 F,0,0,,1 S,0,957,,0.608
Animation,Foreground,Centre,"marker\marker_.png",269,303,29,33,LoopOnce L,54473,1 F,0,0,,1 S,0,957,,0.608
Animation,Foreground,Centre,"marker\marker_.png",373,199,29,33,LoopOnce L,54263,1 F,0,0,,1 S,0,957,,0.608
Animation,Foreground,Centre,"marker\marker_.png",269,199,29,33,LoopOnce L,54159,1 F,0,0,,1 S,0,957,,0.608
Animation,Foreground,Centre,"marker\marker_.png",477,95,29,33,LoopOnce L,53949,1 F,0,0,,1 S,0,957,,0.608
Animation,Foreground,Centre,"marker\marker_.png",373,303,29,33,LoopOnce L,53110,1 F,0,0,,1 S,0,957,,0.608
Animation,Foreground,Centre,"marker\marker_.png",477,407,29,33,LoopOnce L,52900,1 F,0,0,,1 S,0,957,,0.608
Animation,Foreground,Centre,"marker\marker_.png",373,407,29,33,LoopOnce L,52585,1 F,0,0,,1 S,0,957,,0.608
Animation,Foreground,Centre,"marker\marker_.png",269,407,29,33,LoopOnce L,52270,1 F,0,0,,1 S,0,957,,0.608
Animation,Foreground,Centre,"marker\marker_.png",477,95,29,33,LoopOnce L,52061,1 F,0,0,,1 S,0,957,,0.608
Animation,Foreground,Centre,"marker\marker_.png",165,95,29,33,LoopOnce L,51746,1 F,0,0,,1 S,0,957,,0.608
Animation,Foreground,Centre,"marker\marker_.png",373,199,29,33,LoopOnce L,51536,1 F,0,0,,1 S,0,957,,0.608
Animation,Foreground,Centre,"marker\marker_.png",269,199,29,33,LoopOnce L,51431,1 F,0,0,,1 S,0,957,,0.608
Animation,Foreground,Centre,"marker\marker_.png",373,303,29,33,LoopOnce L,51222,1 F,0,0,,1 S,0,957,,0.608
Animation,Foreground,Centre,"marker\marker_.png",165,303,29,33,LoopOnce L,51012,1 F,0,0,,1 S,0,957,,0.608
Animation,Foreground,Centre,"marker\marker_.png",477,303,29,33,LoopOnce L,50802,1 F,0,0,,1 S,0,957,,0.608
Animation,Foreground,Centre,"marker\marker_.png",269,95,29,33,LoopOnce L,50592,1 F,0,0,,1 S,0,957,,0.608
Animation,Foreground,Centre,"marker\marker_.png",373,95,29,33,LoopOnce L,50487,1 F,0,0,,1 S,0,957,,0.608
Animation,Foreground,Centre,"marker\marker_.png",477,95,29,33,LoopOnce L,50382,1 F,0,0,,1 S,0,957,,0.608
Animation,Foreground,Centre,"marker\marker_.png",269,199,29,33,LoopOnce L,49648,1 F,0,0,,1 S,0,957,,0.608
Animation,Foreground,Centre,"marker\marker_.png",165,199,29,33,LoopOnce L,49543,1 F,0,0,,1 S,0,957,,0.608
Animation,Foreground,Centre,"marker\marker_.png",477,303,29,33,LoopOnce L,49333,1 F,0,0,,1 S,0,957,,0.608
Animation,Foreground,Centre,"marker\marker_.png",477,407,29,33,LoopOnce L,48914,1 F,0,0,,1 S,0,957,,0.608
Animation,Foreground,Centre,"marker\marker_.png",165,303,29,33,LoopOnce L,48704,1 F,0,0,,1 S,0,957,,0.608
Animation,Foreground,Centre,"marker\marker_.png",477,199,29,33,LoopOnce L,48494,1 F,0,0,,1 S,0,957,,0.608
Animation,Foreground,Centre,"marker\marker_.png",165,95,29,33,LoopOnce L,48284,1 F,0,0,,1 S,0,957,,0.608
Animation,Foreground,Centre,"marker\marker_.png",373,199,29,33,LoopOnce L,47865,1 F,0,0,,1 S,0,957,,0.608
Animation,Foreground,Centre,"marker\marker_.png",269,199,29,33,LoopOnce L,47760,1 F,0,0,,1 S,0,957,,0.608
Animation,Foreground,Centre,"marker\marker_.png",373,303,29,33,LoopOnce L,47550,1 F,0,0,,1 S,0,957,,0.608
Animation,Foreground,Centre,"marker\marker_.png",269,303,29,33,LoopOnce L,47445,1 F,0,0,,1 S,0,957,,0.608
Animation,Foreground,Centre,"marker\marker_.png",165,407,29,33,LoopOnce L,47236,1 F,0,0,,1 S,0,957,,0.608
Animation,Foreground,Centre,"marker\marker_.png",477,199,29,33,LoopOnce L,46396,1 F,0,0,,1 S,0,957,,0.608
Animation,Foreground,Centre,"marker\marker_.png",165,95,29,33,LoopOnce L,46187,1 F,0,0,,1 S,0,957,,0.608
Animation,Foreground,Centre,"marker\marker_.png",373,407,29,33,LoopOnce L,45557,1 F,0,0,,1 S,0,957,,0.608
Animation,Foreground,Centre,"marker\marker_.png",477,303,29,33,LoopOnce L,45347,1 F,0,0,,1 S,0,957,,0.608
Animation,Foreground,Centre,"marker\marker_.png",165,407,29,33,LoopOnce L,45138,1 F,0,0,,1 S,0,957,,0.608
Animation,Foreground,Centre,"marker\marker_.png",477,407,29,33,LoopOnce L,44928,1 F,0,0,,1 S,0,957,,0.608
Animation,Foreground,Centre,"marker\marker_.png",373,303,29,33,LoopOnce L,44718,1 F,0,0,,1 S,0,957,,0.608
Animation,Foreground,Centre,"marker\marker_.png",165,303,29,33,LoopOnce L,44298,1 F,0,0,,1 S,0,957,,0.608
Animation,Foreground,Centre,"marker\marker_.png",269,199,29,33,LoopOnce L,43879,1 F,0,0,,1 S,0,957,,0.608
Animation,Foreground,Centre,"marker\marker_.png",373,95,29,33,LoopOnce L,43669,1 F,0,0,,1 S,0,957,,0.608
Animation,Foreground,Centre,"marker\marker_.png",269,95,29,33,LoopOnce L,43459,1 F,0,0,,1 S,0,957,,0.608
Animation,Foreground,Centre,"marker\marker_.png",477,199,29,33,LoopOnce L,43249,1 F,0,0,,1 S,0,957,,0.608
Animation,Foreground,Centre,"marker\marker_.png",165,199,29,33,LoopOnce L,43040,1 F,0,0,,1 S,0,957,,0.608
Animation,Foreground,Centre,"marker\marker_.png",269,303,29,33,LoopOnce L,42201,1 F,0,0,,1 S,0,957,,0.608
Animation,Foreground,Centre,"marker\marker_.png",373,407,29,33,LoopOnce L,41991,1 F,0,0,,1 S,0,957,,0.608
Animation,Foreground,Centre,"marker\marker_.png",269,407,29,33,LoopOnce L,41781,1 F,0,0,,1 S,0,957,,0.608
Animation,Foreground,Centre,"marker\marker_.png",477,303,29,33,LoopOnce L,41571,1 F,0,0,,1 S,0,957,,0.608
Animation,Foreground,Centre,"marker\marker_.png",165,303,29,33,LoopOnce L,41361,1 F,0,0,,1 S,0,957,,0.608
Animation,Foreground,Centre,"marker\marker_.png",373,95,29,33,LoopOnce L,40522,1 F,0,0,,1 S,0,957,,0.608
Animation,Foreground,Centre,"marker\marker_.png",477,407,29,33,LoopOnce L,40103,1 F,0,0,,1 S,0,957,,0.608
Animation,Foreground,Centre,"marker\marker_.png",165,303,29,33,LoopOnce L,39683,1 F,0,0,,1 S,0,957,,0.608
Animation,Foreground,Centre,"marker\marker_.png",165,199,29,33,LoopOnce L,39473,1 F,0,0,,1 S,0,957,,0.608
Animation,Foreground,Centre,"marker\marker_.png",269,199,29,33,LoopOnce L,39263,1 F,0,0,,1 S,0,957,,0.608
Animation,Foreground,Centre,"marker\marker_.png",373,199,29,33,LoopOnce L,39054,1 F,0,0,,1 S,0,957,,0.608
Animation,Foreground,Centre,"marker\marker_.png",477,199,29,33,LoopOnce L,38844,1 F,0,0,,1 S,0,957,,0.608
Animation,Foreground,Centre,"marker\marker_.png",477,95,29,33,LoopOnce L,38634,1 F,0,0,,1 S,0,957,,0.608
Animation,Foreground,Centre,"marker\marker_.png",373,95,29,33,LoopOnce L,38424,1 F,0,0,,1 S,0,957,,0.608
Animation,Foreground,Centre,"marker\marker_.png",269,95,29,33,LoopOnce L,38215,1 F,0,0,,1 S,0,957,,0.608
Animation,Foreground,Centre,"marker\marker_.png",165,95,29,33,LoopOnce L,38005,1 F,0,0,,1 S,0,957,,0.608
Animation,Foreground,Centre,"marker\marker_.png",165,303,29,33,LoopOnce L,37166,1 F,0,0,,1 S,0,957,,0.608
Animation,Foreground,Centre,"marker\marker_.png",165,199,29,33,LoopOnce L,36956,1 F,0,0,,1 S,0,957,,0.608
Animation,Foreground,Centre,"marker\marker_.png",269,95,29,33,LoopOnce L,36746,1 F,0,0,,1 S,0,957,,0.608
Animation,Foreground,Centre,"marker\marker_.png",373,95,29,33,LoopOnce L,36536,1 F,0,0,,1 S,0,957,,0.608
Animation,Foreground,Centre,"marker\marker_.png",477,199,29,33,LoopOnce L,36326,1 F,0,0,,1 S,0,957,,0.608
Animation,Foreground,Centre,"marker\marker_.png",477,303,29,33,LoopOnce L,35486,1 F,0,0,,1 S,0,957,,0.608
Animation,Foreground,Centre,"marker\marker_.png",373,407,29,33,LoopOnce L,35277,1 F,0,0,,1 S,0,957,,0.608
Animation,Foreground,Centre,"marker\marker_.png",269,407,29,33,LoopOnce L,35067,1 F,0,0,,1 S,0,957,,0.608
Animation,Foreground,Centre,"marker\marker_.png",165,303,29,33,LoopOnce L,34857,1 F,0,0,,1 S,0,957,,0.608
Animation,Foreground,Centre,"marker\marker_.png",165,199,29,33,LoopOnce L,34647,1 F,0,0,,1 S,0,957,,0.608
Animation,Foreground,Centre,"marker\marker_.png",269,95,29,33,LoopOnce L,33809,1 F,0,0,,1 S,0,957,,0.608
Animation,Foreground,Centre,"marker\marker_.png",373,199,29,33,LoopOnce L,31711,1 F,0,0,,1 S,0,957,,0.608
Animation,Foreground,Centre,"marker\marker_.png",269,199,29,33,LoopOnce L,31291,1 F,0,0,,1 S,0,957,,0.608
Animation,Foreground,Centre,"marker\marker_.png",373,303,29,33,LoopOnce L,30872,1 F,0,0,,1 S,0,957,,0.608
Animation,Foreground,Centre,"marker\marker_.png",269,303,29,33,LoopOnce L,30452,1 F,0,0,,1 S,0,957,,0.608
Animation,Foreground,Centre,"marker\marker_.png",373,407,29,33,LoopOnce L,30033,1 F,0,0,,1 S,0,957,,0.608
Animation,Foreground,Centre,"marker\marker_.png",269,407,29,33,LoopOnce L,29613,1 F,0,0,,1 S,0,957,,0.608
Animation,Foreground,Centre,"marker\marker_.png",477,199,29,33,LoopOnce L,29089,1 F,0,0,,1 S,0,957,,0.608
Animation,Foreground,Centre,"marker\marker_.png",373,199,29,33,LoopOnce L,28984,1 F,0,0,,1 S,0,957,,0.608
Animation,Foreground,Centre,"marker\marker_.png",269,95,29,33,LoopOnce L,28774,1 F,0,0,,1 S,0,957,,0.608
Animation,Foreground,Centre,"marker\marker_.png",165,95,29,33,LoopOnce L,28564,1 F,0,0,,1 S,0,957,,0.608
Animation,Foreground,Centre,"marker\marker_.png",165,407,29,33,LoopOnce L,28249,1 F,0,0,,1 S,0,957,,0.608
Animation,Foreground,Centre,"marker\marker_.png",269,407,29,33,LoopOnce L,28145,1 F,0,0,,1 S,0,957,,0.608
Animation,Foreground,Centre,"marker\marker_.png",373,303,29,33,LoopOnce L,27935,1 F,0,0,,1 S,0,957,,0.608
Animation,Foreground,Centre,"marker\marker_.png",477,303,29,33,LoopOnce L,27725,1 F,0,0,,1 S,0,957,,0.608
Animation,Foreground,Centre,"marker\marker_.png",477,95,29,33,LoopOnce L,27410,1 F,0,0,,1 S,0,957,,0.608
Animation,Foreground,Centre,"marker\marker_.png",373,95,29,33,LoopOnce L,27305,1 F,0,0,,1 S,0,957,,0.608
Animation,Foreground,Centre,"marker\marker_.png",269,199,29,33,LoopOnce L,27096,1 F,0,0,,1 S,0,957,,0.608
Animation,Foreground,Centre,"marker\marker_.png",477,407,29,33,LoopOnce L,26676,1 F,0,0,,1 S,0,957,,0.608
Animation,Foreground,Centre,"marker\marker_.png",165,303,29,33,LoopOnce L,26256,1 F,0,0,,1 S,0,957,,0.608
Animation,Foreground,Centre,"marker\marker_.png",373,199,29,33,LoopOnce L,25837,1 F,0,0,,1 S,0,957,,0.608
Animation,Foreground,Centre,"marker\marker_.png",269,95,29,33,LoopOnce L,25417,1 F,0,0,,1 S,0,957,,0.608
Animation,Foreground,Centre,"marker\marker_.png",269,303,29,33,LoopOnce L,25208,1 F,0,0,,1 S,0,957,,0.608
Animation,Foreground,Centre,"marker\marker_.png",373,303,29,33,LoopOnce L,24998,1 F,0,0,,1 S,0,957,,0.608
Animation,Foreground,Centre,"marker\marker_.png",269,407,29,33,LoopOnce L,24788,1 F,0,0,,1 S,0,957,,0.608
Animation,Foreground,Centre,"marker\marker_.png",373,407,29,33,LoopOnce L,24578,1 F,0,0,,1 S,0,957,,0.608
Animation,Foreground,Centre,"marker\marker_.png",165,199,29,33,LoopOnce L,23739,1 F,0,0,,1 S,0,957,,0.608
Animation,Foreground,Centre,"marker\marker_.png",477,199,29,33,LoopOnce L,23529,1 F,0,0,,1 S,0,957,,0.608
Animation,Foreground,Centre,"marker\marker_.png",165,303,29,33,LoopOnce L,23319,1 F,0,0,,1 S,0,957,,0.608
Animation,Foreground,Centre,"marker\marker_.png",477,303,29,33,LoopOnce L,23110,1 F,0,0,,1 S,0,957,,0.608
Animation,Foreground,Centre,"marker\marker_.png",165,407,29,33,LoopOnce L,22900,1 F,0,0,,1 S,0,957,,0.608
Animation,Foreground,Centre,"marker\marker_.png",477,407,29,33,LoopOnce L,22690,1 F,0,0,,1 S,0,957,,0.608
Animation,Foreground,Centre,"marker\marker_.png",165,95,29,33,LoopOnce L,22375,1 F,0,0,,1 S,0,957,,0.608
Animation,Foreground,Centre,"marker\marker_.png",269,95,29,33,LoopOnce L,22270,1 F,0,0,,1 S,0,957,,0.608
Animation,Foreground,Centre,"marker\marker_.png",477,95,29,33,LoopOnce L,22061,1 F,0,0,,1 S,0,957,,0.608
Animation,Foreground,Centre,"marker\marker_.png",269,303,29,33,LoopOnce L,21851,1 F,0,0,,1 S,0,957,,0.608
Animation,Foreground,Centre,"marker\marker_.png",477,303,29,33,LoopOnce L,21536,1 F,0,0,,1 S,0,957,,0.608
Animation,Foreground,Centre,"marker\marker_.png",373,303,29,33,LoopOnce L,21431,1 F,0,0,,1 S,0,957,,0.608
Animation,Foreground,Centre,"marker\marker_.png",165,303,29,33,LoopOnce L,21222,1 F,0,0,,1 S,0,957,,0.608
Animation,Foreground,Centre,"marker\marker_.png",373,199,29,33,LoopOnce L,21012,1 F,0,0,,1 S,0,957,,0.608
Animation,Foreground,Centre,"marker\marker_.png",165,199,29,33,LoopOnce L,20697,1 F,0,0,,1 S,0,957,,0.608
Animation,Foreground,Centre,"marker\marker_.png",269,199,29,33,LoopOnce L,20592,1 F,0,0,,1 S,0,957,,0.608
Animation,Foreground,Centre,"marker\marker_.png",477,199,29,33,LoopOnce L,20382,1 F,0,0,,1 S,0,957,,0.608
Animation,Foreground,Centre,"marker\marker_.png",477,407,29,33,LoopOnce L,20173,1 F,0,0,,1 S,0,957,,0.608
Animation,Foreground,Centre,"marker\marker_.png",373,407,29,33,LoopOnce L,19963,1 F,0,0,,1 S,0,957,,0.608
Animation,Foreground,Centre,"marker\marker_.png",269,407,29,33,LoopOnce L,19753,1 F,0,0,,1 S,0,957,,0.608
Animation,Foreground,Centre,"marker\marker_.png",269,95,29,33,LoopOnce L,19333,1 F,0,0,,1 S,0,957,,0.608
Animation,Foreground,Centre,"marker\marker_.png",373,199,29,33,LoopOnce L,19019,1 F,0,0,,1 S,0,957,,0.608
Animation,Foreground,Centre,"marker\marker_.png",269,303,29,33,LoopOnce L,18704,1 F,0,0,,1 S,0,957,,0.608
Animation,Foreground,Centre,"marker\marker_.png",477,407,29,33,LoopOnce L,18284,1 F,0,0,,1 S,0,957,,0.608
Animation,Foreground,Centre,"marker\marker_.png",165,407,29,33,LoopOnce L,17865,1 F,0,0,,1 S,0,957,,0.608
Animation,Foreground,Centre,"marker\marker_.png",477,95,29,33,LoopOnce L,17445,1 F,0,0,,1 S,0,957,,0.608
Animation,Foreground,Centre,"marker\marker_.png",165,95,29,33,LoopOnce L,17026,1 F,0,0,,1 S,0,957,,0.608
Animation,Foreground,Centre,"marker\marker_.png",477,199,29,33,LoopOnce L,16816,1 F,0,0,,1 S,0,957,,0.608
Animation,Foreground,Centre,"marker\marker_.png",165,303,29,33,LoopOnce L,16606,1 F,0,0,,1 S,0,957,,0.608
Animation,Foreground,Centre,"marker\marker_.png",477,303,29,33,LoopOnce L,16396,1 F,0,0,,1 S,0,957,,0.608
Animation,Foreground,Centre,"marker\marker_.png",165,407,29,33,LoopOnce L,16187,1 F,0,0,,1 S,0,957,,0.608
Animation,Foreground,Centre,"marker\marker_.png",477,407,29,33,LoopOnce L,15977,1 F,0,0,,1 S,0,957,,0.608
Animation,Foreground,Centre,"marker\marker_.png",165,95,29,33,LoopOnce L,15662,1 F,0,0,,1 S,0,957,,0.608
Animation,Foreground,Centre,"marker\marker_.png",269,95,29,33,LoopOnce L,15557,1 F,0,0,,1 S,0,957,,0.608
Animation,Foreground,Centre,"marker\marker_.png",477,95,29,33,LoopOnce L,15347,1 F,0,0,,1 S,0,957,,0.608
Animation,Foreground,Centre,"marker\marker_.png",269,303,29,33,LoopOnce L,15138,1 F,0,0,,1 S,0,957,,0.608
Animation,Foreground,Centre,"marker\marker_.png",477,303,29,33,LoopOnce L,14823,1 F,0,0,,1 S,0,957,,0.608
Animation,Foreground,Centre,"marker\marker_.png",373,303,29,33,LoopOnce L,14718,1 F,0,0,,1 S,0,957,,0.608
Animation,Foreground,Centre,"marker\marker_.png",165,303,29,33,LoopOnce L,14508,1 F,0,0,,1 S,0,957,,0.608
Animation,Foreground,Centre,"marker\marker_.png",373,199,29,33,LoopOnce L,14298,1 F,0,0,,1 S,0,957,,0.608
Animation,Foreground,Centre,"marker\marker_.png",165,199,29,33,LoopOnce L,13984,1 F,0,0,,1 S,0,957,,0.608
Animation,Foreground,Centre,"marker\marker_.png",269,199,29,33,LoopOnce L,13879,1 F,0,0,,1 S,0,957,,0.608
Animation,Foreground,Centre,"marker\marker_.png",477,199,29,33,LoopOnce L,13669,1 F,0,0,,1 S,0,957,,0.608
Animation,Foreground,Centre,"marker\marker_.png",477,407,29,33,LoopOnce L,13459,1 F,0,0,,1 S,0,957,,0.608
Animation,Foreground,Centre,"marker\marker_.png",373,407,29,33,LoopOnce L,13249,1 F,0,0,,1 S,0,957,,0.608
Animation,Foreground,Centre,"marker\marker_.png",269,407,29,33,LoopOnce L,13040,1 F,0,0,,1 S,0,957,,0.608
Animation,Foreground,Centre,"marker\marker_.png",269,303,29,33,LoopOnce L,11991,1 F,0,0,,1 S,0,957,,0.608
Animation,Foreground,Centre,"marker\marker_.png",477,407,29,33,LoopOnce L,11781,1 F,0,0,,1 S,0,957,,0.608
Animation,Foreground,Centre,"marker\marker_.png",269,199,29,33,LoopOnce L,11571,1 F,0,0,,1 S,0,957,,0.608
Animation,Foreground,Centre,"marker\marker_.png",477,303,29,33,LoopOnce L,11361,1 F,0,0,,1 S,0,957,,0.608
Animation,Foreground,Centre,"marker\marker_.png",165,199,29,33,LoopOnce L,11152,1 F,0,0,,1 S,0,957,,0.608
Animation,Foreground,Centre,"marker\marker_.png",477,199,29,33,LoopOnce L,10942,1 F,0,0,,1 S,0,957,,0.608
Animation,Foreground,Centre,"marker\marker_.png",269,95,29,33,LoopOnce L,10732,1 F,0,0,,1 S,0,957,,0.608
Animation,Foreground,Centre,"marker\marker_.png",477,95,29,33,LoopOnce L,10522,1 F,0,0,,1 S,0,957,,0.608
Animation,Foreground,Centre,"marker\marker_.png",165,95,29,33,LoopOnce L,10312,1 F,0,0,,1 S,0,957,,0.608
Animation,Foreground,Centre,"marker\marker_.png",373,407,29,33,LoopOnce L,10103,1 F,0,0,,1 S,0,957,,0.608
Animation,Foreground,Centre,"marker\marker_.png",269,407,29,33,LoopOnce L,9893,1 F,0,0,,1 S,0,957,,0.608
Animation,Foreground,Centre,"marker\marker_.png",373,303,29,33,LoopOnce L,9683,1 F,0,0,,1 S,0,957,,0.608
Animation,Foreground,Centre,"marker\marker_.png",165,407,29,33,LoopOnce L,9473,1 F,0,0,,1 S,0,957,,0.608
Animation,Foreground,Centre,"marker\marker_.png",373,199,29,33,LoopOnce L,9263,1 F,0,0,,1 S,0,957,,0.608
Animation,Foreground,Centre,"marker\marker_.png",269,303,29,33,LoopOnce L,9054,1 F,0,0,,1 S,0,957,,0.608
Animation,Foreground,Centre,"marker\marker_.png",373,95,29,33,LoopOnce L,8844,1 F,0,0,,1 S,0,957,,0.608
Animation,Foreground,Centre,"marker\marker_.png",165,303,29,33,LoopOnce L,8634,1 F,0,0,,1 S,0,957,,0.608
Animation,Foreground,Centre,"marker\marker_.png",477,407,29,33,LoopOnce L,8424,1 F,0,0,,1 S,0,957,,0.608
Animation,Foreground,Centre,"marker\marker_.png",269,199,29,33,LoopOnce L,8215,1 F,0,0,,1 S,0,957,,0.608
Animation,Foreground,Centre,"marker\marker_.png",477,303,29,33,LoopOnce L,8005,1 F,0,0,,1 S,0,957,,0.608
Animation,Foreground,Centre,"marker\marker_.png",165,199,29,33,LoopOnce L,7795,1 F,0,0,,1 S,0,957,,0.608
Animation,Foreground,Centre,"marker\marker_.png",477,199,29,33,LoopOnce L,7585,1 F,0,0,,1 S,0,957,,0.608
Animation,Foreground,Centre,"marker\marker_.png",269,95,29,33,LoopOnce L,7375,1 F,0,0,,1 S,0,957,,0.608
Animation,Foreground,Centre,"marker\marker_.png",477,95,29,33,LoopOnce L,7166,1 F,0,0,,1 S,0,957,,0.608
Animation,Foreground,Centre,"marker\marker_.png",165,95,29,33,LoopOnce L,6956,1 F,0,0,,1 S,0,957,,0.608
Animation,Foreground,Centre,"marker\marker_.png",373,407,29,33,LoopOnce L,6536,1 F,0,0,,1 S,0,957,,0.608
Animation,Foreground,Centre,"marker\marker_.png",165,407,29,33,LoopOnce L,6117,1 F,0,0,,1 S,0,957,,0.608
Animation,Foreground,Centre,"marker\marker_.png",477,303,29,33,LoopOnce L,5697,1 F,0,0,,1 S,0,957,,0.608
Animation,Foreground,Centre,"marker\marker_.png",269,303,29,33,LoopOnce L,5277,1 F,0,0,,1 S,0,957,,0.608
Animation,Foreground,Centre,"marker\marker_.png",373,199,29,33,LoopOnce L,4858,1 F,0,0,,1 S,0,957,,0.608
Animation,Foreground,Centre,"marker\marker_.png",165,199,29,33,LoopOnce L,4438,1 F,0,0,,1 S,0,957,,0.608
Animation,Foreground,Centre,"marker\marker_.png",477,95,29,33,LoopOnce L,4019,1 F,0,0,,1 S,0,957,,0.608
Animation,Foreground,Centre,"marker\marker_.png",269,95,29,33,LoopOnce L,3599,1 F,0,0,,1 S,0,957,,0.608
Animation,Foreground,Centre,"marker\marker_.png",477,407,29,33,LoopOnce L,3180,1 F,0,0,,1 S,0,957,,0.608
Animation,Foreground,Centre,"marker\marker_.png",269,407,29,33,LoopOnce L,2760,1 F,0,0,,1 S,0,957,,0.608
Animation,Foreground,Centre,"marker\marker_.png",373,303,29,33,LoopOnce L,2340,1 F,0,0,,1 S,0,957,,0.608
Animation,Foreground,Centre,"marker\marker_.png",165,303,29,33,LoopOnce L,1921,1 F,0,0,,1 S,0,957,,0.608
Animation,Foreground,Centre,"marker\marker_.png",477,199,29,33,LoopOnce L,1501,1 F,0,0,,1 S,0,957,,0.608
Animation,Foreground,Centre,"marker\marker_.png",269,199,29,33,LoopOnce L,1082,1 F,0,0,,1 S,0,957,,0.608
Animation,Foreground,Centre,"marker\marker_.png",373,95,29,33,LoopOnce L,662,1 F,0,0,,1 S,0,957,,0.608
Animation,Foreground,Centre,"marker\marker_.png",165,95,29,33,LoopOnce L,243,1 F,0,0,,1 S,0,957,,0.608
Sprite,Foreground,Centre,"sb\start.png",320,240 S,0,-4000,,0.704 M,0,-1,-295,170,94
Sprite,Foreground,Centre,"sb\jubeat.png",320,240 S,0,-4000,,0.8480002 R,0,-4000,,1.568 M,0,-4000,109494,575,325
Sprite,Foreground,Centre,"sb\test_button_up.png",320,240 S,0,-4000,,0.536 M,0,-4000,109494,165,95
Sprite,Foreground,Centre,"sb\test_button_up.png",320,240 S,0,-4000,,0.536 M,0,-4000,109494,269,95
Sprite,Foreground,Centre,"sb\test_button_up.png",320,240 S,0,-4000,,0.536 M,0,-4000,109494,373,95
Sprite,Foreground,Centre,"sb\test_button_up.png",320,240 S,0,-4000,,0.536 M,0,-4000,109494,477,95
Sprite,Foreground,Centre,"sb\test_button_up.png",320,240 S,0,-4000,,0.536 M,0,-4000,109494,373,199
Sprite,Foreground,Centre,"sb\test_button_up.png",320,240 S,0,-4000,,0.536 M,0,-4000,109494,269,199
Sprite,Foreground,Centre,"sb\test_button_up.png",320,240 S,0,-4000,,0.536 M,0,-4000,109494,165,199
Sprite,Foreground,Centre,"sb\test_button_up.png",320,240 S,0,-4000,,0.536 M,0,-4000,109494,477,199
Sprite,Foreground,Centre,"sb\test_button_up.png",320,240 S,0,-4000,,0.536 M,0,-4000,109494,373,303
Sprite,Foreground,Centre,"sb\test_button_up.png",320,240 S,0,-4000,,0.536 M,0,-4000,109494,269,303
Sprite,Foreground,Centre,"sb\test_button_up.png",320,240 S,0,-4000,,0.536 M,0,-4000,109494,165,303
Sprite,Foreground,Centre,"sb\test_button_up.png",320,240 S,0,-4000,,0.536 M,0,-4000,109494,477,303
Sprite,Foreground,Centre,"sb\test_button_up.png",320,240 S,0,-4000,,0.536 M,0,-4000,109494,373,407
Sprite,Foreground,Centre,"sb\test_button_up.png",320,240 S,0,-4000,,0.536 M,0,-4000,109494,269,407
Sprite,Foreground,Centre,"sb\test_button_up.png",320,240 S,0,-4000,,0.536 M,0,-4000,109494,165,407
Sprite,Foreground,Centre,"sb\test_button_up.png",320,240 S,0,-4000,,0.536 M,0,-4000,109494,477,407
//Storyboard Sound Samples
//Background Colour Transformations
3,100,163,162,255

[TimingPoints]
705,419.58041958042,4,2,1,41,1,0
62187,419.58041958042,4,2,1,41,1,0
62816,419.58041958042,4,2,1,41,1,0

[HitObjects]
101,37,705,1,8
309,37,1124,1,8
205,141,1544,1,8
413,141,1963,1,8
101,245,2383,1,8
309,245,2802,1,8
205,349,3222,1,8
413,349,3642,1,8
205,37,4061,1,8
413,37,4481,1,8
101,141,4900,1,8
309,141,5320,1,8
205,245,5739,1,8
413,245,6159,1,8
101,349,6579,1,8
309,349,6998,1,8
101,37,7418,1,8
413,37,7628,1,8
205,37,7837,1,8
413,141,8047,1,8
101,141,8257,1,8
413,245,8467,1,8
205,141,8677,1,8
413,349,8886,1,8
101,245,9096,1,8
309,37,9306,1,8
205,245,9516,1,8
309,141,9725,1,8
101,349,9935,1,8
309,245,10145,1,8
205,349,10355,1,8
309,349,10565,1,8
101,37,10774,1,8
413,37,10984,1,8
205,37,11194,1,8
413,141,11404,1,8
101,141,11614,1,8
413,245,11823,1,8
205,141,12033,1,8
413,349,12243,1,8
205,245,12453,1,8
205,349,13502,1,8
309,349,13711,1,8
413,349,13921,1,8
413,141,14131,1,8
205,141,14341,1,8
101,141,14446,1,8
309,141,14760,1,8
101,245,14970,1,8
309,245,15180,1,8
413,245,15285,1,8
205,245,15600,1,8
413,37,15809,1,8
205,37,16019,1,8
101,37,16124,1,8
413,349,16439,1,8
101,349,16649,1,8
413,245,16858,1,8
101,245,17068,1,8
413,141,17278,1,8
101,37,17488,1,8
413,37,17907,1,8
101,349,18327,1,8
413,349,18746,1,8
205,245,19166,1,8
309,141,19481,1,8
205,37,19795,1,8
205,349,20215,1,8
309,349,20425,1,8
413,349,20635,1,8
413,141,20844,1,8
205,141,21054,1,8
101,141,21159,1,8
309,141,21474,1,8
101,245,21684,1,8
309,245,21893,1,8
413,245,21998,1,8
205,245,22313,1,8
413,37,22523,1,8
205,37,22732,1,8
101,37,22837,1,8
413,349,23152,1,8
101,349,23362,1,8
413,245,23572,1,8
101,245,23781,1,8
413,141,23991,1,8
101,141,24201,1,8
309,349,25040,1,8
205,349,25250,1,8
309,245,25460,1,8
205,245,25670,1,8
205,37,25879,1,8
309,141,26299,1,8
101,245,26718,1,8
413,349,27138,1,8
205,141,27558,1,8
309,37,27767,1,8
413,37,27872,1,8
413,245,28187,1,8
309,245,28397,1,8
205,349,28607,1,8
101,349,28711,1,8
101,37,29026,1,8
205,37,29236,1,8
309,141,29446,1,8
413,141,29551,1,8
205,349,30075,1,8
309,349,30495,1,8
205,245,30914,1,8
309,245,31334,1,8
205,141,31753,1,8
309,141,32173,1,8
205,37,34271,1,8
101,141,35109,1,8
101,245,35319,1,8
205,349,35529,1,8
309,349,35739,1,8
413,245,35948,1,8
413,141,36788,1,8
309,37,36998,1,8
205,37,37208,1,8
101,141,37418,1,8
101,245,37628,1,8
101,37,38467,1,8
205,37,38677,1,8
309,37,38886,1,8
413,37,39096,1,8
413,141,39306,1,8
309,141,39516,1,8
205,141,39725,1,8
101,141,39935,1,8
101,245,40145,1,8
413,349,40565,1,8
309,37,40984,1,8
101,245,41823,1,8
413,245,42033,1,8
205,349,42243,1,8
309,349,42453,1,8
205,245,42663,1,8
101,141,43502,1,8
413,141,43711,1,8
205,37,43921,1,8
309,37,44131,1,8
205,141,44341,1,8
101,245,44760,1,8
309,245,45180,1,8
413,349,45390,1,8
101,349,45600,1,8
413,245,45809,1,8
309,349,46019,1,8
101,37,46649,1,8
413,141,46858,1,8
101,349,47698,1,8
205,245,47907,1,8
309,245,48012,1,8
205,141,48222,1,8
309,141,48327,1,8
101,37,48746,1,8
413,141,48956,1,8
101,245,49166,1,8
413,349,49376,1,8
413,245,49795,1,8
101,141,50005,1,8
205,141,50110,1,8
413,37,50844,1,8
309,37,50949,1,8
205,37,51054,1,8
413,245,51264,1,8
101,245,51474,1,8
309,245,51684,1,8
205,141,51893,1,8
309,141,51998,1,8
101,37,52208,1,8
413,37,52523,1,8
205,349,52732,1,8
309,349,53047,1,8
413,349,53362,1,8
309,245,53572,1,8
413,37,54411,1,8
205,141,54621,1,8
309,141,54725,1,8
205,245,54935,1,8
309,245,55040,1,8
101,141,55460,1,8
413,245,55670,1,8
101,349,55880,1,8
413,349,56089,1,8
309,349,56509,1,8
205,245,56718,1,8
309,245,56823,1,8
101,141,57558,1,8
413,141,57767,1,8
101,37,58187,1,8
413,37,58397,1,8
205,37,58607,1,8
309,141,58816,1,8
205,141,58921,1,8
101,245,59236,1,8
413,245,59446,1,8
101,349,60076,1,8
205,349,60180,1,8
309,349,60285,1,8
205,141,61124,1,8
413,37,61439,1,8
309,245,61753,1,8
205,349,62187,1,8
309,349,62397,1,8
413,349,62607,1,8
413,141,62816,1,8
205,141,63026,1,8
101,141,63131,1,8
309,141,63445,1,8
101,245,63655,1,8
309,245,63865,1,8
413,245,63970,1,8
205,245,64285,1,8
413,37,64494,1,8
205,37,64704,1,8
101,37,64809,1,8
413,349,65124,1,8
101,349,65334,1,8
413,245,65543,1,8
101,245,65753,1,8
413,141,65963,1,8
101,37,66173,1,8
413,37,66592,1,8
101,349,67012,1,8
413,349,67431,1,8
205,245,67851,1,8
309,141,68166,1,8
205,37,68480,1,8
205,349,68900,1,8
309,349,69110,1,8
413,349,69320,1,8
413,141,69529,1,8
205,141,69739,1,8
101,141,69844,1,8
309,141,70159,1,8
101,245,70369,1,8
309,245,70578,1,8
413,245,70683,1,8
205,245,70998,1,8
413,37,71208,1,8
205,37,71417,1,8
101,37,71522,1,8
413,349,71837,1,8
101,349,72047,1,8
413,245,72257,1,8
101,245,72466,1,8
413,141,72676,1,8
101,141,72886,1,8
309,349,73725,1,8
205,349,73935,1,8
309,245,74145,1,8
205,245,74355,1,8
205,141,74564,1,8
413,37,74879,1,8
413,245,75194,1,8
205,349,75614,1,8
309,349,75823,1,8
413,349,76033,1,8
413,141,76243,1,8
205,141,76453,1,8
101,141,76558,1,8
309,141,76872,1,8
101,245,77082,1,8
309,245,77292,1,8
413,245,77397,1,8
205,245,77712,1,8
413,37,77921,1,8
205,37,78131,1,8
101,37,78236,1,8
413,349,78551,1,8
101,349,78761,1,8
413,245,78970,1,8
101,245,79180,1,8
413,141,79390,1,8
101,37,79600,1,8
413,37,80019,1,8
101,349,80439,1,8
413,349,80858,1,8
205,245,81278,1,8
309,141,81593,1,8
205,37,81907,1,8
205,349,82327,1,8
309,349,82537,1,8
413,349,82747,1,8
413,141,82956,1,8
205,141,83166,1,8
101,141,83271,1,8
309,141,83586,1,8
101,245,83796,1,8
309,245,84005,1,8
413,245,84110,1,8
205,245,84425,1,8
413,37,84635,1,8
205,37,84844,1,8
101,37,84949,1,8
413,349,85264,1,8
101,349,85474,1,8
413,245,85684,1,8
101,245,85893,1,8
413,141,86103,1,8
101,141,86313,1,8
309,349,87152,1,8
205,349,87362,1,8
309,245,87572,1,8
205,245,87782,1,8
205,37,87991,1,8
309,141,88411,1,8
101,245,88830,1,8
413,349,89250,1,8
205,141,89670,1,8
309,37,89879,1,8
413,37,89984,1,8
413,245,90299,1,8
309,245,90509,1,8
205,349,90719,1,8
101,349,90823,1,8
101,37,91138,1,8
205,37,91348,1,8
309,141,91558,1,8
413,141,91663,1,8
205,349,92187,1,8
309,349,92607,1,8
205,245,93026,1,8
309,245,93446,1,8
205,141,93865,1,8
309,141,94179,1,8
309,37,94494,1,8
