osu file format v6

[General]
AudioFilename: only my railgun.mp3
AudioLeadIn: 0
PreviewTime: 13487
Countdown: 0
SampleSet: Normal
StackLeniency: 0.7
Mode: 0
LetterboxInBreaks: 0

[Editor]
Bookmarks: 33417,61948,102228,124046,169361
DistanceSpacing: 0.899999976158142
BeatDivisor: 4
GridSize: 8

[Metadata]
Title:only my railgun (Full Ver.)
Artist:fripSide
Creator:S i R i R u
Version:Level 1
Source:To Aru Kagaku no Railgun
Tags:

[Difficulty]
HPDrainRate:2
CircleSize:3
OverallDifficulty:2
SliderMultiplier:1
SliderTickRate:1

[Events]
//Background and Video events
0,0,"BG.jpg"
//Break Periods
2,47890,52843
2,94673,101514
2,109987,114941
2,156980,168647
2,177120,183752
2,198938,203892
2,205652,210605
//Storyboard Layer 0 (Background)
//Storyboard Layer 1 (Fail)
//Storyboard Layer 2 (Pass)
//Storyboard Layer 3 (Foreground)
//Storyboard Sound Samples
//Background Colour Transformations
3,100,163,162,255

[TimingPoints]
697,419.58041958042,4,2,1,100,1,0
14021,-100,4,1,1,100,0,1
34056,-200,4,2,1,100,0,0
40965,-100,4,1,1,100,0,0
62693,-100,4,1,1,100,0,1
94676,-100,4,1,1,100,0,0
102962,-100,4,1,1,100,0,0
124780,-100,4,1,1,100,0,1
156773,-100,4,1,1,100,0,0
184885,-100,4,2,1,100,0,0
212158,-100,4,1,1,100,0,1
244046,-100,4,1,1,100,0,0

[Colours]
Combo1 : 240,80,80
Combo2 : 255,255,255
Combo3 : 175,221,254
Combo4 : 249,254,186

[HitObjects]
256,192,14123,1,4
168,192,14543,1,8
168,280,14962,2,0,B|48:280,2,100,0|8|0
256,280,16221,1,8
256,192,16641,2,0,B|256:72,1,100,0|8
344,80,17480,6,0,B|408:72|480:136|472:224,1,200,8|0
408,264,18738,1,8
320,264,19158,2,0,B|280:336,2,75,8|0|0
256,192,20207,1,0
256,104,20627,1,0
256,104,20836,5,4
168,104,21256,1,8
80,104,21676,2,0,B|88:168|152:192,1,100,0|8
168,104,22515,2,0,B|384:104,1,200,4|0
368,192,23773,1,0
312,264,24193,1,4
178,175,25032,6,8,B|191:103|318:100|332:189,2,200
178,175,27130,1,0
256,240,27550,6,0,B|256:352,2,100,12|8|0
256,144,28808,2,0,B|256:40,2,100,8|8|0
256,208,30067,12,4,32375
256,192,34263,5,4
144,296,35102,2,0,B|32:296,2,100,0|2|0
144,208,37200,1,0
144,120,37620,2,0,B|184:72|248:72,1,100,2|0
320,72,38878,1,0
320,160,39298,2,2,B|320:232,2,50
320,160,40557,1,0
192,192,40976,6,0,B|72:192,2,100,4|8|0
256,256,42235,1,8
320,192,42655,2,0,B|424:192,2,100,0|8|0
256,128,43913,5,8
256,128,44123,1,0
256,128,44333,1,0
256,216,44752,2,0,B|152:216|176:296|56:288,1,200,8|8
76,198,46011,1,0
76,107,46431,2,0,B|200:107,2,100,8|0|8
75,107,47690,1,4
56,192,54403,5,4
144,192,54822,2,0,B|208:192,2,50,8|0|0
144,280,55662,1,8
232,280,56081,2,0,B|296:280|328:328,2,100,0|8|0
144,280,57340,5,8
144,232,57550,1,0
144,184,57759,1,4
224,136,58179,1,8
312,136,58599,6,0,B|424:136,1,100,0|8
384,224,59438,2,0,B|384:328,1,100,0|8
296,296,60277,2,0,B|184:296,2,100,0|8|4
256,56,62794,6,0,B|256:160,1,100,0|8
168,128,63634,2,0,B|168:232,1,100,0|8
80,200,64473,2,0,B|80:304,2,100,0|8|0
168,200,65731,5,8
216,200,65941,1,8
264,200,66151,1,4
304,120,66571,2,0,B|384:168|360:264|288:288,2,200,8|8|8
304,120,68669,1,0
216,120,69088,1,8
160,192,69508,6,0,B|160:296,2,100,4|8|0
216,120,70766,1,8
304,120,71186,2,0,B|408:120,2,100,0|8|0
304,208,72445,5,8
280,248,72655,1,8
256,288,72864,2,0,B|144:288,2,100,4|8|0
344,288,74123,1,8
432,288,74543,1,0
256,208,74962,12,4,76221
152,192,76641,6,0,B|176:256|232:280,2,100,8|0|8
240,192,77899,2,0,B|344:192,1,100,0|8
384,192,78529,1,0
432,192,78738,1,0
432,280,79158,1,8
256,208,79578,12,0,80836
256,192,81256,6,0,B|256:288,2,75
256,104,82305,1,8
168,104,82724,1,8
168,104,82934,1,4
96,160,83354,1,8
96,248,83773,6,0,B|96:360,2,100,0|8|0
184,248,85032,2,0,B|184:136,2,100,8|0|8
272,248,86291,1,4
440,192,87130,5,0
440,192,87969,1,0
440,192,88808,1,0
352,192,89228,2,0,B|240:192,1,100,8|0
208,272,90067,5,8
160,272,90277,1,0
112,272,90487,1,0
136,184,90906,2,0,B|136:128,2,50,8|0|0
256,208,91745,12,4,94473
208,192,103074,6,0,B|128:192,2,75,4|0|8
256,192,103913,1,8
256,192,104333,1,0
352,192,104752,6,0,B|440:192,2,75,4|0|8
304,192,105592,1,8
256,112,106011,2,0,B|152:112,2,100,0|4|8
344,112,107270,5,0
392,120,107480,1,0
432,144,107690,1,8
456,184,107899,1,0
456,232,108109,1,0
368,232,108529,5,8
280,232,108948,1,0
280,232,109368,1,8
280,232,109787,1,4
256,64,116501,5,4
168,64,116920,2,0,B|168:184,1,100,8|0
168,208,117550,1,0
168,256,117759,1,8
256,232,118179,6,0,B|328:240|336:312,2,100,0|8|0
256,144,119438,1,8
296,120,119648,1,8
336,96,119857,1,4
424,96,120277,6,0,B|432:192|328:168|336:288,1,200,8|8
424,264,121536,1,4
424,264,121955,1,8
360,328,122375,1,0
272,328,122794,1,8
160,192,124892,6,0,B|160:256|224:272,1,100,4|8
302,268,125731,2,0,B|360:248|360:184,1,100,0|8
256,176,126571,6,0,B|256:72,3,100,0|8|0|8
256,76,128249,1,0
168,72,128669,2,0,B|96:168|176:280,1,200,8|8
248,264,129927,2,0,B|344:264,2,75
152,192,131186,2,0,B|80:192,2,50,0|0|0
256,128,132025,5,8
320,192,132445,1,0
256,256,132864,1,8
192,192,133284,1,0
256,128,133703,1,8
344,128,134123,6,0,B|464:128,2,100,0|8|0
344,216,135382,1,8
288,288,135801,1,0
240,288,136011,1,0
192,288,136221,1,8
120,344,136641,2,0,B|32:344,2,75
64,192,137899,5,0
64,192,138319,1,0
64,192,138738,6,0,B|184:192,1,100,8|0
120,272,139578,2,0,B|240:272,1,100,8|0
256,192,140417,1,8
256,144,140627,1,8
256,96,140836,1,0
344,120,141256,1,8
432,120,141676,6,0,B|424:184|368:200,1,100,4|8
344,120,142515,2,0,B|120:120,1,200
88,192,143773,1,0
88,280,144193,1,0
136,280,144403,1,8
184,280,144613,1,8
256,216,145032,6,0,B|256:112,2,100,4|8|0
344,216,146291,1,8
344,304,146710,2,0,B|408:304|432:232,2,100,0|8|0
256,304,147969,1,8
168,304,148389,1,4
72,192,149228,5,0
72,192,150067,1,4
160,192,150487,1,8
248,192,150906,2,0,B|352:192,2,100,0|8|4
248,104,152165,5,8
248,192,152585,2,0,B|248:304,2,100,0|8|0
160,192,153843,1,8
160,280,154263,1,0
160,192,154683,1,8
256,208,155102,12,4,156780
72,192,170207,6,0,B|128:192|128:248|224:240,1,150,4|8
256,240,171046,1,8
344,240,171466,1,0
344,152,171885,2,0,B|448:152,2,100,0|8|0
256,152,173144,5,8
224,120,173354,1,8
192,88,173564,1,4
104,88,173983,1,8
104,176,174403,6,0,B|104:296,1,100,0|8
184,232,175242,2,0,B|184:336,1,100,4|8
264,296,176081,1,0
264,296,176501,1,8
264,296,176920,1,4
256,192,185312,5,4
256,192,186990,1,0
256,192,187829,1,0
256,336,188669,1,2
256,128,190347,6,0,B|256:32,2,75
256,216,191396,1,0
256,216,191606,1,0
256,216,192025,1,2
168,192,193703,5,0
344,192,194543,1,0
168,192,195382,1,2
256,56,197060,5,0
256,56,197899,1,0
256,192,198738,1,4
256,192,205452,5,4
352,192,212165,6,0,B|352:128|288:112,1,100,4|8
210,116,213004,2,0,B|152:136|152:200,1,100,0|8
256,208,213843,6,0,B|256:312,3,100,0|8|0|8
256,308,215522,1,4
256,308,215941,1,0
256,208,216361,12,0,217829
256,80,218249,5,8
256,128,218459,1,8
256,176,218669,1,8
256,224,218878,1,4
168,224,219298,6,0,B|64:224,2,100,8|0|8
256,224,220557,1,0
344,224,220976,2,0,B|448:224,2,100,8|0|8
256,224,222235,1,4
256,56,223074,5,0
256,56,223494,1,0
256,208,223913,12,4,225592
256,192,226431,5,0
80,192,227270,1,0
256,192,228109,1,0
344,192,228529,2,0,B|400:192,2,50,8|0|4
304,272,229368,6,0,B|264:272|264:320|208:320,1,100,8|0
128,320,230207,1,0
128,232,230627,2,0,B|128:120,2,100,8|0|0
216,232,231885,5,8
256,232,232095,1,8
304,232,232305,1,0
368,168,232724,1,8
304,104,233144,5,0
256,104,233354,1,0
208,104,233564,1,8
144,168,233983,2,0,B|32:168,2,100,0|8|0
144,256,235242,1,8
232,256,235662,6,0,B|296:256|336:312,1,100,4|8
352,208,236501,2,0,B|408:232|424:296,2,100,0|8|0
352,208,237759,1,8
352,208,238179,1,0
264,208,238599,2,0,B|264:96,2,100,8|4|8
200,272,239857,6,0,B|88:272,1,100,0|8
136,192,240697,2,0,B|136:88,1,100,0|8
216,128,241536,2,0,B|328:128,1,100,0|8
256,208,242375,12,4,243843
