osu file format v14

[General]
AudioFilename: audio.mp3
AudioLeadIn: 0
PreviewTime: 93686
Countdown: 1
SampleSet: Normal
StackLeniency: 0.7
Mode: 0
LetterboxInBreaks: 0
WidescreenStoryboard: 1

[Editor]
Bookmarks: 23329,211899
DistanceSpacing: 1
BeatDivisor: 4
GridSize: 4
TimelineZoom: 2.699999

[Metadata]
Title:message (version2)
TitleUnicode:message (version2)
Artist:fripSide
ArtistUnicode:fripSide
Creator:KazamiYuuka
Version:Nanjolno
Source:
Tags:
BeatmapID:0
BeatmapSetID:697835

[Difficulty]
HPDrainRate:7
CircleSize:5
OverallDifficulty:8.5
ApproachRate:9.5
SliderMultiplier:2.1
SliderTickRate:1

[Events]
//Background and Video events
0,0,"13.jpg",0,0
//Break Periods
//Storyboard Layer 0 (Background)
//Storyboard Layer 1 (Fail)
//Storyboard Layer 2 (Pass)
//Storyboard Layer 3 (Foreground)
//Storyboard Sound Samples

[TimingPoints]
472,714.285714285714,4,1,1,5,1,0
472,-133.333333333333,4,1,1,5,0,0
1186,-200,4,1,1,5,0,0
1900,-200,4,1,1,5,0,0
3329,-133.333333333333,4,1,1,5,0,0
4400,-200,4,1,1,5,0,0
4579,-133.333333333333,4,1,1,5,0,0
6900,-200,4,1,1,5,0,0
8329,-133.333333333333,4,1,1,5,0,0
23329,-100,4,1,1,5,0,0
94043,357.142857142857,4,1,1,5,1,0
94757,-200,4,1,1,5,0,0
95114,-133.333333333333,4,1,1,5,0,0
95471,-100,4,1,1,5,0,0
95828,-133.333333333333,4,1,1,5,0,0
96185,-200,4,1,1,5,0,0
96543,-100,4,1,1,5,0,0
96900,-133.333333333333,4,1,1,5,0,0
97257,-200,4,1,1,5,0,0
97435,-100,4,1,1,5,0,0
97614,-200,4,1,1,5,0,0
97971,-100,4,1,1,5,0,0
98150,-200,4,1,1,5,0,0
98328,-133.333333333333,4,1,1,5,0,0
99043,-100,4,1,1,5,0,0
99757,-133.333333333333,4,1,1,5,0,0
100114,-100,4,1,1,5,0,0
100471,-200,4,1,1,5,0,0
100828,-133.333333333333,4,1,1,5,0,0
101185,-200,4,1,1,5,0,0
101543,-133.333333333333,4,1,1,5,0,0
101900,-200,4,1,1,5,0,0
102257,-133.333333333333,4,1,1,5,0,0
102614,-133.333333333333,4,1,1,5,0,0
102971,-200,4,1,1,5,0,0
103328,-100,4,1,1,5,0,0
103685,-200,4,1,1,5,0,0
104043,-133.333333333333,4,1,1,5,0,0
104757,-100,4,1,1,5,0,0
105471,-200,4,1,1,5,0,0
106185,-133.333333333333,4,1,1,5,0,0
106543,-200,4,1,1,5,0,0
106900,-133.333333333333,4,1,1,5,0,0
107257,-200,4,1,1,5,0,0
107614,-133.333333333333,4,1,1,5,0,0
108150,-200,4,1,1,5,0,0
108685,-133.333333333333,4,1,1,5,0,0
109043,-200,4,1,1,5,0,0
109757,-133.333333333333,4,1,1,5,0,0
110471,-100,4,1,1,5,0,0
111007,-133.333333333333,4,1,1,5,0,0
111543,-200,4,1,1,5,0,0
111900,-133.333333333333,4,1,1,5,0,0
112435,-200,4,1,1,5,0,0
112971,-133.333333333333,4,1,1,5,0,0
113328,-200,4,1,1,5,0,0
114043,-166.666666666667,4,1,1,5,0,0
114400,-133.333333333333,4,1,1,5,0,0
114757,-200,4,1,1,5,0,0
115114,-133.333333333333,4,1,1,5,0,0
115293,-200,4,1,1,5,0,0
115650,-133.333333333333,4,1,1,5,0,0
116900,-153.846153846154,4,1,1,5,0,0
117614,714.285714285714,4,1,1,5,1,0
117614,-133.333333333333,4,1,1,5,0,0
140471,357.142857142857,4,1,1,5,1,0
140471,-200,4,1,1,5,0,0
174756,-133.333333333333,4,1,1,5,0,0
189042,-133.333333333333,4,1,1,5,0,0

[HitObjects]
144,116,472,6,0,L|132:204,1,78.75
144,116,1186,6,0,L|152:136,1,13.125
224,128,1364,2,0,L|244:136,1,13.125
304,112,1543,2,0,L|320:112,1,13.125
368,60,1721,2,0,L|384:48,1,13.125
368,60,1900,2,0,L|356:148,1,78.75
240,312,3329,6,0,L|252:224,1,78.75
256,100,4400,6,0,L|252:112,1,13.125
176,300,4579,2,0,L|193:172,1,118.125004506111
256,100,5471,6,0,L|240:144,1,39.3750015020371
176,300,5829,2,0,L|180:256,1,39.3750015020371
256,100,6186,6,0,L|224:184,1,78.7500030040742
256,100,6900,6,0,L|256:124,1,13.125
296,144,7079,2,0,L|308:164,1,13.125
356,168,7257,2,0,L|372:168,1,13.125
280,240,7436,2,0,L|292:256,1,13.125
228,320,7614,2,0,L|228:340,1,13.125
284,352,7971,2,0,L|284:308,1,39.375
236,132,8329,6,0,L|236:208,1,59.0625022530557
296,368,8686,2,0,L|296:296,1,59.0625022530557
208,100,9043,6,0,L|208:172,1,59.0625022530557
320,384,9400,2,0,L|320:340,1,39.3750015020371
212,144,9757,6,0,L|204:168,1,19.6875007510186
208,100,9936,2,0,L|200:132,1,19.6875007510186
200,60,10114,2,0,L|196:84,1,19.6875007510186
184,24,10293,2,0,L|184:56,1,19.6875007510186
212,144,10471,6,0,L|212:192,1,39.3750015020371
212,240,10829,2,0,L|212:316,1,59.0625022530557
216,284,11186,6,0,L|208:308,1,19.6875007510186
212,240,11365,2,0,L|204:272,1,19.6875007510186
204,200,11543,2,0,L|200:224,1,19.6875007510186
188,164,11722,2,0,L|188:196,1,19.6875007510186
216,284,11900,6,0,L|216:352,1,59.0625022530557
216,384,12257,2,0,L|216:308,1,59.0625022530557
312,208,12614,2,0,L|312:284,1,59.0625022530557
312,360,12971,2,0,L|312:292,1,59.0625022530557
416,264,13329,6,0,L|416:332,1,59.0625022530557
416,352,13686,2,0,L|416:288,1,59.0625022530557
492,140,14043,2,0,L|492:208,1,59.0625022530557
492,320,14400,2,0,L|492:248,1,59.0625022530557
392,40,14757,6,0,L|392:128,1,78.7500030040742
392,80,15471,2,0,L|392:168,1,78.7500030040742
392,128,16186,2,0,L|392:212,1,78.7500030040742
392,285,16900,2,0,L|392:216,1,59.0625022530557
392,212,17257,2,0,L|392:288,1,59.0625022530557
296,212,17614,6,0,L|296:144,1,59.0625022530557
256,192,17971,2,0,L|256:120,1,59.0625022530557
220,168,18329,2,0,L|220:72,1,78.7500030040742
284,272,19043,6,0,L|284:200,1,59.0625022530557
232,348,19400,2,0,L|232:328,1,19.6875007510186
232,272,19579,2,0,L|232:196,1,59.0625022530557
168,360,19936,6,0,L|168:324,1,19.6875007510186
232,344,20114,2,0,L|232:312,1,19.6875007510186
168,304,20293,2,0,L|168:268,1,19.6875007510186
232,272,20471,2,0,L|232:212,1,59.0625022530557
300,320,20829,2,0,L|300:256,1,59.0625022530557
368,368,21186,6,0,L|368:304,1,59.0625022530557
300,320,21543,2,0,L|300:248,1,59.0625022530557
232,272,21900,2,0,L|232:180,1,78.7500030040742
72,24,23329,6,0,L|72:96,1,52.5
132,68,23686,2,0,L|132:144,1,52.5
192,128,24043,2,0,L|192:224,1,78.75
264,84,24400,2,0,L|264:160,1,52.5
152,336,24757,2,0,L|152:280,1,52.5
248,292,25114,2,0,L|248:224,1,52.5
336,248,25471,2,0,L|336:132,1,105
252,64,26186,6,0,L|252:156,1,78.75
332,336,26543,2,0,L|332:244,1,78.75
416,296,26900,2,0,L|416:200,1,78.75
216,104,27257,2,0,L|216:172,1,52.5
120,156,27614,2,0,L|120:280,1,105
216,360,28329,6,0,L|216:240,2,105
288,200,29400,2,0,L|288:256,1,52.5
356,156,29757,2,0,L|356:208,1,52.5
432,76,30114,2,0,L|432:164,1,78.75
432,284,30471,2,0,L|432:220,1,52.5
432,76,30829,2,0,L|432:132,1,52.5
428,284,31186,2,0,L|428:168,1,105
344,104,31900,6,0,L|344:264,1,157.5
264,144,32614,2,0,L|264:244,1,78.75
192,176,32971,2,0,L|192:272,1,78.75
116,220,33329,2,0,L|116:348,1,105
152,360,34043,6,0,L|152:280,1,78.75
152,360,34400,2,0,L|152:324,1,26.25
220,136,34757,2,0,L|220:232,1,78.75
320,180,35114,2,0,L|320:276,1,78.75
408,368,35471,2,0,L|408:304,1,52.5
408,368,35829,2,0,L|408:328,1,26.25
392,128,36186,2,0,L|392:224,1,78.75
392,128,36543,2,0,L|392:168,1,26.25
344,352,36900,2,0,L|344:232,1,105
424,96,37614,6,0,L|424:168,1,52.5
348,212,37971,2,0,L|348:152,1,52.5
248,64,38329,2,0,L|248:164,1,78.75
248,64,38686,2,0,L|248:96,1,26.25
256,216,39043,2,0,L|256:176,1,26.25
208,296,39400,2,0,L|208:236,1,52.5
256,124,39757,6,0,L|256:196,1,52.5
160,348,40114,2,0,L|160:248,1,78.75
100,316,40471,2,0,L|100:224,1,78.75
80,64,40829,2,0,L|80:160,1,78.75
136,92,41186,2,0,L|136:148,1,52.5
136,92,41543,2,0,L|136:132,1,26.25
192,344,41900,2,0,L|192:252,1,78.75
192,344,42257,2,0,L|192:304,1,26.25
272,112,42614,2,0,L|272:240,1,105
272,112,43329,6,0,L|272:224,1,105
272,112,44043,2,0,L|272:272,1,157.5
272,112,44757,2,0,L|272:284,1,157.5
192,352,45471,6,0,L|192:264,1,78.75
368,364,45829,2,0,L|284:364,1,78.75
64,208,46186,2,0,L|152:208,1,78.75
64,208,46543,2,0,L|4:208,1,52.5
172,276,46900,2,0,L|104:276,1,52.5
172,276,47257,2,0,L|208:276,1,26.25
64,208,47614,6,0,L|160:208,1,78.75
172,276,47971,2,0,L|100:276,1,52.5
64,208,48329,2,0,L|0:208,1,52.5
172,276,48686,2,0,L|216:276,1,26.25
280,168,49043,6,0,L|368:168,1,78.75
172,276,49400,2,0,L|228:276,1,52.5
280,168,49757,2,0,L|344:168,1,52.5
280,168,50114,2,0,L|236:168,1,26.25
364,88,50471,2,0,L|464:88,1,78.7500030040742
280,168,50829,2,0,L|188:168,1,78.75
400,88,51186,2,0,L|508:88,1,78.7500030040742
400,88,51543,2,0,L|309:88,1,78.75
416,112,51900,6,0,L|328:111,1,78.75
416,112,52257,2,0,L|476:112,1,52.5
308,43,52614,2,0,L|376:43,1,52.5
308,43,52971,2,0,L|272:43,1,26.25
416,112,53328,6,0,L|320:111,1,78.75
308,43,53685,2,0,L|380:43,1,52.5
416,112,54043,2,0,L|480:112,1,52.5
308,43,54400,2,0,L|264:43,1,26.25
200,152,54757,6,0,L|112:151,1,78.75
308,43,55114,2,0,L|252:43,1,52.5
200,152,55471,2,0,L|136:152,1,52.5
200,152,55828,2,0,L|244:151,1,26.25
116,231,56186,2,0,L|16:231,1,78.7500030040742
200,152,56543,2,0,L|292:152,1,78.75
80,231,56900,2,0,L|-28:231,1,78.7500030040742
80,231,57257,2,0,L|171:231,1,78.75
112,296,57614,6,0,L|203:296,1,78.75
184,352,57971,2,0,L|120:352,1,52.5
112,296,58329,2,0,L|164:296,1,52.5
184,352,58686,2,0,L|148:352,1,26.25
308,200,59043,6,0,L|208:200,1,78.75
184,352,59400,2,0,L|240:352,1,52.5
308,200,59757,2,0,L|252:200,1,52.5
184,352,60114,2,0,L|220:352,1,26.25
76,108,60471,6,0,L|192:108,1,78.7500030040742
184,352,60829,2,0,L|112:352,1,52.5
76,108,61186,2,0,L|128:108,1,52.5
184,352,61543,2,0,L|144:352,1,26.25
332,80,61900,2,0,L|236:80,1,78.7500030040742
184,352,62257,2,0,L|264:352,1,78.75
284,80,62614,2,0,L|192:80,1,78.7500030040742
224,352,62971,2,0,L|292:352,1,52.5
320,268,63329,6,0,L|428:268,1,78.7500030040742
244,212,63686,2,0,L|300:212,1,52.5
320,268,64043,2,0,L|376:268,1,52.5
244,212,64400,2,0,L|292:212,1,26.25
368,80,64757,6,0,L|448:80,1,78.75
288,152,65114,2,0,L|376:152,1,78.75
184,240,65471,2,0,L|288:240,1,78.7500030040742
356,192,65829,2,0,L|268:192,1,78.75
80,324,66186,6,0,L|180:324,1,78.75
252,288,66543,2,0,L|292:268,1,26.25
368,216,66900,2,0,L|376:168,1,26.25
320,60,67257,2,0,L|320:108,1,26.25
288,184,67614,2,0,L|300:212,1,26.25
308,356,67971,2,0,L|292:316,1,26.25
224,108,68329,6,0,L|232:132,1,17.5
144,264,69043,6,0,P|160:232|152:200,1,52.5
128,68,69400,2,0,P|120:84|120:96,1,26.25
128,16,69579,2,0,P|132:32|128:56,1,26.25
104,176,69757,2,0,P|96:232|104:264,1,78.75
148,368,70114,2,0,P|152:316|144:280,1,78.75
48,264,70471,6,0,P|24:232|20:212,1,52.5
160,148,70829,2,0,P|176:128|172:112,1,26.25
168,224,71007,2,0,P|152:204|156:192,1,26.25
176,368,71186,2,0,P|192:320|188:284,1,78.75
208,180,71543,2,0,P|264:164|288:184,1,78.75
356,256,71900,6,0,P|356:308|336:340,1,78.75
264,332,72257,2,0,L|224:332,2,26.25
424,328,72614,2,0,L|524:328,1,78.75
408,148,72971,2,0,P|392:208|408:236,1,78.75
408,28,73329,2,0,P|428:64|412:112,1,78.75
320,112,73686,2,0,L|252:112,1,52.5
468,104,74043,2,0,P|456:143|411:166,1,78.75
276,160,74400,2,0,L|180:160,1,78.75
28,68,74757,6,0,P|72:64|120:84,1,78.75
216,240,75114,2,0,P|204:272|192:280,1,26.25
108,276,75293,2,0,P|96:256|104:240,1,26.25
184,160,75471,2,0,P|248:168|280:152,1,78.75
352,152,75829,2,0,L|352:68,1,78.75
208,8,76186,6,0,L|208:88,1,78.75
272,296,76543,2,0,L|272:252,1,26.25
208,8,76721,2,0,L|208:48,1,26.25
208,140,76900,2,0,L|208:236,1,78.75
208,360,77257,2,0,L|208:272,1,78.75
156,200,77614,6,0,B|104:184|104:184|60:200|24:192,1,131.25
28,104,78150,2,0,P|36:128|32:144,1,26.25
28,240,78329,2,0,L|24:300,1,52.5
196,360,78686,6,0,L|192:328,1,26.25
144,280,78864,2,0,L|152:248,1,26.25
112,180,79043,2,0,L|120:160,2,17.5
192,312,79221,6,0,L|200:276,1,26.25
332,252,79400,2,0,L|316:216,1,26.25
416,192,79579,2,0,L|404:156,1,26.25
44,108,79757,6,0,L|56:72,1,26.25
500,120,79936,2,0,L|488:80,1,26.25
448,276,80114,2,0,L|420:184,1,78.75
232,56,80471,6,0,L|256:148,1,78.75
232,56,80829,2,0,L|240:88,1,26.25
251,132,81007,2,0,L|260:164,1,26.25
276,224,81186,2,0,L|304:324,1,78.75
228,312,81543,6,0,L|244:280,1,26.25
128,232,81721,2,0,L|128:188,1,26.25
16,300,81900,2,0,L|4:264,1,26.25
128,232,82079,2,0,L|128:272,1,26.25
228,312,82257,2,0,L|208:348,1,26.25
368,288,82436,2,0,L|344:248,1,26.25
488,192,82614,6,0,L|456:252,2,52.5
436,112,83150,2,0,L|416:148,1,26.25
328,240,83329,2,0,P|316:196|336:156,1,78.75
440,60,83686,6,0,L|472:96,1,26.25
468,276,83864,2,0,L|436:296,1,26.25
112,188,84043,2,0,L|212:188,1,78.75
64,116,84400,6,0,L|92:116,1,26.25
4,56,84579,2,0,L|44:56,1,26.25
64,116,84757,2,0,L|104:116,1,26.25
112,188,84936,2,0,L|148:188,1,26.25
212,256,85114,2,0,L|176:256,1,26.25
152,340,85293,2,0,L|116:340,1,26.25
212,256,85471,2,0,L|184:256,1,26.25
288,168,85650,6,0,L|260:168,1,26.25
36,268,85829,2,0,L|72:304,1,26.25
88,40,86007,2,0,L|48:64,1,26.25
160,176,86186,2,0,L|240:176,1,78.75
376,72,86543,2,0,P|380:108|372:128,1,52.5
328,332,86900,2,0,P|320:276|332:244,1,78.75
416,128,87257,6,0,L|392:152,1,26.25
384,300,87436,2,0,L|368:252,1,26.25
336,56,87614,2,0,L|320:104,1,26.25
288,336,87793,2,0,L|288:296,1,26.25
232,12,87971,2,0,L|236:56,1,26.25
192,360,88150,2,0,L|196:320,1,26.25
204,152,88329,6,0,P|260:140|288:156,1,78.75
332,332,88686,2,0,L|288:320,1,26.25
152,220,88864,2,0,L|192:232,1,26.25
332,332,89043,2,0,L|248:308,1,78.75
108,168,89400,2,0,L|140:160,1,26.25
352,80,89579,2,0,L|312:92,1,26.25
108,168,89757,2,0,L|200:144,1,78.75
392,208,90114,6,0,L|320:180,1,52.5
180,184,90471,2,0,L|216:192,1,26.25
108,144,90650,2,0,L|80:156,1,26.25
224,284,90829,2,0,L|264:268,1,26.25
16,112,91007,2,0,L|-4:144,1,26.25
144,224,91186,6,0,L|176:220,1,26.25
236,240,91364,2,0,L|268:224,1,26.25
328,232,91543,2,0,L|352:200,1,26.25
416,180,91721,2,0,L|416:148,1,26.25
484,120,91900,2,0,L|456:24,1,78.75
260,16,92257,6,0,L|272:52,1,26.25
368,324,92436,2,0,L|340:240,1,78.75
156,76,92793,6,0,L|168:116,1,26.25
232,328,92971,2,0,L|204:240,1,78.75
84,152,93329,2,0,L|96:188,1,26.25
140,332,93686,2,0,L|128:300,1,26.25
332,148,94043,6,0,P|336:196|316:220,1,52.5
323,98,94221,2,0,P|327:142|355:162,1,52.5
464,272,94400,2,0,P|460:223|480:199,1,52.5
473,321,94578,2,0,P|469:277|441:257,1,52.5
288,160,94757,6,0,B|220:168|220:168|208:184,1,78.75
156,212,95114,2,0,B|200:208|200:208|220:168|220:168|256:164,1,118.125004506111
128,104,95471,2,0,P|76:112|48:100,1,52.5
176,272,95650,2,0,P|224:264|252:272,1,52.5
440,340,95828,2,0,P|428:352|404:340,1,39.3750015020371
312,216,96007,2,0,P|320:200|348:196,1,39.3750015020371
332,296,96185,6,0,B|316:256|316:256|320:228|312:212|300:208,1,78.75
216,16,96543,2,0,B|228:40|228:40|236:72,1,52.5
272,328,96721,2,0,B|260:288|260:288|264:252,1,52.5
236,64,96900,2,0,B|232:116|232:116|252:152|252:152|256:188,1,118.125004506111
120,248,97257,6,0,P|152:236|164:244,1,26.25
248,360,97435,2,0,L|196:336,1,52.5
372,192,97614,2,0,L|300:224,1,78.75
132,316,97971,2,0,L|204:284,1,52.5
360,360,98150,2,0,P|360:332|356:320,1,26.25
348,76,98328,2,0,B|320:112|320:112|320:144|288:180,1,118.125004506111
192,220,98685,6,0,P|120:224|76:192,1,118.125004506111
148,48,99043,2,0,L|120:148,1,52.5
344,356,99221,2,0,L|329:305,1,52.5
96,240,99400,2,0,L|68:340,1,52.5
292,164,99578,2,0,L|277:113,1,52.5
88,32,99757,2,0,L|127:159,1,118.125004506111
224,352,100114,6,0,P|228:312|224:264,1,52.5
172,208,100293,2,0,P|140:216|112:200,1,52.5
416,152,100471,2,0,P|468:148|504:164,1,78.75
360,352,100828,2,0,L|352:308,1,39.3750015020371
360,224,101007,2,0,P|392:215|420:231,1,39.3750015020371
116,280,101185,2,0,P|64:284|28:268,1,78.75
144,96,101543,6,0,P|148:116|144:136,1,39.3750015020371
144,16,101721,2,0,P|136:48|144:64,1,39.3750015020371
368,240,101900,2,0,P|424:244|464:232,1,78.75
380,52,102257,2,0,P|372:84|376:88,1,39.3750015020371
472,160,102435,2,0,P|480:124|464:112,1,39.3750015020371
268,88,102614,2,0,L|124:92,1,118.125004506111
24,312,102971,6,0,L|108:308,1,78.75
368,216,103328,2,0,B|368:136|336:108|336:108|272:128,1,157.5
244,176,103685,2,0,B|276:128|276:128|312:112,1,78.75
440,104,104043,2,0,P|408:120|388:112,1,39.3750015020371
240,92,104221,2,0,P|216:72|216:48,1,39.3750015020371
364,40,104400,6,0,P|372:68|364:84,1,39.3750015020371
360,232,104578,2,0,P|328:256|312:256,1,39.3750015020371
192,312,104757,2,0,P|152:296|152:276,1,52.5
124,80,104935,6,0,P|136:112|132:128,1,52.5
200,224,105114,2,0,P|156:244|144:240,1,52.5
88,352,105293,2,0,P|60:320|60:312,1,52.5
72,32,105471,2,0,P|92:80|80:112,1,78.75
40,284,105828,2,0,L|121:271,1,78.75
436,128,106185,6,0,L|304:152,1,118.125004506111
328,384,106543,2,0,B|356:340|356:340|344:304,1,78.75
224,64,106900,2,0,L|200:100,1,39.3750015020371
232,280,107078,2,0,L|208:228,1,39.3750015020371
104,172,107257,2,0,P|56:176|20:156,1,78.75
244,156,107614,6,0,P|256:168|256:192,1,39.3750015020371
204,280,107793,2,0,P|192:268|192:244,1,39.3750015020371
288,56,107971,2,0,P|300:68|300:92,1,39.3750015020371
148,352,108150,2,0,P|136:340|136:317,1,26.25
352,192,108328,2,0,P|400:196|436:176,1,78.75
232,264,108685,6,0,L|108:252,1,118.125004506111
320,56,109043,2,0,L|400:64,1,78.75
424,336,109400,2,0,L|324:324,1,78.75
148,176,109757,2,0,L|268:192,1,118.125004506111
440,292,110114,6,0,L|383:285,1,39.3750015020371
380,148,110293,2,0,L|332:140,1,39.3750015020371
88,148,110471,2,0,L|140:157,1,52.5
20,252,110650,2,0,L|76:260,1,52.5
256,228,110828,2,0,L|172:216,1,52.5
100,344,111007,2,0,L|152:352,1,39.3750015020371
464,288,111185,2,0,L|332:268,1,118.125004506111
320,336,111543,6,0,L|225:318,1,78.75
80,268,111900,2,0,B|68:208|68:208|80:176|84:160|80:136,1,118.125004506111
76,32,112257,2,0,B|88:48|88:48|88:72,1,39.3750015020371
56,352,112435,2,0,B|52:332|52:332|56:312,1,26.25
256,284,112614,6,0,P|180:284|176:280,1,78.75
260,56,112971,2,0,B|276:96|276:96|264:124|280:160|276:188,1,118.125004506111
308,320,113328,2,0,P|348:336|380:304,1,78.75
212,48,113685,2,0,P|172:32|140:64,1,78.75
108,132,114043,2,0,L|128:176,1,31.4999990386963
96,160,114221,2,0,L|116:200,1,31.4999990386963
196,348,114400,6,0,L|177:311,1,39.3750015020371
216,316,114578,2,0,L|192:272,1,39.3750015020371
220,108,114757,2,0,P|268:116|304:108,1,78.75
104,160,115114,6,0,L|56:176,1,39.3750015020371
288,132,115293,2,0,P|344:116|372:92,1,78.75
80,192,115650,6,0,L|36:216,1,39.3750015020371
356,144,115828,2,0,P|392:124|412:72,1,78.7500030040742
224,104,116185,6,0,P|216:128|220:164,1,39.3750015020371
176,128,116364,2,0,P|176:152|184:172,1,39.3750015020371
148,172,116542,2,0,P|156:192|168:204,1,39.3750015020371
256,240,116900,6,0,L|236:272,1,34.1249984378815
260,284,117078,2,0,L|224:304,1,34.1249984378815
248,328,117257,2,0,L|208:344,1,34.1249984378815
296,60,117614,6,0,L|296:88,1,19.6875007510186
340,128,117792,2,0,L|340:164,2,19.6875007510186
392,192,118149,2,0,L|392:224,1,19.6875007510186
340,128,118506,2,0,L|340:160,1,19.6875007510186
392,192,118685,2,0,L|392:224,1,19.6875007510186
456,248,118864,2,0,L|456:344,2,78.7500030040742
60,48,120292,6,0,L|60:80,2,19.6875007510186
116,96,120649,2,0,L|116:152,1,39.3750015020371
172,156,121006,2,0,L|172:200,1,39.3750015020371
116,100,121364,6,0,L|116:128,1,19.6875007510186
172,156,121542,2,0,L|172:180,1,19.6875007510186
240,216,121721,2,0,L|240:248,1,19.6875007510186
128,352,121899,2,0,L|128:296,2,39.3750015020371
208,304,122435,6,0,L|208:272,1,19.6875007510186
280,272,122614,2,0,L|280:244,1,19.6875007510186
344,232,122792,2,0,L|344:204,1,19.6875007510186
232,64,122971,2,0,L|232:100,1,19.6875007510186
292,104,123149,2,0,L|292:136,1,19.6875007510186
224,360,123328,6,0,L|224:304,2,39.3750015020371
312,324,123864,2,0,L|312:252,1,59.0625022530557
272,124,124221,2,0,L|272:160,1,19.6875007510186
224,144,124399,2,0,L|224:176,1,19.6875007510186
176,164,124578,2,0,L|176:284,1,118.125004506111
152,124,126006,6,0,L|152:136,1,9.84375037550928
176,124,126096,2,0,L|176:140,1,9.84375037550928
200,124,126185,2,0,L|200:180,2,39.3750015020371
148,300,126721,2,0,L|148:252,1,39.3750015020371
184,168,127078,6,0,L|184:196,1,19.6875007510186
208,168,127256,2,0,L|208:196,1,19.6875007510186
232,168,127435,2,0,L|232:204,1,19.6875007510186
180,352,127614,2,0,L|180:300,2,39.3750015020371
304,304,128149,6,0,L|304:288,1,9.84375037550928
328,292,128239,2,0,L|328:280,1,9.84375037550928
356,280,128328,2,0,L|356:232,1,39.3750015020371
320,88,128685,2,0,L|320:116,1,19.6875007510186
280,120,128864,2,0,L|280:144,1,19.6875007510186
420,228,129042,6,0,L|420:172,2,39.3750015020371
136,176,129578,2,0,L|136:240,1,59.0625022530557
72,312,129935,2,0,L|72:280,1,19.6875007510186
72,172,130114,2,0,L|72:208,1,19.6875007510186
72,312,130292,2,0,L|72:172,1,137.81250525713
176,136,131721,6,0,L|176:160,2,19.6875007510186
260,212,132078,2,0,L|260:256,1,39.3750015020371
312,332,132435,2,0,L|312:264,1,59.0625022530557
256,108,132792,6,0,L|256:144,1,19.6875007510186
284,240,132971,2,0,L|284:216,1,19.6875007510186
256,108,133149,2,0,L|256:136,1,19.6875007510186
284,240,133328,2,0,L|284:184,1,39.3750015020371
356,112,133685,6,0,L|356:144,1,19.6875007510186
432,260,133864,2,0,L|432:232,1,19.6875007510186
356,112,134042,2,0,L|356:164,2,39.3750015020371
432,148,134578,6,0,L|432:180,1,19.6875007510186
376,340,134756,2,0,L|376:292,1,39.3750015020371
288,228,135114,2,0,L|288:252,1,19.6875007510186
208,312,135292,2,0,L|208:276,1,19.6875007510186
176,304,135471,2,0,L|176:220,1,78.7500030040742
112,108,136006,6,0,L|112:136,1,19.6875007510186
104,296,136185,2,0,L|104:248,1,39.3750015020371
172,280,136542,2,0,L|172:244,1,19.6875007510186
192,88,136721,2,0,L|192:120,1,19.6875007510186
228,104,136899,2,0,L|228:192,1,78.7500030040742
296,296,137435,6,0,L|296:264,1,19.6875007510186
336,148,137614,2,0,L|336:200,1,39.3750015020371
360,224,137971,6,0,L|360:252,1,19.6875007510186
376,336,138149,2,0,L|376:264,1,59.0625022530557
408,200,138506,6,0,L|408:180,1,19.6875007510186
392,92,138685,2,0,L|392:168,1,59.0625022530557
344,136,139221,6,0,L|344:224,1,78.7500030040742
252,288,139756,2,0,L|252:204,1,78.7500030040742
208,140,140471,6,0,B|168:152|116:140|116:140|60:156|16:132,1,183.75
48,180,141185,2,0,P|72:220|64:264,1,78.75
24,56,141542,2,0,P|16:84|32:116,1,52.5
172,196,141899,6,0,P|256:176|252:80,1,183.75
272,48,142613,2,0,L|368:48,1,78.75
224,184,142971,2,0,L|224:136|224:112,1,52.5
180,80,143328,6,0,P|144:104|104:92,1,78.75
276,24,143685,2,0,P|232:28|208:64,1,78.75
212,192,144042,2,0,L|212:288,1,78.75
328,164,144399,2,0,P|288:184|256:160,1,78.75
440,132,144756,6,0,P|416:112|360:132,1,78.75
360,124,145113,2,0,P|368:104|368:80,1,26.25
248,284,145471,2,0,B|280:272|280:272|316:284|344:280,1,78.75
332,284,145828,2,0,P|328:288|328:308,1,26.25
336,220,146185,6,0,B|352:148|328:84|328:84|304:88|304:88|268:88,1,183.75
208,96,146899,2,0,P|152:80|148:48,1,78.75
312,100,147256,2,0,L|404:100,1,78.75
240,208,147613,6,0,L|176:208,1,52.5
296,336,147971,2,0,P|308:288|292:252,1,78.75
344,256,148328,2,0,P|380:268|408:252,1,52.5
300,48,148685,2,0,P|292:112|304:132,1,78.75
440,308,149042,6,0,P|460:228|364:216,1,183.75
200,312,149756,2,0,L|292:312,1,78.75
144,196,150113,2,0,P|140:240|152:256,1,52.5
144,148,150471,6,0,L|48:148,1,78.75
32,120,150828,2,0,L|104:120,1,52.5
236,144,151185,2,0,L|336:144,1,78.75
360,128,151542,2,0,L|304:128,1,52.5
96,304,151899,6,0,L|304:304,1,183.75
404,304,152613,2,0,P|444:288|460:252,1,78.75
460,196,152971,2,0,L|512:196,1,52.5
368,48,153328,6,0,P|380:88|356:128,1,78.75
308,140,153685,2,0,L|252:140,1,52.5
104,212,154042,2,0,B|140:212|140:212|192:232|204:216,1,78.75
100,244,154399,2,0,B|52:248|52:248|12:236,1,78.75
112,56,154756,6,0,P|120:104|112:148,1,78.75
144,40,155113,2,0,P|188:56|236:36,1,78.75
304,48,155471,2,0,L|304:-8,1,52.5
280,212,155828,2,0,P|264:148|276:124,1,78.75
452,284,156185,6,0,L|356:284,1,78.75
144,264,156542,2,0,L|228:264,1,78.75
400,200,156899,2,0,L|312:200,1,78.75
100,192,157256,2,0,L|184:192,1,78.75
320,152,157613,6,0,P|392:108|332:60,1,183.75
337,59,158328,2,0,P|368:60|392:48,1,52.5
280,40,158685,2,0,P|228:48|192:68,1,78.75
188,248,159042,6,0,P|200:196|184:164,1,78.75
108,128,159399,2,0,P|64:124|24:156,1,78.75
24,340,159756,2,0,P|12:288|28:256,1,78.75
104,220,160113,2,0,P|148:216|188:248,1,78.75
436,104,160471,6,0,P|384:132|352:112,1,78.75
304,112,160828,2,0,L|304:28,1,78.75
304,33,161185,2,0,L|304:72,1,26.25
172,312,161542,6,0,L|260:312,1,78.75
340,308,161899,2,0,P|348:256|340:220,1,78.75
292,208,162256,2,0,L|256:208,1,26.25
156,208,162613,6,0,P|144:172|152:148,1,52.5
144,24,162971,2,0,B|160:64|160:64|156:72|152:92|152:120,1,78.75
108,176,163328,6,0,P|48:184|24:172,1,78.75
24,132,163685,2,0,L|20:96,1,26.25
24,248,163863,2,0,L|28:216,1,26.25
160,152,164042,2,0,P|224:144|248:156,1,78.75
260,220,164399,2,0,L|260:288,1,52.5
204,312,164756,6,0,B|172:304|172:304|152:316|124:312,1,78.75
64,304,165113,2,0,L|24:304,1,26.25
148,332,165292,2,0,L|108:332,1,26.25
168,324,165471,2,0,B|200:316|200:316|252:328|268:320,1,78.75
24,340,165828,2,0,L|96:340,1,52.5
340,56,166185,6,0,P|340:124|344:132,1,78.75
416,176,166542,2,0,L|464:176,1,26.25
296,200,166721,2,0,L|268:200,2,26.25
420,336,167256,2,0,P|428:280|412:248,1,78.75
272,248,167613,6,0,L|184:248,1,78.75
112,196,167971,2,0,P|105:151|118:126,1,52.5
260,108,168328,2,0,L|348:108,1,78.75
436,120,168685,2,0,P|442:164|429:189,1,52.5
332,352,169042,6,0,P|323:290|340:255,1,78.75
388,240,169399,2,0,L|484:240,1,78.75
196,344,169756,2,0,L|268:344,1,52.5
484,96,170113,2,0,L|400:96,1,78.75
136,96,170471,6,0,P|112:64|132:36,1,78.75
216,248,170828,2,0,P|240:216|220:188,1,78.75
16,240,171185,2,0,L|112:240,1,78.75
296,348,171542,2,0,L|204:348,1,78.75
396,348,171899,6,0,B|444:340|444:340|484:352|512:348|512:348|484:340,1,131.25
248,320,172435,2,0,L|208:320,1,26.25
340,264,172613,2,0,L|420:264,1,78.75
192,280,172971,6,0,B|162:275|162:275|137:282|120:280|120:280|137:275,1,78.75
344,212,173328,2,0,L|312:212,1,26.25
240,280,173506,2,0,L|276:280,1,26.25
184,88,173685,2,0,L|216:88,1,26.25
344,212,173863,2,0,L|308:212,1,26.25
408,8,174042,2,0,L|364:8,1,26.25
184,88,174221,2,0,L|228:88,1,26.25
312,340,174399,2,0,P|316:292|304:252,1,78.75
184,224,174756,6,0,B|140:208|140:208|96:224|44:212,1,118.125004506111
36,156,175113,2,0,P|36:120|60:108,1,39.3750015020371
112,84,175292,2,0,P|136:84|152:104,1,39.3750015020371
56,352,175471,2,0,P|36:304|44:236,1,118.125004506111
152,168,175828,6,0,P|180:168|196:176,1,39.3750015020371
248,244,176006,2,0,P|264:264|264:288,1,39.3750015020371
256,160,176185,2,0,P|296:152|304:140,1,39.3750015020371
360,104,176363,2,0,P|380:80|384:64,1,39.3750015020371
376,224,176542,2,0,P|392:236|400:256,1,39.3750015020371
460,304,176721,2,0,P|468:336|456:356,1,39.3750015020371
428,232,176899,2,0,P|420:196|436:136,2,78.7500030040742
480,240,177435,2,0,L|520:240,1,39.3750015020371
304,264,177613,6,0,L|168:264,1,118.125004506111
176,312,177971,2,0,L|176:364,1,39.3750015020371
256,188,178149,2,0,L|256:128,1,39.3750015020371
244,72,178328,2,0,P|304:44|352:72,1,118.125004506111
184,180,178686,6,0,L|184:124,1,39.3750015020371
280,244,178863,2,0,L|280:300,1,39.3750015020371
144,156,179043,2,0,L|144:116,1,39.3750015020371
320,272,179222,2,0,L|320:320,1,39.3750015020371
104,132,179400,2,0,L|104:88,1,39.3750015020371
360,296,179578,2,0,L|360:348,1,39.3750015020371
364,192,179756,2,0,L|364:100,1,78.7500030040742
288,100,180113,6,0,P|224:124|192:88,1,118.125004506111
60,192,180471,2,0,P|124:168|168:204,1,118.125004506111
164,264,180828,2,0,L|164:344,1,78.7500030040742
164,264,181185,2,0,L|164:140,1,118.125004506111
204,68,181542,6,0,P|228:60|260:76,1,39.3750015020371
328,192,181721,2,0,P|304:200|272:184,1,39.3750015020371
365,197,181899,2,0,P|341:189|309:205,1,39.3750015020371
166,62,182078,2,0,P|190:70|222:54,1,39.3750015020371
128,67,182256,2,0,P|152:59|184:75,1,39.3750015020371
402,191,182435,2,0,P|378:199|346:183,1,39.3750015020371
408,36,182613,2,0,P|404:88|416:136,1,78.7500030040742
496,344,182971,2,0,P|500:292|488:244,1,78.7500030040742
340,256,183328,6,0,B|304:280|304:280|256:280|256:280|224:304,1,118.125004506111
184,344,183685,2,0,B|208:320|208:320|240:320,1,59.0625022530557
328,352,183863,2,0,L|288:352,1,39.3750015020371
132,324,184042,2,0,B|64:324|64:324|88:304|88:304|128:304,1,118.125004506111
368,216,184399,6,0,B|376:272|356:296|356:296|312:296,1,118.125004506111
140,160,184756,2,0,P|144:188|168:200,1,39.3750015020371
184,280,184935,2,0,P|188:244|172:224,1,39.3750015020371
138,44,185113,2,0,B|146:88|146:88|130:120|134:120|142:180,1,118.125004506111
280,56,185470,6,0,L|232:56,1,39.3750015020371
348,116,185649,2,0,L|296:116,1,39.3750015020371
164,224,185828,2,0,L|224:224,1,39.3750015020371
76,152,186006,2,0,L|120:152,1,39.3750015020371
256,192,186185,2,0,B|264:245|260:245|260:245|220:271|220:271|193:235,1,118.125004506111
192,112,186542,6,0,P|204:96|216:120,1,39.3750015020371
288,332,186720,2,0,B|280:276|280:276|304:232|300:228|296:208,1,118.125004506111
280,60,187078,6,0,P|272:104|288:112,1,39.3750015020371
432,284,187256,2,0,P|468:240|424:184,1,118.125004506111
24,144,187613,2,0,B|76:176|76:176|128:168|124:168|124:168|156:176,1,118.125004506111
280,280,187970,6,0,P|300:312|296:332,1,39.3750015020371
216,200,188149,2,0,P|196:168|200:148,1,39.3750015020371
264,124,188328,2,0,P|272:87|289:75,1,39.3750015020371
188,328,188506,2,0,P|179:364|162:376,1,39.3750015020371
72,332,188685,2,0,P|46:359|25:360,1,39.3750015020371
368,128,188864,2,0,P|393:100|414:99,1,39.3750015020371
328,352,189042,6,0,B|300:296|300:296|316:272|304:208,1,118.125004506111
280,32,189399,2,0,B|272:68|272:68|288:120|284:156,1,118.125004506111
160,256,189756,2,0,P|136:236|128:200,1,39.3750015020371
264,248,189935,2,0,P|288:224|288:200,1,39.3750015020371
160,328,190113,2,0,P|176:304|164:280,1,39.3750015020371
268,344,190292,2,0,P|256:308|260:280,1,39.3750015020371
440,60,190470,6,0,P|448:124|396:128,1,118.125004506111
120,60,190828,2,0,L|172:56,1,39.3750015020371
256,168,191006,2,0,L|204:172,1,39.3750015020371
336,160,191185,2,0,B|376:156|376:156|408:164|408:168|464:160,1,118.125004506111
180,104,191542,6,0,P|120:112|64:84,1,118.125004506111
20,216,191899,2,0,B|52:288|52:288|40:344,1,118.125004506111
144,212,192256,2,0,B|208:220|208:220|264:208|264:208,1,118.125004506111
352,128,192613,2,0,P|360:84|360:80,1,39.3750015020371
292,192,192792,2,0,P|284:236|284:240,1,39.3750015020371
388,52,192970,2,0,P|408:48|432:56,1,39.3750015020371
256,268,193149,2,0,P|236:272|212:263,1,39.3750015020371
16,48,193328,6,0,P|104:32|136:52,1,118.125004506111
40,324,193685,2,0,P|32:272|36:256,1,39.3750015020371
125,43,193863,2,0,P|129:75|125:91,1,39.3750015020371
128,328,194042,2,0,L|8:328,1,118.125004506111
228,296,194399,6,0,B|264:292|264:292|296:300,1,39.3750015020371
284,88,194578,2,0,B|248:92|248:92|216:84,1,39.3750015020371
240,328,194756,2,0,L|360:320,1,118.125004506111
272,56,195113,2,0,L|152:64,1,118.125004506111
188,324,195470,2,0,B|224:320|224:320|256:328,1,39.3750015020371
324,60,195649,2,0,B|288:64|288:64|256:56,1,39.3750015020371
156,360,195828,6,0,B|192:356|192:356|224:364,1,39.3750015020371
356,24,196006,2,0,B|320:28|320:28|288:20,1,39.3750015020371
160,76,196185,2,0,P|160:108|168:124,1,39.3750015020371
208,168,196319,2,0,B|244:164|244:164|276:172,2,39.3750015020371
272,312,196542,6,0,P|272:280|264:264,1,39.3750015020371
124,256,196676,2,0,B|88:260|88:260|56:252,2,39.3750015020371
192,216,196899,2,0,P|212:128|196:112,1,118.125004506111
56,0,197256,6,0,P|36:88|51:104,1,118.125004506111
272,128,197613,2,0,B|328:104|328:104|384:120|416:120,1,118.125004506111
232,292,197970,2,0,P|216:232|232:168,1,118.125004506111
472,8,198328,2,0,P|488:68|464:132,1,118.125004506111
344,276,198685,6,0,P|308:288|292:280,1,39.3750015020371
204,276,198863,2,0,P|188:272|164:248,1,39.3750015020371
420,140,199042,2,0,P|400:172|382:176,1,39.3750015020371
312,229,199220,2,0,P|297:236|263:233,1,39.3750015020371
344,0,199399,2,0,P|354:36|345:52,1,39.3750015020371
336,139,199577,2,0,P|331:154|305:177,1,39.3750015020371
24,24,199756,2,0,B|76:20|76:20|124:36|148:36,1,118.125004506111
152,312,200113,2,0,P|180:260|160:192,1,118.125004506111
152,96,200470,6,0,P|180:148|160:216,1,118.125004506111
56,256,200828,2,0,P|24:260|4:244,1,39.3750015020371
224,324,201006,2,0,P|252:320|272:328,1,39.3750015020371
484,264,201185,2,0,B|408:256|408:256|376:268|356:264,1,118.125004506111
212,220,201542,6,0,B|256:216|256:216|276:228,1,39.3750015020371
192,292,201720,2,0,P|184:268|196:240,1,39.3750015020371
52,332,201899,2,0,B|108:324|108:324|156:336|184:320,1,118.125004506111
212,372,202256,2,0,P|216:332|192:332,1,39.3750015020371
304,368,202435,2,0,B|272:360|272:360|240:376,1,39.3750015020371
364,256,202613,2,0,P|392:320|344:356,1,118.125004506111
360,40,202970,6,0,B|328:92|328:92|336:128|336:136|336:176,1,118.125004506111
452,328,203328,2,0,P|460:324|512:344,1,39.3750015020371
232,336,203506,2,0,P|240:340|292:320,1,39.3750015020371
100,256,203685,2,0,P|92:252|40:272,1,39.3750015020371
320,264,203863,2,0,P|312:268|260:248,1,39.3750015020371
436,184,204042,6,0,P|444:180|496:200,1,39.3750015020371
216,192,204220,2,0,P|224:196|276:176,1,39.3750015020371
84,112,204399,2,0,P|76:108|24:128,1,39.3750015020371
304,120,204577,2,0,P|296:124|244:104,1,39.3750015020371
172,296,204756,6,0,B|168:232|168:232|192:212|184:156,1,118.125004506111
176,32,205113,2,0,P|196:56|192:64,1,39.3750015020371
92,364,205292,2,0,P|72:340|76:331,1,39.3750015020371
280,252,205470,2,0,B|336:240|336:240|380:256|380:256|352:268,1,118.125004506111
112,348,205828,6,0,P|176:364|232:348,1,118.125004506111
316,272,206185,2,0,P|260:240|312:208,1,118.125004506111
512,160,206542,2,0,P|448:176|392:160,1,118.125004506111
60,36,206899,6,0,P|124:20|180:36,1,118.125004506111
248,192,207256,2,0,B|264:240|264:240|252:284|268:336,1,118.125004506111
316,356,207613,2,0,L|384:352,1,39.3750015020371
136,316,207792,2,0,L|68:320,1,39.3750015020371
404,376,207970,2,0,L|472:372,1,39.3750015020371
48,292,208149,6,0,L|-20:296,1,39.3750015020371
184,276,208328,2,0,L|128:316,1,39.3750015020371
296,244,208506,2,0,L|264:292,1,39.3750015020371
360,208,208685,2,0,L|340:256,1,39.3750015020371
396,176,208863,6,0,L|388:228,1,39.3750015020371
416,160,209042,2,0,B|408:200|412:200|432:232|432:232|436:264|436:264|420:268|420:268,1,118.125004506111
427,266,209399,6,0,P|440:264|472:272,1,39.3750015020371
268,276,209578,2,0,P|220:280|148:256,1,118.125004506111
152,112,209935,6,0,L|164:68,1,39.3750015020371
372,216,210113,2,0,L|334:352,1,118.125004506111
172,308,210470,2,0,B|128:292|128:292|96:296,1,78.7500030040742
176,248,210828,2,0,B|220:264|220:264|252:260,1,78.7500030040742
320,176,211051,6,0,L|320:144,2,19.6875007510186
276,88,211185,2,0,L|276:116,2,19.6875007510186
216,184,211319,2,0,L|160:184,1,39.3750015020371
60,264,211542,2,0,L|132:264,2,59.0625022530557
24,176,211899,6,0,P|16:124|64:72,1,118.125004506111
200,252,212256,2,0,P|184:208|176:208,1,39.3750015020371
184,336,212435,2,0,P|176:312|192:284,1,39.3750015020371
244,168,212613,2,0,P|272:120|216:108,1,118.125004506111
128,300,212970,6,0,P|100:252|156:240,1,118.125004506111
64,324,213328,2,0,L|0:324,1,39.3750015020371
344,252,213506,2,0,L|412:252,1,39.3750015020371
120,352,213685,2,0,L|-4:352,1,118.125004506111
392,204,214042,2,0,L|528:204,1,118.125004506111
200,332,214399,6,0,B|256:352|256:352|256:348|312:332|320:332|320:340,1,118.125004506111
196,36,214756,2,0,P|216:88|196:148,1,118.125004506111
112,188,215113,2,0,B|56:184|56:184|60:184|40:152|40:152|76:152,1,118.125004506111
176,144,215470,2,0,L|244:144,1,39.3750015020371
112,128,215649,2,0,L|156:128,1,39.3750015020371
208,232,215828,6,0,L|156:232,1,39.3750015020371
260,252,216006,2,0,L|208:252,1,39.3750015020371
344,336,216185,2,0,P|344:296|340:284,1,39.3750015020371
304,52,216363,2,0,P|288:120|304:172,1,118.125004506111
480,200,216661,2,0,P|464:184|432:188,1,52.5000020027161
464,360,216899,2,0,B|440:312|440:312|476:268|468:260|472:248,1,118.125004506111
470,256,217256,6,0,P|464:280|440:288,1,39.3750015020371
196,272,217435,2,0,P|172:252|164:232,1,39.3750015020371
304,32,217613,2,0,P|328:96|280:120,1,118.125004506111
8,176,217970,2,0,B|56:168|56:168|88:188|152:180,1,118.125004506111
248,160,218328,2,0,P|264:176|264:196,1,39.3750015020371
312,212,218506,2,0,P|317:233|307:251,1,39.3750015020371
348,288,218685,6,0,P|342:309|324:319,1,39.3750015020371
336,364,218863,2,0,P|319:379|300:380,1,39.3750015020371
312,24,219042,2,0,P|296:40|296:60,1,39.3750015020371
236,108,219220,2,0,P|230:129|240:147,1,39.3750015020371
208,232,219399,6,0,P|213:253|231:263,1,39.3750015020371
256,352,219577,2,0,P|272:367|292:368,1,39.3750015020371
484,332,219756,2,0,B|428:324|428:324|408:332|360:328,1,118.125004506111
76,268,220113,6,0,P|120:256|216:284,1,118.125004506111
340,348,220470,2,0,P|308:268|400:292,1,196.875007510186
389,266,221006,6,0,L|344:236,1,39.3750015020371
336,348,221185,2,0,P|304:288|332:240,1,118.125004506111
412,116,221542,2,0,P|416:140|404:168,1,39.3750015020371
412,154,221720,2,0,P|408:128|420:112,1,39.3750015020371
344,200,221899,6,0,L|272:200,1,39.3750015020371
472,52,222078,2,0,L|532:52,1,39.3750015020371
412,154,222256,2,0,P|408:128|420:112,1,39.3750015020371
412,116,222435,2,0,P|416:140|404:168,1,39.3750015020371
308,92,222613,2,0,P|256:108|188:88,1,118.125004506111
20,68,222970,2,0,B|72:52|72:52|136:100|160:84,1,118.125004506111
80,344,223328,6,0,P|96:292|80:220,1,118.125004506111
256,232,223685,2,0,P|244:289|261:345,1,118.125004506111
512,232,224042,2,0,B|460:248|460:248|396:200|372:216,1,118.125004506111
348,132,224399,6,0,P|340:92|344:80,1,39.3750015020371
484,132,224578,2,0,L|432:132,1,39.3750015020371
84,176,224756,2,0,L|136:176,1,39.3750015020371
240,180,224935,2,0,P|264:240|232:304,1,118.125004506111
240,36,225292,2,0,L|240:100,1,39.3750015020371
240,180,225470,2,0,P|304:192|344:156,1,118.125004506111
352,96,225828,6,0,B|340:68|340:68|348:44,1,39.3750015020371
396,0,226006,2,0,B|408:28|408:28|400:52,1,39.3750015020371
320,224,226185,2,0,L|296:156,1,39.3750015020371
424,128,226363,2,0,L|400:200,1,39.3750015020371
316,360,226542,2,0,L|296:300,1,39.3750015020371
464,236,226720,2,0,L|440:304,1,39.3750015020371
216,312,226899,6,0,L|164:300,1,39.3750015020371
28,240,227077,2,0,L|68:216,1,39.3750015020371
308,384,227256,2,0,L|260:372,1,39.3750015020371
112,112,227435,2,0,L|168:80,1,39.3750015020371
336,76,227613,6,0,P|368:144|340:172,1,118.125004506111
276,196,227970,2,0,P|268:220|272:236,1,39.3750015020371
320,328,228149,2,0,P|344:336|364:320,1,39.3750015020371
192,312,228328,2,0,B|164:320|136:308|136:308|136:308|104:320|64:312,1,118.125004506111
132,216,228685,6,0,P|144:176|144:148,1,39.3750015020371
72,24,228863,2,0,P|60:64|60:91,1,39.3750015020371
152,252,229042,2,0,P|224:256|232:204,1,118.125004506111
240,152,229399,2,0,B|228:84|228:84|248:36,1,118.125004506111
361,29,229756,6,0,P|281:45|241:37,1,118.125004506111
72,24,230113,2,0,P|40:56|96:76,1,118.125004506111
188,64,230470,2,0,P|204:32|196:20,1,39.3750015020371
168,116,230649,2,0,P|192:96|188:76,1,39.3750015020371
136,176,230828,2,0,P|120:144|128:132,1,39.3750015020371
156,228,231007,2,0,P|132:208|136:188,1,39.3750015020371
424,248,231185,2,0,P|400:288|320:260,1,118.125004506111
436,144,231542,6,0,P|456:172|456:200,1,39.3750015020371
404,76,231720,2,0,P|432:88|448:108,1,39.3750015020371
192,84,231899,2,0,B|240:64|240:64|296:80|316:80,1,118.125004506111
156,60,232256,6,0,L|200:88,1,39.3750015020371
180,336,232435,2,0,P|196:280|184:196,1,118.125004506111
144,348,232792,6,0,P|176:332|200:348,1,39.3750015020371
436,344,232970,2,0,P|368:356|304:328,1,118.125004506111
296,224,233328,6,0,P|296:200|304:168,1,39.3750015020371
276,180,233506,2,0,P|284:152|296:132,1,39.3750015020371
496,164,233685,6,0,P|500:136|496:116,1,39.3750015020371
452,216,233863,2,0,P|460:184|452:160,1,39.3750015020371
408,256,234042,2,0,P|416:232|416:216,1,39.3750015020371
264,136,234220,6,0,P|272:112|292:96,1,39.3750015020371
148,152,234399,2,0,P|60:160|20:128,1,118.125004506111
144,272,234756,6,0,P|220:260|284:288,1,118.125004506111
496,176,235113,2,0,B|400:176|400:176|368:188,1,118.125004506111
0,320,235470,2,0,B|96:320|96:320|128:308,1,118.125004506111
236,204,235828,2,0,P|244:176|240:140,1,39.3750015020371
224,268,236006,2,0,P|224:320|236:328,1,39.3750015020371
428,352,236185,2,0,P|384:320|364:324,2,78.7500030040742
272,272,236720,6,0,P|260:228|264:212,1,39.3750015020371
212,212,236899,2,0,P|212:176|220:156,1,39.3750015020371
176,140,237078,2,0,P|184:120|200:92,1,39.3750015020371
376,76,237256,2,0,P|376:112|368:120,1,39.3750015020371
408,128,237435,2,0,P|392:152|372:156,1,39.3750015020371
304,336,237613,6,0,P|292:256|324:204,1,118.125004506111
204,37,237970,2,0,B|172:37|172:37|156:61,1,39.3750015020371
24,280,238149,2,0,B|48:280|48:280|88:256,1,39.3750015020371
168,44,238328,2,0,B|172:108|172:108|168:136|176:196,1,118.125004506111
160,356,238685,6,0,L|156:300,1,39.3750015020371
168,44,238863,2,0,L|172:108,1,39.3750015020371
160,356,239042,2,0,B|120:328|120:328|92:336|48:324,1,118.125004506111
384,332,239399,2,0,B|444:316|444:316|464:332|476:340|516:332,1,118.125004506111
248,264,239756,2,0,L|196:280,1,39.3750015020371
324,336,239935,2,0,L|368:324,1,39.3750015020371
140,220,240113,6,0,L|68:236,1,39.3750015020371
408,368,240292,2,0,L|480:352,1,39.3750015020371
356,88,240470,2,0,L|216:112,1,118.125004506111
20,212,240828,2,0,L|164:188,1,118.125004506111
448,228,241185,2,0,P|392:240|320:228,1,118.125004506111
256,120,241542,6,0,P|252:72|264:56,1,39.3750015020371
296,256,241720,2,0,P|304:296|292:316,1,39.3750015020371
0,92,241899,2,0,P|56:79|128:91,1,118.125004506111
184,220,242256,2,0,L|184:272,1,39.3750015020371
92,364,242435,2,0,L|92:304,1,39.3750015020371
184,40,242613,2,0,L|184:168,1,118.125004506111
96,240,242970,2,0,L|96:92,1,118.125004506111
328,80,243328,6,0,L|328:128,1,39.3750015020371
252,132,243506,2,0,L|252:172,1,39.3750015020371
168,192,243685,2,0,L|168:264,1,39.3750015020371
128,332,243863,2,0,L|128:268,1,39.3750015020371
228,220,244042,2,0,L|228:164,1,39.3750015020371
316,108,244220,2,0,L|316:64,1,39.3750015020371
416,284,244399,6,0,L|416:328,1,39.3750015020371
292,196,244578,2,0,L|292:152,1,39.3750015020371
224,296,244756,2,0,L|224:356,1,39.3750015020371
164,176,244935,2,0,L|164:120,1,39.3750015020371
48,328,245113,6,0,L|48:396,1,39.3750015020371
48,148,245292,2,0,L|48:100,1,39.3750015020371
140,264,245470,2,0,L|140:316,1,39.3750015020371
140,128,245649,2,0,L|140:72,1,39.3750015020371
232,200,245828,2,0,L|232:260,1,39.3750015020371
232,108,246006,2,0,L|232:36,1,39.3750015020371
344,384,246185,6,0,B|332:324|332:324|336:316|340:248,1,118.125004506111
412,0,246542,2,0,P|424:60|400:136,1,118.125004506111
352,244,246899,2,0,B|392:208|392:208|420:224|428:228|428:256,1,118.125004506111
344,384,247256,6,0,L|288:364,1,39.3750015020371
304,104,247435,2,0,L|360:80,1,39.3750015020371
236,364,247613,2,0,B|196:348|196:348|144:372|108:364,1,118.125004506111
284,168,247970,2,0,L|284:216,1,39.3750015020371
44,336,248149,2,0,L|44:272,1,39.3750015020371
56,44,248328,2,0,P|120:16|168:64,1,118.125004506111
236,364,248685,2,0,P|172:392|124:344,1,118.125004506111
300,316,249042,6,0,P|336:304|360:320,1,39.3750015020371
263,308,249220,2,0,P|299:316|311:308,1,39.3750015020371
268,108,249399,2,0,P|280:168|256:228,1,118.125004506111
160,272,249756,6,0,P|168:256|184:236,1,39.3750015020371
176,144,249935,2,0,P|188:168|188:200,1,39.3750015020371
120,332,250113,2,0,L|136:324|160:312,1,39.3750015020371
156,44,250292,2,0,P|156:80|164:96,1,39.3750015020371
352,200,250470,6,0,P|304:200|296:192,1,39.3750015020371
56,120,250649,2,0,P|108:116|112:128,1,39.3750015020371
320,316,250828,2,0,P|320:288|308:256,1,39.3750015020371
188,220,251006,2,0,L|144:260,1,39.3750015020371
256,160,251185,2,0,L|352:72,1,118.125004506111
256,160,251542,6,0,L|212:200,1,39.3750015020371
188,220,251720,2,0,L|156:248,1,39.3750015020371
12,284,251899,2,0,B|60:272|60:272|88:288|156:292,1,118.125004506111
208,156,252256,2,0,P|220:200|200:256,1,78.7500030040742
210,226,252613,2,0,P|194:186|214:150,1,78.7500030040742
356,144,252970,6,0,L|396:144,1,39.3750015020371
456,272,253149,2,0,L|416:272,1,39.3750015020371
268,264,253328,2,0,P|260:208|272:164,1,78.7500030040742
380,188,253685,2,0,P|388:244|376:287,1,78.7500030040742
352,328,254042,2,0,B|392:320|392:320|424:332|484:332,1,118.125004506111
180,316,254399,6,0,L|156:324,2,19.6875007510186
276,316,254578,2,0,L|300:308,2,19.6875007510186
160,248,254756,2,0,P|136:208|156:144,1,118.125004506111
304,248,255113,6,0,P|272:256|248:256,1,39.3750015020371
148,163,255292,2,0,P|159:118|219:87,1,118.125004506111
250,265,255649,6,0,P|222:248|205:231,1,39.3750015020371
200,96,255828,2,0,P|240:72|304:92,1,118.125004506111
199,240,256185,6,0,P|192:208|192:184,1,39.3750015020371
300,96,256363,2,0,P|307:128|307:151,1,39.3750015020371
128,208,256542,2,0,L|92:220,2,19.6875007510186
240,152,256720,2,0,L|280:140,1,39.3750015020371
104,164,256899,2,0,L|-40:204,1,118.125004506111
300,192,257256,2,0,L|364:176,2,39.3750015020371
236,236,257613,6,0,B|280:224|280:224|300:192|300:192|364:180,1,118.125004506111
