osu file format v9

[General]
AudioFilename: memory of snow.mp3
AudioLeadIn: 0
PreviewTime: 73909
Countdown: 0
SampleSet: Normal
StackLeniency: 0.7
Mode: 1
LetterboxInBreaks: 1

[Editor]
DistanceSpacing: 1
BeatDivisor: 4
GridSize: 8

[Metadata]
Title:memory of snow
Artist:fripSide
Creator:KanaRin
Version:Taiko Collab
Source:Toaru Kagaku no Railgun
Tags:karenying aabc271 matthewhln aesopl19193

[Difficulty]
HPDrainRate:4
CircleSize:5
OverallDifficulty:5
ApproachRate:5
SliderMultiplier:1.4
SliderTickRate:1

[Events]
//Background and Video events
0,0,"BG.jpg"
//Break Periods
//Storyboard Layer 0 (Background)
//Storyboard Layer 1 (Fail)
//Storyboard Layer 2 (Pass)
//Storyboard Layer 3 (Foreground)
//Storyboard Sound Samples
//Background Colour Transformations
3,100,163,162,255

[TimingPoints]
22069,480,4,1,0,80,1,0
41269,-111.111111111111,4,1,0,70,0,0
56629,-100,4,1,0,70,0,0
73909,-100,4,1,0,80,0,1
88789,-100,4,1,0,80,0,0
89269,-100,4,1,0,80,0,1
104629,-100,4,1,0,80,0,0
121909,-111.111111111111,4,1,0,70,0,0
137269,-100,4,1,0,80,0,0
154549,-100,4,1,0,80,0,1
169429,-100,4,1,0,80,0,0
169909,-100,4,1,0,80,0,1
185269,-100,4,1,0,80,0,0
204469,-125,4,1,0,60,0,0
212149,-111.111111111111,4,1,0,70,0,0
219829,-100,4,1,0,80,0,1
234709,-100,4,1,0,80,0,0
235189,-100,4,1,0,80,0,1
250549,-100,4,1,0,80,0,0
288949,-100,4,1,0,70,0,0
290869,-100,4,1,0,50,0,0

[Colours]
Combo1 : 21,138,255
Combo2 : 249,60,60

[HitObjects]
256,192,22069,5,0
256,192,22309,1,0
256,192,22429,1,0
256,192,22549,5,8
256,192,22789,5,0
256,192,23029,5,8
256,192,23269,5,0
256,192,23509,5,8
256,192,23749,1,8
256,192,23989,5,4
256,192,24469,5,8
256,192,24709,5,0
256,192,24949,1,0
256,192,25429,5,8
256,192,25669,5,0
256,192,25909,5,8
256,192,26269,1,8
256,192,26629,5,0
256,192,26869,1,0
256,192,27349,5,8
256,192,27829,5,0
256,192,28309,5,8
256,192,28549,1,8
256,192,28669,5,0
256,192,28789,1,0
256,192,29269,5,8
256,192,29749,1,8
256,192,30109,5,0
256,192,30469,5,8
256,192,30709,1,8
256,192,31069,5,0
256,192,31669,1,4
256,192,32149,5,8
256,192,32389,5,0
256,192,32509,1,0
256,192,32629,5,8
256,192,33109,1,8
256,192,33349,5,0
256,192,33589,5,8
256,192,33829,5,0
256,192,33949,5,8
256,192,34189,5,0
256,192,34309,1,0
256,192,34549,5,8
256,192,34789,5,0
256,192,34909,1,0
256,192,35149,5,8
256,192,35269,5,0
256,192,35509,1,0
256,192,35989,5,8
256,192,36469,5,0
256,192,36949,1,0
256,192,37429,1,0
256,192,37669,5,8
256,192,37909,5,0
256,192,38029,5,8
256,192,38269,1,8
256,192,38509,5,0
256,192,38629,5,8
256,192,38749,5,0
256,192,38869,5,8
256,192,39109,1,8
256,192,39349,12,0,40789
256,192,41269,5,4
256,192,41509,1,0
256,192,41749,5,8
256,192,41989,1,8
256,192,42229,5,0
256,192,42949,1,0
256,192,43189,5,8
256,192,43669,5,0
256,192,43909,1,0
256,192,44149,5,8
256,192,44629,5,0
256,192,45109,1,0
256,192,45349,1,0
256,192,45589,5,8
256,192,45829,1,8
256,192,46069,1,8
256,192,46549,1,8
256,192,46789,5,0
256,192,47029,5,8
256,192,47269,1,8
256,192,47509,5,0
256,192,47749,5,8
256,192,47989,1,8
256,192,48469,1,8
256,192,48949,5,4
256,192,49189,1,0
256,192,49309,1,0
256,192,49429,1,0
256,192,49669,5,8
256,192,49909,5,0
256,192,50629,1,0
256,192,50869,5,8
256,192,51349,1,8
256,192,51589,5,0
256,192,51829,5,8
256,192,52069,5,0
256,192,52189,1,0
256,192,52309,5,8
256,192,52549,5,0
256,192,52789,1,0
256,192,53269,5,8
256,192,53749,1,8
256,192,53989,5,0
256,192,54229,1,0
256,192,54469,5,8
256,192,54709,1,8
256,192,54949,5,0
256,192,55069,5,8
256,192,55309,1,8
256,192,55429,5,0
256,192,55669,1,0
256,192,56149,5,8
256,192,56629,5,4
256,192,56869,1,0
256,192,56989,1,0
256,192,57109,1,0
256,192,57349,1,0
256,192,57589,5,8
256,192,57829,5,0
256,192,58069,5,8
256,192,58309,1,8
256,192,58549,5,0
256,192,58789,5,8
256,192,58909,5,0
256,192,59149,1,0
256,192,59269,5,8
256,192,59509,5,0
256,192,59989,1,0
256,192,60229,1,0
256,192,60469,5,12
256,192,60709,5,0
256,192,60829,5,8
256,192,61069,5,0
256,192,61189,1,0
256,192,61429,1,0
256,192,61669,5,8
256,192,61789,5,0
256,192,62029,1,0
256,192,62149,5,8
256,192,62389,1,8
256,192,62629,5,0
256,192,62749,1,0
256,192,62989,5,8
256,192,63109,1,8
256,192,63349,5,0
256,192,63829,5,8
256,192,64309,5,4
256,192,64669,1,0
256,192,65029,5,8
256,192,65269,1,8
256,192,65509,5,0
256,192,65749,5,8
256,192,65989,1,8
256,192,66109,5,0
256,192,66229,1,0
256,192,66589,1,0
256,192,66949,5,8
256,192,67189,1,8
256,192,67429,5,0
256,192,67669,5,8
256,192,67909,1,8
256,192,68029,5,0
256,192,68149,5,8
256,192,68509,5,0
256,192,68629,5,8
256,192,68869,5,0
256,192,68989,1,0
256,192,69109,5,8
256,192,69349,5,0
256,192,69469,1,0
256,192,69709,1,0
256,192,69829,5,8
256,192,70069,1,12
256,192,70429,1,12
256,192,70789,5,4
256,192,71029,1,0
256,192,71269,1,0
256,192,71509,5,8
256,192,71989,5,0
256,192,72109,5,8
256,192,72349,5,0
256,192,72469,5,8
256,192,72709,5,0
256,192,72829,5,8
256,192,73069,5,0
256,192,73189,5,8
256,192,73429,5,0
256,192,73549,1,0
256,192,73669,5,8
256,192,73909,5,4
256,192,74149,1,0
256,192,74389,1,0
256,192,74629,1,0
256,192,74749,5,8
256,192,75109,5,0
256,192,75349,1,0
256,192,75589,5,8
256,192,75829,5,0
256,192,76069,5,8
256,192,76309,5,0
256,192,76549,1,0
256,192,76789,1,0
256,192,76909,5,8
256,192,77149,1,8
256,192,77749,1,12
256,192,77989,5,0
256,192,78109,1,0
256,192,78229,5,8
256,192,78469,5,0
256,192,78709,5,8
256,192,78829,5,0
256,192,79069,5,8
256,192,79429,5,0
256,192,79669,5,8
256,192,79909,5,0
256,192,80149,1,0
256,192,80389,5,8
256,192,80629,1,8
256,192,80749,1,8
256,192,80989,5,0
256,192,81589,1,4
256,192,81829,1,0
256,192,82069,5,8
256,192,82309,5,0
256,192,82429,5,8
256,192,82789,5,0
256,192,83029,1,0
256,192,83269,5,8
256,192,83509,5,0
256,192,83749,5,8
256,192,83869,1,8
256,192,83989,5,0
256,192,84229,1,0
256,192,84469,1,0
256,192,84589,5,8
256,192,84829,1,8
256,192,85429,1,12
256,192,85669,5,0
256,192,85789,1,0
256,192,85909,5,8
256,192,86149,1,8
256,192,86269,5,0
256,192,86389,1,0
256,192,86509,5,8
256,192,86749,1,8
256,192,87109,5,0
256,192,87349,5,12
256,192,87709,1,12
256,192,88069,5,4
256,192,88309,1,0
256,192,88549,1,0
256,192,88669,1,0
256,192,88789,5,8
256,192,89029,5,0
256,192,89269,1,4
256,192,89509,1,0
256,192,89749,1,0
256,192,89989,5,8
256,192,90109,1,8
256,192,90349,5,0
256,192,90469,1,0
256,192,90709,1,0
256,192,90949,5,8
256,192,91189,5,0
256,192,91429,5,8
256,192,91549,5,0
256,192,91669,5,8
256,192,91909,5,0
256,192,92029,1,0
256,192,92149,1,0
256,192,92269,5,8
256,192,92509,1,8
256,192,93109,1,12
256,192,93349,5,0
256,192,93469,1,0
256,192,93589,5,8
256,192,93829,1,8
256,192,93949,1,8
256,192,94069,5,0
256,192,94189,1,0
256,192,94429,5,8
256,192,94789,5,0
256,192,95029,5,8
256,192,95269,5,0
256,192,95509,1,0
256,192,95749,5,8
256,192,95989,1,8
256,192,96109,1,8
256,192,96349,5,0
256,192,96949,1,4
256,192,97189,1,0
256,192,97429,5,8
256,192,97669,5,0
256,192,97789,5,8
256,192,98029,5,0
256,192,98149,1,0
256,192,98389,1,0
256,192,98629,5,8
256,192,98869,5,0
256,192,99109,5,8
256,192,99229,5,0
256,192,99349,1,0
256,192,99589,1,0
256,192,99709,1,0
256,192,99829,5,8
256,192,99949,1,8
256,192,100189,1,8
256,192,100789,1,12
256,192,101029,1,8
256,192,101149,5,0
256,192,101269,5,8
256,192,101509,5,0
256,192,101629,1,0
256,192,101749,5,8
256,192,101869,1,8
256,192,102109,1,8
256,192,102349,5,0
256,192,102469,1,0
256,192,102709,1,4
256,192,103069,1,4
256,192,103429,5,12
256,192,103669,12,0,104629
400,240,105109,5,8
224,240,105349,1,0
224,240,105469,1,0
224,240,105589,1,0
144,232,105829,1,0
224,240,106069,1,8
224,240,106549,1,0
224,240,106789,1,0
224,240,107029,1,8
256,168,107389,1,0
224,240,107509,1,0
224,240,107749,1,0
224,240,107989,1,8
224,240,108469,1,0
224,240,108949,1,8
224,240,109189,1,8
224,240,109309,1,0
224,240,109429,1,0
224,240,109909,1,8
224,240,110389,1,8
224,240,110749,1,0
224,240,111109,1,8
224,240,111349,1,8
336,240,111469,1,0
224,240,111709,1,8
336,240,111829,1,0
312,232,112069,1,8
336,240,112189,1,8
312,232,112309,1,0
248,144,112549,1,0
96,240,112789,1,8
48,256,113029,1,0
48,256,113149,1,0
96,240,113269,1,0
248,144,113509,1,0
152,280,113749,1,8
160,168,114229,1,8
160,168,114349,1,8
160,168,114589,1,0
160,168,114709,1,8
160,168,114949,1,0
160,168,115189,1,8
160,168,115309,1,0
160,168,115549,1,0
160,168,115669,1,8
296,232,115909,1,8
296,232,116149,1,0
376,160,116389,1,0
192,200,116629,1,8
192,200,117109,1,8
192,200,117349,1,0
192,200,117589,1,8
192,200,118069,1,0
192,200,118309,1,8
192,200,118549,1,0
192,200,118669,1,0
192,200,118909,1,0
192,200,119029,1,0
248,152,119269,1,0
248,152,119389,1,0
288,176,119749,1,8
176,176,119989,5,0
208,224,120229,5,8
208,224,120469,1,8
208,224,120589,1,8
208,224,120829,1,8
208,224,120949,1,8
208,224,121189,1,8
208,224,121309,1,8
288,176,121549,1,8
288,176,121669,1,8
264,208,121909,1,0
264,208,122149,1,0
264,208,122389,1,8
264,208,122629,1,0
264,208,122869,1,8
264,208,123589,1,0
264,208,123829,1,8
264,208,124309,1,8
264,208,124549,1,0
264,208,124789,1,0
264,208,125029,1,8
264,208,125269,1,0
264,208,125749,1,0
264,208,125989,1,0
264,208,126229,1,8
264,208,126469,1,0
264,208,126709,1,0
264,208,127189,1,8
288,304,127429,1,0
288,304,127669,1,0
264,208,127909,1,0
288,304,128149,1,8
288,304,128389,1,0
264,208,128629,1,8
128,192,128869,1,0
128,192,129109,1,8
128,192,129349,1,8
128,192,129589,1,4
416,192,130309,1,4
272,168,130549,1,12
264,296,131269,1,0
160,256,131509,1,4
280,272,131749,1,0
160,256,131989,1,8
256,240,132229,1,4
160,256,132469,1,4
160,144,133189,1,0
200,216,133429,1,4
152,80,133909,1,0
208,144,134149,1,4
208,144,134389,1,8
208,144,134629,1,0
208,144,134869,1,0
336,168,135109,1,8
288,208,135349,1,4
288,208,135709,1,4
288,208,136069,1,12
288,208,136309,1,4
240,280,136549,1,0
240,280,136669,1,0
240,280,136789,1,8
240,280,137029,1,0
240,280,137269,1,0
208,120,137749,1,0
208,120,138229,1,8
208,120,138709,1,0
88,168,139189,1,8
88,168,139309,1,0
88,168,139549,1,8
88,168,139669,1,0
320,184,139909,1,8
88,168,140149,1,0
88,168,140269,1,8
88,168,140509,1,0
88,168,140629,1,8
208,288,140869,1,0
208,288,140989,1,0
208,288,141109,1,8
176,168,141469,1,8
240,248,141829,1,0
256,200,142069,1,8
288,208,142189,1,0
256,200,142429,1,0
288,208,142549,1,8
256,200,142789,1,0
256,200,143029,1,8
320,272,143149,1,8
256,200,143389,1,0
320,272,143509,1,8
128,192,143749,5,0
128,192,143989,1,8
352,80,144109,1,8
128,192,144229,1,0
352,80,144349,1,8
128,192,144469,1,8
256,192,144949,5,0
256,192,145309,1,0
240,256,145669,5,8
168,192,145909,1,0
168,192,146029,1,0
240,256,146269,1,0
240,256,146389,1,8
224,248,146629,5,0
224,248,146749,1,0
224,248,146869,1,0
304,176,147109,1,8
224,248,147229,1,0
192,152,147469,1,0
120,216,147589,5,8
288,256,147829,5,0
304,176,148069,1,0
288,256,148309,1,8
160,168,148549,5,0
160,168,148669,1,0
160,168,148789,1,8
240,208,149269,1,8
200,224,149509,5,0
200,224,149629,1,0
200,224,149749,1,8
200,224,149989,1,0
200,224,150109,1,8
304,152,150469,1,8
48,200,150709,1,0
48,200,151069,1,8
48,200,151429,1,8
48,200,151669,1,0
96,248,151909,1,0
96,248,152149,1,8
144,176,152629,5,0
144,176,152989,1,0
144,176,153349,1,8
304,272,153589,1,0
304,272,153709,1,8
304,272,153829,1,8
304,272,153949,1,8
304,272,154069,1,0
144,176,154309,1,8
240,200,154549,5,0
240,200,154789,1,0
240,200,155029,1,8
240,200,155269,1,0
240,200,155389,1,0
216,216,155749,1,0
216,216,155989,1,8
216,216,156229,1,0
216,216,156469,1,0
216,216,156709,1,8
216,216,156949,1,8
216,216,157189,1,0
216,216,157429,1,0
216,216,157549,1,8
216,216,157789,1,8
160,192,158149,1,0
344,232,158389,1,12
208,240,158869,1,8
304,328,159109,1,0
304,328,159349,1,0
304,328,159469,1,0
304,328,159709,1,8
248,168,160069,1,0
216,184,160309,1,8
216,184,160549,1,0
216,184,160789,1,8
216,184,161029,1,0
176,208,161269,5,8
176,208,161389,1,0
176,208,161629,1,0
256,200,161989,5,8
256,200,162109,1,8
256,200,162229,1,0
232,200,162469,1,0
232,200,162709,1,8
232,200,162949,1,0
232,200,163069,1,8
160,200,163429,1,0
160,200,163669,1,8
160,200,163909,1,0
304,232,164149,1,0
304,232,164389,1,0
304,232,164629,1,8
304,232,164869,1,0
304,232,165109,1,0
304,232,165229,1,8
304,232,165469,1,8
192,224,166069,1,4
144,144,166309,1,0
208,160,166549,1,8
208,160,166789,1,0
208,160,167029,1,8
208,160,167149,1,0
208,160,167389,1,8
208,160,167749,1,0
264,192,167989,1,12
264,192,168349,1,12
264,192,168709,1,4
264,192,168949,1,4
232,256,169189,1,0
232,256,169309,1,0
232,256,169429,1,8
232,256,169669,1,8
232,256,169909,1,0
288,288,170149,1,0
384,256,170389,1,8
384,256,170629,1,0
384,256,170749,1,0
56,184,171109,1,0
128,168,171349,1,8
128,168,171589,1,0
128,168,171829,1,0
128,168,172069,1,8
128,168,172309,1,0
272,248,172549,1,8
272,288,172789,1,0
272,288,172909,1,8
272,288,173149,1,8
216,192,173749,1,4
216,192,174229,1,8
216,192,174469,1,0
216,192,174709,1,0
216,192,174829,1,0
216,192,175069,1,8
216,192,175429,1,0
320,304,175669,1,8
216,192,175909,1,0
320,304,176149,1,0
216,192,176389,1,8
304,128,176629,1,8
384,152,176749,1,0
440,184,176989,1,8
120,176,177589,1,4
128,256,177829,1,8
120,176,178069,1,8
128,256,178309,1,0
128,256,178429,1,8
224,192,178789,1,0
224,192,179029,1,8
224,192,179269,1,8
224,192,179509,1,0
224,192,179749,1,8
224,192,179989,1,8
224,192,180229,1,0
288,240,180469,1,8
288,240,180589,1,8
288,240,180829,1,8
272,152,181429,1,4
272,152,181909,1,8
272,152,182149,1,8
272,152,182389,1,0
272,152,182509,1,8
272,152,182749,1,8
272,152,183109,1,0
144,200,183349,5,0
256,240,183589,1,0
256,240,183709,1,0
256,240,183829,1,8
256,240,184069,1,8
256,192,184309,12,0,185029
272,152,185269,5,0
136,232,185509,5,8
136,232,185749,5,0
272,304,185869,5,8
272,304,186109,5,0
136,232,186229,5,8
272,304,186469,5,0
136,232,186589,5,8
136,232,186829,5,0
328,248,186949,5,8
256,192,187189,5,0
256,192,187429,1,0
256,192,187549,1,0
256,192,187669,5,8
256,192,187909,1,8
256,192,188149,5,0
256,192,188389,1,0
256,192,188629,5,8
256,192,188749,5,0
256,192,188869,1,0
256,192,189109,5,8
256,192,189349,5,0
256,192,189469,5,8
256,192,189709,1,8
256,192,189829,5,0
256,192,190069,5,8
256,192,190429,5,0
256,192,190549,5,8
256,192,190789,1,8
256,192,191029,5,4
256,192,191269,1,0
256,192,191389,1,0
256,192,191509,5,8
256,192,191749,5,0
256,192,191989,5,8
256,192,192229,5,0
256,192,192469,5,8
256,192,192589,5,0
256,192,192709,1,0
256,192,192949,5,8
256,192,193189,5,0
256,192,193309,5,8
256,192,193429,5,0
256,192,193669,5,8
256,192,193909,5,0
256,192,194029,1,0
256,192,194149,1,0
256,192,194269,5,8
256,192,194389,5,0
256,192,194869,5,8
256,192,194989,5,0
256,192,195109,1,0
256,192,195229,1,0
256,192,195349,5,8
256,192,195469,5,0
256,192,195589,1,0
256,192,195709,1,0
256,192,195829,5,8
256,192,195949,5,0
256,192,196069,1,0
256,192,196189,1,0
256,192,196309,5,8
256,192,196549,5,0
256,192,196789,5,8
256,192,196909,1,8
256,192,197029,5,0
256,192,197149,1,0
256,192,197269,5,8
256,192,197509,5,0
256,192,197749,5,8
256,192,198469,5,0
256,192,198709,5,8
256,192,198829,1,8
256,192,198949,5,0
256,192,199069,1,0
256,192,199189,5,8
256,192,199309,1,8
256,192,199429,5,0
256,192,199549,1,0
256,192,199669,5,8
256,192,199789,1,8
256,192,199909,5,0
256,192,200029,5,8
256,192,200149,5,0
256,192,200389,1,0
256,192,200629,5,8
256,192,200749,1,8
256,192,200869,5,0
256,192,200989,1,0
256,192,201109,5,8
256,192,201349,5,0
256,192,201589,5,8
256,192,201709,1,8
256,192,201829,5,0
256,192,201949,5,8
256,192,202069,1,8
256,192,202309,5,0
256,192,202549,5,8
256,192,202669,1,8
256,192,202789,5,0
256,192,202909,1,0
256,192,203029,5,8
256,192,203149,1,8
256,192,203269,1,8
256,192,203509,12,0,204229
256,192,204469,5,4
256,192,206389,1,0
256,192,207349,1,0
256,192,207709,1,0
256,192,208069,5,8
256,192,208309,5,0
256,192,208789,5,12
256,192,210229,5,0
256,192,211189,1,0
256,192,211669,5,8
256,192,212149,5,4
256,192,212389,1,0
256,192,212629,5,8
256,192,212869,5,0
256,192,212989,1,0
256,192,213229,1,0
256,192,213469,1,0
256,192,213589,5,8
256,192,214069,5,0
256,192,214309,1,0
256,192,214549,5,8
256,192,214789,5,0
256,192,214909,1,0
256,192,215149,1,0
256,192,215269,1,0
256,192,215509,5,8
256,192,215749,5,0
256,192,215989,1,0
256,192,216229,1,0
256,192,216349,1,0
256,192,216469,5,8
256,192,216949,5,0
256,192,217189,1,0
256,192,217309,1,0
256,192,217429,5,8
256,192,217909,1,8
256,192,218149,5,0
256,192,218269,1,0
256,192,218389,5,8
256,192,218629,5,0
256,192,218749,1,0
256,192,218869,5,8
256,192,219109,5,0
256,192,219229,1,0
256,192,219349,5,8
256,192,219469,1,8
256,192,219589,5,0
256,192,219829,1,4
256,192,220069,1,0
256,192,220309,5,8
256,192,220549,5,0
256,192,220669,5,8
256,192,221029,5,0
256,192,221269,1,0
256,192,221509,5,8
256,192,221749,5,0
256,192,221989,5,8
256,192,222109,1,8
256,192,222229,5,0
256,192,222469,1,0
256,192,222709,1,0
256,192,222829,5,8
256,192,223069,1,8
256,192,223669,1,12
256,192,224029,5,0
256,192,224149,5,8
256,192,224389,5,0
256,192,224509,1,0
256,192,224629,5,8
256,192,224749,5,0
256,192,224989,5,8
256,192,225349,5,0
256,192,225589,5,8
256,192,225829,5,0
256,192,225949,1,0
256,192,226069,5,8
256,192,226309,1,8
256,192,226549,1,8
256,192,226669,5,0
256,192,226909,1,0
256,192,227509,1,4
256,192,227749,1,0
256,192,227869,1,0
256,192,227989,1,0
256,192,228229,1,0
256,192,228349,5,8
256,192,228709,5,0
256,192,228949,1,0
256,192,229189,5,8
256,192,229429,5,0
256,192,229669,5,8
256,192,229789,1,8
256,192,229909,5,0
256,192,230149,1,0
256,192,230269,1,0
256,192,230389,1,0
256,192,230509,5,8
256,192,230749,1,8
256,192,231349,1,12
256,192,231709,5,0
256,192,231829,5,8
256,192,232069,1,8
256,192,232189,5,0
256,192,232309,1,0
256,192,232429,5,8
256,192,232669,1,8
256,192,232909,5,0
256,192,233029,1,0
256,192,233269,5,12
256,192,233629,1,12
256,192,233989,5,4
256,192,234229,1,0
256,192,234469,1,0
256,192,234589,1,0
256,192,234709,5,8
256,192,234829,1,8
256,192,234949,5,0
120,208,235189,1,0
120,208,235429,1,8
120,208,235669,1,8
120,208,235909,1,0
120,208,236029,1,8
168,192,236389,1,0
240,144,236629,1,8
240,144,236869,1,0
240,144,237109,1,0
160,152,237349,1,8
160,152,237469,1,0
160,152,237589,1,8
160,152,237829,1,0
160,152,238069,1,8
160,152,238189,1,0
160,152,238429,1,8
152,208,238789,1,0
192,208,238909,1,0
152,208,239029,1,8
216,96,239269,1,0
216,96,239509,1,8
216,96,239749,1,0
288,64,239989,1,8
288,64,240109,1,0
288,64,240349,1,0
288,64,240469,1,8
304,264,240709,1,0
304,264,240829,1,0
304,264,240949,1,8
304,264,241189,1,0
304,264,241309,1,8
304,264,241429,1,0
304,264,241669,1,0
304,264,241909,1,8
304,264,242029,1,0
304,264,242269,1,8
240,192,242389,1,8
240,136,242629,1,8
240,136,242749,1,8
320,96,242869,1,0
136,224,243109,1,0
136,224,243349,1,8
136,224,243589,1,0
136,224,243709,1,8
200,208,244069,1,0
200,208,244309,1,8
200,208,244549,1,0
200,208,244789,1,0
200,208,245029,1,8
200,208,245149,1,0
208,256,245269,1,8
176,152,245509,1,0
176,152,245749,1,8
176,152,245869,1,0
176,152,246109,1,8
176,152,246469,1,0
176,152,246709,1,8
208,64,246949,1,0
208,64,247189,1,8
208,64,247429,1,0
208,64,247669,1,8
176,96,247789,1,0
176,96,248029,1,0
176,96,248149,1,8
248,184,248389,1,0
160,232,248629,5,0
160,232,248869,1,8
232,224,249109,1,8
344,304,249349,1,0
344,304,249469,1,8
344,304,249589,1,0
344,304,249709,1,8
344,304,249829,1,8
344,304,249949,1,8
344,304,250069,1,0
320,168,250549,1,4
240,176,250789,1,8
240,176,251029,1,8
240,176,251269,1,0
240,176,251509,1,0
240,176,251989,1,8
312,176,252229,1,0
312,176,252469,1,0
312,176,252709,1,8
312,176,252949,1,8
312,176,253189,1,0
240,200,253429,5,0
240,200,253549,1,8
240,200,253789,1,8
200,208,254149,1,0
232,208,254389,5,8
200,208,254869,1,8
288,144,255109,5,8
288,144,255229,1,0
288,144,255349,1,0
288,144,255829,1,8
200,192,256309,5,0
200,192,256429,1,0
200,192,256549,1,8
200,192,256789,1,8
200,192,257029,1,0
312,192,257149,1,8
160,288,257269,1,8
296,256,257749,1,8
296,256,257989,1,8
296,256,258229,1,0
200,192,258469,1,0
200,192,258709,1,8
200,192,258949,1,0
200,192,259189,1,8
200,192,259669,1,0
200,192,259909,1,8
200,192,260149,1,0
200,192,260389,1,8
200,192,260629,1,8
200,192,260869,1,0
200,192,261109,1,0
200,192,261229,1,8
200,192,261469,1,8
200,192,262069,1,0
200,192,262309,1,8
200,192,262549,1,8
200,192,263029,1,8
200,192,263269,1,8
200,192,263509,1,0
200,200,263989,5,0
296,232,264229,5,8
344,296,264349,1,8
296,232,264469,1,0
368,136,264709,1,8
368,136,264829,1,8
368,136,264949,1,0
200,192,265069,1,0
368,136,265189,1,8
368,136,265309,1,8
368,136,265429,1,0
168,208,265909,1,0
168,208,266149,1,0
224,256,266389,1,8
224,256,266629,1,0
224,256,266749,1,0
224,256,266869,1,0
224,256,267109,1,0
224,256,267349,1,8
224,256,267829,1,0
224,256,268069,1,0
224,256,268309,1,8
296,296,268669,1,8
296,296,268789,1,0
80,160,269029,1,0
80,160,269269,1,8
264,112,269749,1,0
264,112,269989,1,0
192,160,270109,1,0
264,112,270229,1,8
264,112,270469,1,8
264,112,270709,1,0
264,112,270949,1,0
264,112,271189,1,8
304,224,271669,1,0
352,176,271909,1,0
264,192,272149,1,8
304,224,272509,1,8
304,224,272629,1,0
304,224,272749,1,8
104,176,272869,1,0
304,224,273109,1,8
288,112,273589,1,0
288,112,273829,1,0
400,144,274069,1,8
232,200,274189,1,0
232,200,274429,1,0
232,200,274549,1,0
232,200,274789,1,0
336,240,275029,1,8
424,176,275509,1,0
424,176,275749,1,0
344,152,275989,1,8
344,152,276109,1,8
344,152,276349,1,8
344,152,276469,1,0
192,192,276709,1,0
336,256,276949,1,8
112,112,277429,1,0
112,112,277669,1,0
208,208,277909,1,8
208,208,278389,1,0
208,208,278629,1,0
208,208,278869,1,8
208,208,279109,1,0
296,248,279349,5,0
208,144,279589,5,8
208,144,279709,1,8
208,144,279829,1,0
208,144,280069,1,8
208,144,280189,1,8
208,144,280309,1,0
208,144,280549,1,8
208,144,280789,1,8
152,192,281269,1,0
152,192,281389,1,0
152,192,281509,1,8
152,192,281629,1,8
152,192,281749,1,0
320,176,281989,1,0
320,176,282229,1,8
320,176,282349,1,8
320,176,282469,1,0
320,176,282589,1,0
320,176,282709,1,8
320,176,282949,1,8
192,208,283189,1,0
192,208,283309,1,0
192,208,283549,1,8
192,208,283669,1,0
256,88,283909,1,8
368,144,284149,1,0
392,240,284389,1,8
392,240,284629,1,8
104,176,285109,1,0
104,176,285229,1,0
104,176,285349,1,8
104,176,285589,1,8
104,176,285709,1,0
104,176,285829,1,0
104,176,286069,1,8
104,176,286189,1,8
104,176,286309,1,0
104,176,286549,1,8
104,176,286669,1,0
104,176,286789,1,0
232,240,286909,1,0
328,160,287029,1,0
328,160,287389,1,4
264,168,287749,1,12
264,168,287989,1,12
264,168,288349,1,4
288,304,288709,1,0
288,304,288829,1,0
256,192,288949,12,0,290869
