osu file format v9

[General]
AudioFilename: memory of snow.mp3
AudioLeadIn: 0
PreviewTime: 73909
Countdown: 0
SampleSet: Soft
StackLeniency: 0.5
Mode: 0
LetterboxInBreaks: 1

[Editor]
DistanceSpacing: 1.2
BeatDivisor: 4
GridSize: 8

[Metadata]
Title:memory of snow
Artist:fripSide
Creator:KanaRin
Version:Karen
Source:Toaru Kagaku no Railgun
Tags:karenying aabc271 matthewhln aesopl19193

[Difficulty]
HPDrainRate:8
CircleSize:4
OverallDifficulty:6
ApproachRate:7
SliderMultiplier:1.6
SliderTickRate:1

[Events]
//Background and Video events
0,0,"BG.jpg"
//Break Periods
2,104829,121009
2,204669,211249
//Storyboard Layer 0 (Background)
//Storyboard Layer 1 (Fail)
//Storyboard Layer 2 (Pass)
//Storyboard Layer 3 (Foreground)
//Storyboard Sound Samples
//Background Colour Transformations
3,100,163,162,255

[TimingPoints]
22069,480,4,1,1,90,1,0
23869,-100,4,2,2,90,0,0
31309,-100,4,1,2,60,0,0
31789,-100,4,2,2,90,0,0
37429,-200,4,2,2,90,0,0
42109,-100,4,2,2,90,0,0
73909,-100,4,2,2,100,0,1
74029,-100,4,2,2,100,0,0
103669,-200,4,2,2,100,0,0
121669,-100,4,2,2,100,0,0
154549,-100,4,2,2,100,0,1
154669,-100,4,2,2,100,0,0
184189,-200,4,2,2,100,0,0
187189,-100,4,2,2,100,0,0
211909,-100,4,1,2,100,0,0
215869,-100,4,2,2,100,0,0
219829,-100,4,2,2,100,0,1
219949,-100,4,2,2,100,0,0
235189,-100,4,2,2,100,0,1
249589,-200,4,2,2,100,0,1
250549,-200,4,2,2,100,0,0

[Colours]
Combo1 : 0,128,255
Combo2 : 255,255,255
Combo3 : 128,255,255

[HitObjects]
256,216,22069,2,0,B|264:288|344:336,2,120
304,152,23029,2,0,B|376:144|424:64,2,120
264,152,23869,1,0
224,152,23989,2,0,B|64:152,1,160,2|8
136,296,24949,2,0,B|304:296,1,160,0|8
424,200,25909,5,8
336,120,26269,1,2
312,240,26629,1,0
312,240,26869,5,8
216,328,27229,1,0
184,200,27589,1,8
184,200,27829,6,0,B|120:144|152:48,1,160,2|12
240,88,28549,1,2
252,126,28669,1,0
266,163,28789,2,0,B|305:235|391:279,1,160,2|8
443,77,29749,6,0,B|406:127|426:192,2,120,4|2|0
364,62,30709,2,0,B|314:99|249:89,1,120,2|0
136,96,31429,5,0
112,128,31549,1,0
88,160,31669,2,0,B|32:240,1,80,0|0
120,240,32149,2,0,B|64:320,1,80,8|0
144,344,32629,2,0,B|224:376|304:352,1,160,0|8
384,216,33589,5,0
304,128,33949,1,0
304,128,34069,1,8
264,240,34309,1,0
264,240,34549,5,0
168,168,34909,1,0
168,168,35029,1,8
280,128,35269,1,0
344,80,35509,6,0,B|352:184|432:248,1,160,4|8
168,80,36469,2,0,B|160:184|80:248,1,160,0|8
352,304,37429,2,0,B|304:288|256:232|256:232|208:288|152:312,1,240,0|8
120,240,39109,5,2
128,200,39229,1,0
152,168,39349,2,0,B|152:88|256:64|256:64|360:88|360:179,1,320,0|4
256,192,42229,5,2
248,208,43189,1,0
240,224,44149,1,2
232,240,45109,6,0,B|168:312|72:280,1,160
87,284,46069,1,2
96,264,46549,2,0,B|137:188|113:100,1,160,0|2
72,40,47269,5,0
152,24,47509,1,0
232,48,47749,1,0
312,32,47989,1,2
464,80,48469,5,8
464,80,48949,2,0,B|416:136|448:256,1,160,4|0
442,232,49669,1,8
464,312,49909,2,0,B|400:360|296:352,1,160,8|0
240,320,50629,5,0
160,296,50869,2,0,B|167:208|119:144,1,160,8|0
119,144,51589,1,8
160,72,51829,2,0,B|216:120|336:88,1,160,8|0
384,56,52549,1,0
424,128,52789,6,0,B|392:208|288:208,1,160,8|0
256,136,53509,1,8
215,207,53749,2,0,B|120:208|88:128,1,160,8|0
144,72,54469,1,0
256,32,54709,5,8
192,136,55069,1,8
320,136,55429,1,8
256,184,55669,2,0,B|256:344,1,160,0|8
136,240,56629,6,0,B|96:184|128:104,1,120,4|0
120,124,57109,1,8
280,104,57589,2,0,B|360:96|448:104,1,160,0|8
456,184,58309,1,0
456,184,58429,1,0
456,184,58549,2,0,B|432:232|352:288,1,120
336,288,59029,1,8
256,280,59269,1,0
192,232,59509,2,0,B|199:152|191:72,1,160,0|8
120,40,60229,5,0
48,64,60469,2,0,B|40:128|72:200,2,120,4|2|0
120,104,61429,2,0,B|157:156|230:187,2,120,0|2|0
200,88,62389,2,0,B|263:100|337:73,2,120,0|2|0
136,48,63349,2,0,B|96:120|136:240,1,160,8|8
160,280,64069,5,8
200,280,64189,1,8
240,280,64309,2,0,B|368:280,1,120,4|0
456,200,65029,1,0
416,200,65149,1,8
376,200,65269,2,0,B|232:200,1,120,0|0
256,200,65749,1,8
192,152,65989,5,0
152,152,66109,1,0
112,152,66229,2,0,B|32:152|32:72,1,120,4|2
144,32,66949,1,0
184,32,67069,1,8
224,32,67189,2,0,B|304:32|304:112,1,120,2|0
303,102,67669,1,8
288,184,67909,5,0
240,248,68149,1,4
80,72,68869,2,0,B|64:120,2,40,2|8|0
136,128,69349,2,0,B|152:176,1,40,2|0
208,272,69829,5,0
264,328,70069,2,0,B|352:352|416:272,1,160,6|8
360,216,70789,1,0
408,152,71029,2,0,B|352:81|264:105,1,160,2|8
192,248,71989,5,8
264,152,72349,1,0
144,136,72709,1,8
136,144,72949,5,8
24,96,73309,1,0
120,16,73669,1,8
192,56,73909,5,0
272,48,74149,1,0
344,88,74389,1,8
424,88,74629,2,0,B|464:120|448:168,2,80
368,144,75349,5,8
288,120,75589,1,0
232,176,75829,1,0
152,168,76069,1,0
112,240,76309,1,8
32,248,76549,1,0
64,320,76789,5,0
136,344,77029,1,0
176,328,77149,1,0
216,312,77269,1,8
376,296,77749,6,0,B|424:216|376:128,1,160,0|12
336,80,78469,1,0
264,40,78709,2,0,B|240:96|184:128,2,120,8|0|2
184,40,79669,5,2
112,80,79909,1,0
144,152,80149,1,8
96,216,80389,1,0
160,264,80629,2,0,B|160:320|216:360|280:336,1,160,8|2
328,288,81349,5,8
328,248,81469,1,8
328,208,81589,2,0,B|328:128,1,80,4|0
264,80,82069,2,0,B|248:128|216:176,2,80,8|0|0
184,56,82789,5,0
160,136,83029,1,8
88,96,83269,1,0
88,176,83509,1,2
16,144,83749,1,0
32,224,83989,1,8
104,264,84229,1,0
152,328,84469,2,0,B|216:360|304:336,1,120,0|0
360,264,85189,5,0
328,192,85429,1,4
328,192,85909,2,0,B|264:208|208:160,1,120,8|0
192,136,86389,1,0
200,56,86629,1,0
280,64,86869,1,8
352,96,87109,5,0
352,96,87349,2,0,B|320:152|328:224,1,120,0|0
208,232,88069,2,0,B|213:271|243:304,1,80,0|2
392,352,88789,5,8
352,288,89029,1,8
336,256,89149,1,8
320,224,89269,2,0,B|280:144,1,80,4|0
208,128,89749,2,0,B|168:120|136:96,1,80,8|0
64,136,90229,2,0,B|56:176|32:208,1,80,0|0
104,240,90709,2,0,B|144:224|184:200,1,80,8|0
216,136,91189,5,0
272,80,91429,1,0
352,88,91669,1,8
432,64,91909,1,0
456,136,92149,2,0,B|464:192,1,40
392,216,92509,2,0,B|400:280|336:320,1,120,0|0
264,280,93109,5,4
264,280,93589,2,0,B|184:320|104:264,1,160,12|0
136,192,94309,1,0
200,136,94549,2,0,B|280:96|360:152,1,160,8|0
384,216,95269,5,0
360,296,95509,1,8
288,256,95749,1,0
224,312,95989,1,0
168,256,96229,1,0
88,264,96469,1,10
88,184,96709,5,8
112,152,96829,1,8
136,120,96949,2,0,B|192:40,1,80,4|0
256,72,97429,2,0,B|216:168|312:208,1,160,8|0
303,204,98149,1,0
303,204,98389,2,0,B|399:244|439:148,1,160,8|2
368,120,99109,5,0
288,128,99349,1,8
208,112,99589,1,0
128,96,99829,1,0
48,120,100069,1,0
32,152,100189,1,0
16,184,100309,1,8
176,192,100789,6,0,B|120:272|192:352,1,160,4|8
256,304,101509,1,0
256,224,101749,1,2
256,224,101869,1,0
256,144,102109,1,0
330,44,102469,1,0
337,190,102709,6,0,B|392:112|330:44,1,160,0|8
256,80,103429,1,0
181,44,103669,2,0,B|120:112|174:190,1,160,0|2
256,104,121909,6,0,B|216:184|136:208,1,160
139,206,122869,1,2
256,280,123829,6,0,B|296:200|376:176,1,160
372,178,124789,1,2
256,104,125749,6,0,B|256:264,1,160
256,264,126709,1,2
256,264,127189,5,2
336,280,127429,1,0
416,264,127669,1,0
496,280,127909,1,0
472,200,128149,2,0,B|432:184|408:144,1,80,2|0
344,112,128629,2,0,B|264:128|184:112,1,160,0|2
185,112,129589,5,8
136,168,130309,1,8
136,168,130549,2,0,B|168:232|256:272,1,160,8|0
254,271,131269,5,0
254,271,131509,2,0,B|340:231|372:167,1,160,8|0
304,120,132229,1,8
256,56,132469,1,8
256,56,133189,5,0
208,120,133429,1,8
112,248,133909,1,0
256,312,134389,1,8
400,248,134869,1,0
400,248,135109,1,0
368,176,135349,1,8
256,144,135709,1,8
144,176,136069,1,8
176,248,136309,2,0,B|336:248,1,160,0|8
448,200,137269,6,0,B|384:176|368:104,1,120
370,114,137749,1,8
312,64,137989,1,0
272,57,138109,1,8
232,50,138229,2,0,B|136:34,1,80
112,104,138709,2,0,B|200:120,1,80,8|0
264,152,139189,2,0,B|272:216|216:264,2,120,0|2|0
184,152,140149,2,0,B|24:152,1,160,0|8
8,232,140869,5,0
64,288,141109,2,0,B|128:328|200:336,1,120
174,332,141589,1,8
112,232,141829,5,0
168,288,142069,2,0,B|232:328|304:336,1,120
278,332,142549,1,8
216,232,142789,5,0
280,280,143029,2,0,B|344:320|416:328,1,120
390,324,143509,1,8
440,256,143749,1,0
384,200,143989,2,0,B|320:176|320:104,1,120,0|8
320,108,144709,5,8
280,96,144829,1,0
240,80,144949,2,8,B|184:56|128:40,1,120,0|0
72,144,145669,1,0
144,184,145909,2,0,B|200:208|256:224,1,120,2|0
256,224,146389,1,8
328,264,146629,5,0
360,248,146749,1,0
392,232,146869,2,0,B|448:200|472:144,1,120,4|2
376,80,147589,1,0
344,104,147709,1,8
312,128,147829,2,0,B|274:149|258:186,1,80,0|0
232,264,148309,1,10
168,216,148549,6,0,B|144:184,2,40,0|0|4
288,48,149509,2,0,B|328:96,2,40,0|8|0
224,104,149989,2,0,B|208:144,1,40,2|0
88,192,150469,5,0
128,272,150709,2,0,B|184:336|288:328,1,160,2|8
352,288,151429,1,0
312,208,151669,2,0,B|256:144|152:152,1,160,2|8
256,192,152629,12,0,154309
320,112,154549,5,0
272,48,154789,1,0
240,120,155029,1,8
160,120,155269,1,0
200,184,155509,1,0
136,232,155749,1,0
216,256,155989,1,8
184,328,156229,1,0
264,312,156469,6,0,B|320:240,1,80
272,176,156949,2,0,B|328:104,1,80,8|0
368,48,157429,1,0
368,48,157549,2,0,B|424:96|440:176,1,120,0|8
432,147,158389,5,0
360,288,158869,1,12
296,144,159349,1,0
224,280,159829,1,8
224,280,160069,5,0
152,304,160309,2,0,B|56:304|56:200,1,160,2|8
88,128,161029,1,0
160,96,161269,2,0,B|208:80,1,40
208,160,161629,2,0,B|256:168,1,40,0|8
312,120,161989,5,8
352,128,162109,1,8
392,136,162229,2,0,B|456:192|408:296,1,160,4|8
344,320,162949,1,0
344,320,163069,2,0,B|280:336|224:304,1,120,8|0
184,240,163669,1,8
208,160,163909,2,0,B|165:149|129:170,1,80,0|0
80,232,164389,5,0
40,304,164629,1,8
120,296,164869,1,0
184,344,165109,1,0
184,344,165229,2,0,B|240:312|216:224,1,120,0|8
120,112,166069,6,0,B|144:24|256:32,1,160,4|8
312,64,166789,1,0
304,144,167029,2,0,B|328:232|440:224,1,160,0|8
416,144,167749,1,0
384,72,167989,2,0,B|288:112|296:224,1,160,0|8
272,272,168709,2,0,B|256:320|200:328,3,80,0|0|0|8
200,248,169669,5,8
160,248,169789,1,8
120,248,169909,2,0,B|16:248,1,80,4|0
72,152,170389,2,0,B|168:152,1,80,8|0
112,264,170869,2,0,B|24:264,1,80
88,136,171349,2,0,B|184:136,1,80,8|0
248,136,171829,6,0,B|264:88|312:88|360:88|376:144,1,160,0|8
312,184,172549,1,0
376,240,172789,2,0,B|360:288|312:288|264:288|248:232,1,160,0|8
184,96,173749,6,0,B|192:192|96:240,1,160,0|12
328,96,174709,2,0,B|320:192|416:240,1,160,0|8
256,304,175669,5,0
232,224,175909,1,0
264,152,176149,1,8
256,72,176389,2,0,B|256:32,2,40,0|8|0
264,152,176869,1,0
264,152,176989,2,0,B|224:208|144:192,1,120,0|8
120,176,177469,5,8
120,176,177589,2,0,B|72:160|40:192|16:224|40:272,1,160,4|8
112,248,178309,1,0
112,248,178549,2,0,B|200:320,1,80
240,256,179029,2,0,B|336:256,1,80,8|0
437,250,179509,2,0,B|376:200,1,80
312,144,179989,5,8
272,72,180229,1,0
192,88,180469,2,0,B|104:128,1,80
184,168,180949,2,0,B|96:208,1,80,8|0
336,192,181429,6,0,B|392:272|320:352,1,160,4|8
256,304,182149,1,0
256,224,182389,1,2
256,224,182509,1,0
256,144,182749,1,0
182,44,183109,1,0
175,190,183349,6,0,B|120:112|182:44,1,160,0|8
256,80,184069,1,0
331,44,184309,2,0,B|392:112|338:190,1,160,0|0
256,192,185389,12,0,187189
112,80,187669,5,8
136,240,188149,1,0
224,104,188629,1,8
256,264,189109,2,0,B|328:312|416:296,1,160,2|8
400,216,189829,1,0
360,144,190069,5,0
288,184,190309,1,0
272,104,190549,1,8
192,104,190789,1,0
152,104,190909,1,0
112,104,191029,1,4
104,184,191269,6,0,B|104:264,1,80,0|8
80,336,191749,2,0,B|120:352|168:336,1,80
158,338,192469,6,0,B|192:296,3,40,8|0|0|0
152,280,192949,2,0,B|160:208,3,40
184,208,193429,2,0,B|168:160,2,40,8|0|0
216,184,193789,2,0,B|248:144,4,40
216,224,194389,2,0,B|256:248|304:264,1,80,8|0
368,280,194869,6,0,B|368:240,3,40
368,240,195349,2,0,B|336:192,3,40,8|0|0|0
345,206,195829,2,0,B|344:160,3,40
344,166,196309,2,0,B|312:128,3,40,8|0|0|0
318,136,196789,6,0,B|248:136,3,40
264,96,197269,2,0,B|218:64,1,40,8|0
200,96,197509,2,0,B|146:94,1,40
136,120,197749,2,0,B|56:144|48:248,1,160,0|10
64,320,198469,6,0,B|112:352|168:328,1,80,0|4
184,272,198949,1,0
264,248,199189,2,0,B|304:208,3,40,8|0|0|0
280,184,199669,2,0,B|248:120|272:48,1,120
266,67,200149,1,8
336,104,200389,1,0
408,48,200629,6,0,B|432:88,1,40
464,104,200869,2,0,B|452:149,1,40,0|0
472,184,201109,2,0,B|432:208,1,40,8|0
416,240,201349,2,0,B|370:228,1,40,0|0
336,232,201589,2,0,B|311:192,1,40,0|0
280,176,201829,2,0,B|291:130,1,40,0|0
272,96,202069,2,0,B|311:71,3,40,8|0|0|0
328,40,202549,2,0,B|373:51,8,40,0|0|0|0|2|0|0|0|0
256,192,203629,12,4,204469
256,192,212149,5,0
432,88,213829,5,0
432,88,214069,1,0
160,192,215989,6,8,B|160:312|256:328|344:312|344:184,2,320
152,112,218149,1,0
208,56,218389,1,8
304,56,218629,1,0
360,112,218869,2,0,B|392:112,8,20,8|0|0|0|0|0|0|0|8
256,112,219589,5,8
232,184,219829,2,0,B|208:232|248:280,1,80,4|0
304,216,220309,1,8
384,216,220549,2,0,B|432:216,1,40,0|2
440,96,221029,6,0,B|360:96,1,80,0|8
296,48,221509,2,0,B|224:80,1,80
176,144,221989,2,0,B|272:144,1,80,0|8
336,144,222469,1,0
352,224,222709,2,0,B|256:232|240:328,1,160,0|8
112,224,223669,5,0
176,80,224149,1,12
208,152,224389,1,0
240,224,224629,1,0
312,80,225109,1,8
344,152,225349,1,0
384,224,225589,2,0,B|408:288|368:336,1,120
367,336,226069,1,8
304,280,226309,1,0
304,280,226549,2,0,B|144:280,1,160,0|8
88,224,227269,5,8
88,184,227389,1,8
88,144,227509,2,0,B|88:56,1,80,4|0
216,40,227989,2,0,B|216:128,1,80,8|0
72,144,228469,2,0,B|64:48,1,80
224,40,228949,2,0,B|232:136,1,80,8|0
240,200,229429,6,0,B|256:256|312:288,1,80
360,256,229909,2,0,B|331:306|348:369,1,80,8|0
264,312,230389,2,0,B|208:328|176:384,1,80,0|0
197,354,230749,1,0
197,354,230869,1,8
72,256,231349,6,0,B|40:184|96:112,2,120,4|0|0
152,256,232309,2,0,B|312:256,1,160,0|8
344,184,233029,1,0
312,112,233269,6,0,B|256:184|168:176,1,160,0|8
144,248,233989,1,0
200,304,234229,2,0,B|256:232|344:240,1,160,0|8
408,200,234949,6,8,B|456:160,1,40
464,144,235189,2,0,B|464:32,1,80,4|0
400,16,235669,2,0,B|376:56|320:80,1,80,8|0
341,69,236029,1,0
224,104,236389,6,0,B|120:104,1,80,0|8
104,176,236869,2,0,B|192:176,1,80
264,176,237349,1,0
328,224,237589,1,8
352,304,237829,1,0
416,352,238069,1,0
416,352,238189,2,0,B|456:288|432:200,1,120,0|8
320,128,239029,6,0,B|144:128,1,160,0|12
104,184,239749,1,0
160,240,239989,2,0,B|208:240,1,40
248,304,240349,2,0,B|296:320,1,40,0|8
352,264,240709,1,0
432,240,240949,2,0,B|416:192|360:184,1,80,2|0
296,184,241429,2,0,B|200:184,1,80,8|0
136,184,241909,1,0
136,184,242029,2,0,B|48:184,1,80
56,64,242629,5,8
96,64,242749,1,8
136,64,242869,2,0,B|240:64,1,80,4|0
296,64,243349,1,8
296,64,243589,2,0,B|352:88|328:152,1,80
256,128,244069,2,0,B|152:128,1,80,0|8
104,168,244549,1,0
144,240,244789,5,0
176,312,245029,1,0
236,259,245269,1,8
311,226,245509,1,0
386,194,245749,1,0
438,128,245989,1,0
432,93,246109,1,0
427,57,246229,1,8
256,40,246709,6,0,B|176:40|184:168,1,160,0|8
256,192,247429,1,0
216,256,247669,2,0,B|200:296,1,40
310,293,248029,2,0,B|296:256,1,40,0|8
256,192,248389,1,0
336,192,248629,6,0,B|360:128|304:32,1,160,0|8
256,96,249349,1,0
203,39,249589,2,0,B|152:128|176:192,1,160,0|2
