osu file format v9

[General]
AudioFilename: magic a ride.mp3
AudioLeadIn: 0
PreviewTime: 51901
Countdown: 0
SampleSet: Normal
StackLeniency: 0.5
Mode: 0
LetterboxInBreaks: 0

[Editor]
DistanceSpacing: 1.2
BeatDivisor: 4
GridSize: 8

[Metadata]
Title:magicaride
Artist:fripSide
Creator:swish
Version:Normal
Source:magic a ride
Tags:studio ryokucha quo mforever

[Difficulty]
HPDrainRate:4
CircleSize:4
OverallDifficulty:5
ApproachRate:5
SliderMultiplier:0.800000005960464
SliderTickRate:1

[Events]
//Background and Video events
0,0,"02706.png"
Video,0,"magic a ride_OP.avi"
//Break Periods
2,75035,79282
//Storyboard Layer 0 (Background)
//Storyboard Layer 1 (Fail)
//Storyboard Layer 2 (Pass)
//Storyboard Layer 3 (Foreground)
//Storyboard Sound Samples
//Background Colour Transformations
3,100,163,162,255

[TimingPoints]
18365,352.941176470588,4,1,0,80,1,0
52247,-100,4,1,0,80,0,1
74835,-100,4,1,0,80,0,0
80482,-133.333333333333,4,2,0,80,0,0
97423,-100,4,1,0,80,0,0
103070,-100,4,1,0,80,0,1
125659,-100,4,1,0,80,0,0

[Colours]
Combo1 : 0,29,64
Combo2 : 64,0,64
Combo3 : 43,0,85
Combo4 : 46,18,39
Combo5 : 34,6,57

[HitObjects]
80,80,29659,2,0,B|208:176|208:176,1,160.000001192093,2|0
304,168,30717,1,0
392,128,31070,2,0,B|416:216|416:216,1,80.0000005960464,2|0
384,296,31776,1,2
288,304,32129,1,0
200,264,32482,6,0,B|200:184|200:184,2,80.0000005960464,2|0|2
112,224,33541,1,0
72,136,33894,1,2
136,64,34247,1,0
232,72,34600,2,0,B|240:152|240:152,1,80.0000005960464,2|0
248,248,35306,6,0,B|304:192|304:192,1,80.0000005960464,2|0
344,280,36012,2,0,B|288:336|288:336,1,80.0000005960464,2|0
192,320,36717,1,2
104,280,37070,1,0
184,224,37423,1,2
256,192,37776,12,0,39188
216,80,39894,5,0
288,144,40247,1,2
288,144,40423,1,0
344,224,40776,6,0,B|416:184|416:184,1,80.0000005960464,0|0
413,185,41306,1,0
464,104,41659,2,0,B|408:32|408:32,1,80.0000005960464,2|0
414,40,42188,1,0
272,64,42717,1,0
272,64,43070,6,0,B|216:64|216:112|216:112,1,80.0000005960464,2|0
216,109,43600,1,0
160,240,44129,1,0
232,304,44482,1,2
232,304,44659,2,0,B|288:240|288:240,1,80.0000005960464,0|2
312,152,45364,1,0
312,152,45541,1,0
304,56,45894,6,2,B|192:56|192:168|192:168,1,160.000001192093,2|2
464,248,47659,6,0,B|408:192|408:192,1,80.0000005960464,0|2
320,232,48364,2,0,B|248:200|248:200,1,80.0000005960464,0|2
152,208,49070,1,0
256,192,49423,12,0,50835
120,280,51541,5,0
208,320,51894,1,0
304,328,52247,1,2
400,320,52600,2,0,B|480:320|480:320|480:240|480:240,1,160.000001192093,0|0
480,144,53659,2,0,B|440:144|440:144,3,40.0000002980232,2|0|0|0
304,184,54717,5,0
232,120,55070,1,2
192,208,55423,1,0
264,272,55776,1,2
168,280,56129,2,0,B|88:280|88:280,1,80.0000005960464,0|2
64,184,56835,1,0
64,184,57188,1,2
120,104,57541,6,0,B|176:48|176:48,1,80.0000005960464,0|2
184,144,58247,2,0,B|128:200|128:200,1,80.0000005960464,0|2
200,264,58953,2,0,B|256:320|256:320,1,80.0000005960464,0|2
352,304,59659,1,0
352,304,59835,1,2
400,168,60365,5,0
400,168,60717,2,0,B|376:80|288:64,1,160.000001192093
192,56,61776,1,0
104,96,62129,2,2,B|104:176|104:176,2,80.0000005960464,2|0|2
192,136,63188,5,0
208,232,63541,1,2
264,312,63894,1,0
360,328,64247,1,2
456,328,64600,2,0,B|456:248|456:248,1,80.0000005960464,0|2
392,176,65306,2,0,B|392:96|392:96,1,80.0000005960464,0|2
296,88,66012,5,0
208,128,66365,1,2
288,184,66718,1,0
200,224,67071,1,2
160,312,67424,2,0,B|80:312|80:312,1,80.0000005960464,0|2
80,216,68129,2,0,B|104:128,1,80.0000005960464,0|2
136,48,68835,5,0
136,48,69188,2,0,B|192:56|224:80,1,80.0000005960464,2|0
296,120,69894,2,0,B|328:152|336:200,1,80.0000005960464
360,280,70600,1,2
232,216,71129,2,0,B|144:296,1,120.00000089407
256,192,72012,12,0,74835
320,88,80482,6,0,B|416:120|448:216|448:216,1,179.999995976686,2|0
408,272,81894,2,0,B|320:320|232:304,1,179.999995976686
248,232,83306,2,0,B|136:200|96:128|96:128,1,179.999995976686,2|0
144,80,84717,2,0,B|232:96|232:160|232:160,1,119.999997317791,2|0
240,296,86129,6,0,B|328:296|328:296|328:200|328:200,1,179.999995976686,2|0
256,200,87541,2,0,B|256:112|256:112|352:112|352:112,1,179.999995976686,2|0
424,112,88953,2,0,B|424:296|424:296,1,179.999995976686,2|0
352,296,90365,1,2
352,296,90717,2,0,B|312:296|312:296,2,29.9999993294477,0|0|2
272,176,91776,5,2
192,56,92482,1,0
72,136,93188,1,2
152,256,93894,1,0
272,176,94600,1,2
280,320,95306,1,0
400,240,96012,1,2
272,176,96717,1,0
128,304,97423,6,0,B|80:288|80:240,1,80.0000005960464,2|0
88,152,98129,2,0,B|96:104|136:72,1,80.0000005960464,2|0
224,80,98835,2,0,B|256:112|272:160,1,80.0000005960464,2|0
288,240,99541,2,0,B|320:280|368:280,1,80.0000005960464,2|0
256,192,100247,12,4,101659
456,96,102717,5,0
360,80,103070,1,2
400,168,103423,1,0
312,200,103776,1,2
216,184,104129,2,0,B|160:128|160:128,1,80.0000005960464,0|2
72,88,104835,1,0
32,176,105188,1,2
72,264,105541,6,0,B|72:344|72:344|152:344|152:344,1,160.000001192093,0|0
152,344,106600,1,2
240,304,106953,2,0,B|288:288|304:240,1,80.0000005960464,0|2
224,192,107659,2,0,B|176:208|160:256,1,80.0000005960464,0|2
208,328,108365,5,0
304,312,108717,1,2
384,256,109070,1,0
424,168,109423,2,0,B|424:88|424:88,1,80.0000005960464,2|0
336,40,110129,2,0,B|256:40|256:112|256:112,1,120.00000089407,2|0
304,248,111188,5,0
232,312,111541,1,2
160,248,111894,1,0
232,184,112247,1,2
304,248,112600,1,0
400,248,112953,2,0,B|440:248|440:248,4,40.0000002980232,2|0|0|0|2
304,248,114012,5,0
216,208,114365,1,2
296,152,114718,1,0
216,208,115071,1,2
152,136,115423,2,0,B|168:88|200:56,1,80.0000005960464,0|2
280,32,116129,2,0,B|336:40|368:72,1,80.0000005960464,0|2
384,152,116835,5,0
424,240,117188,1,2
360,312,117541,1,0
320,224,117894,1,2
384,152,118247,2,0,B|344:128|304:128,1,80.0000005960464,0|2
216,152,118953,2,0,B|184:184|184:232,1,80.0000005960464,0|2
176,320,119659,5,0
88,280,120012,1,2
168,224,120365,1,0
80,184,120717,1,2
152,128,121070,2,0,B|208:64|304:80,1,160.000001192093
336,168,122129,1,2
296,256,122482,1,0
256,192,122835,12,0,125659
