osu file format v9

[General]
AudioFilename: magic a ride.mp3
AudioLeadIn: 0
PreviewTime: 51901
Countdown: 0
SampleSet: Normal
StackLeniency: 0.5
Mode: 0
LetterboxInBreaks: 0

[Editor]
DistanceSpacing: 1.8
BeatDivisor: 4
GridSize: 8

[Metadata]
Title:magicaride
Artist:fripSide
Creator:swish
Version:Hard
Source:magic a ride
Tags:studio ryokucha quo mforever

[Difficulty]
HPDrainRate:6
CircleSize:4
OverallDifficulty:7
ApproachRate:7
SliderMultiplier:1.4
SliderTickRate:1

[Events]
//Background and Video events
0,0,"02706.png"
Video,0,"magic a ride_OP.avi"
//Break Periods
2,75035,79582
//Storyboard Layer 0 (Background)
//Storyboard Layer 1 (Fail)
//Storyboard Layer 2 (Pass)
//Storyboard Layer 3 (Foreground)
//Storyboard Sound Samples
//Background Colour Transformations
3,100,163,162,255

[TimingPoints]
18365,352.941176470588,4,1,0,80,1,0
47659,-100,4,2,0,80,0,0
50482,-100,4,1,0,80,0,0
52247,-100,4,1,0,80,0,1
57541,-100,4,1,0,80,0,1
74835,-100,4,1,0,80,0,0
80482,-200,4,2,0,80,0,0
97423,-100,4,1,0,80,0,0
103070,-100,4,1,0,80,0,1
125659,-100,4,1,0,80,0,0

[Colours]
Combo1 : 0,29,64
Combo2 : 64,0,64
Combo3 : 43,0,85
Combo4 : 46,18,39
Combo5 : 34,6,57

[HitObjects]
384,160,29659,2,0,B|416:256|352:320|352:320,1,140,2|0
296,328,30188,1,0
216,304,30364,2,0,B|216:208|312:176|312:176,1,140,2|0
328,120,30894,1,0
288,48,31070,2,0,B|192:48|160:112|160:112,1,140,2|0
165,103,31600,1,0
136,184,31776,2,0,B|200:120|136:56|136:56,1,140,2|0
138,58,32306,1,0
224,40,32482,6,0,B|256:136|352:136|352:136,1,140,2|0
360,208,33012,1,0
312,280,33188,1,2
312,280,33364,1,0
232,320,33541,1,0
192,320,33629,1,0
152,304,33717,1,0
88,248,33894,6,0,B|56:152|120:120|120:120,1,140,2|0
192,80,34423,1,0
264,32,34600,1,2
312,104,34776,1,0
240,152,34953,1,2
376,56,35306,6,0,B|440:128|440:200,1,140,2|0
416,256,35835,2,0,B|336:264,1,70,0|2
272,296,36188,1,0
192,312,36365,2,0,B|112:280|80:224,1,140,0|2
120,152,36894,5,0
224,80,37070,1,0
336,136,37247,2,0,B|368:184|368:224,1,70,0|2
312,312,37600,1,0
184,304,37776,2,0,B|152:256|152:216,1,70,0|0
208,128,38129,2,0,B|240:176|240:216,1,70,2|0
237,191,38482,1,0
256,192,38659,12,0,39541
264,128,39894,5,2
144,240,40247,1,0
160,264,40335,1,0
184,280,40423,1,0
208,280,40512,1,0
232,280,40600,1,2
312,264,40776,6,0,B|344:200|336:128|336:128,1,140,0|0
424,136,41306,1,2
432,56,41482,2,0,B|384:32|344:32,1,70,0|0
280,40,41835,1,0
264,120,42012,1,2
264,200,42188,6,0,B|128:296,1,140,0|0
72,256,42717,1,2
64,176,42894,1,0
88,96,43070,2,0,B|232:96,1,140,0|2
208,176,43600,2,0,B|352:176,1,140,0|0
352,256,44129,2,0,B|424:256,2,70,2|0|0
272,256,44659,1,0
312,184,44835,5,2
384,144,45012,2,0,B|432:80|352:24|352:24,1,140,0|0
272,40,45541,1,2
232,112,45717,1,0
152,88,45894,2,0,B|88:120|56:88|56:88,2,70,0|0|2
120,168,46423,1,0
56,224,46600,1,0
224,208,46953,1,2
264,48,47306,1,0
96,88,47659,5,2
176,56,47835,1,0
160,136,48012,1,2
240,160,48188,1,0
184,224,48365,1,2
144,296,48541,1,0
216,336,48717,1,2
256,264,48894,1,2
184,224,49070,1,2
256,192,49423,12,0,50482
256,192,50659,12,4,51541
352,264,51894,5,0
408,200,52070,1,0
360,128,52247,1,2
360,128,52600,2,0,B|328:64|232:64|232:64,1,140,0|2
160,56,53129,5,0
80,80,53306,1,0
96,160,53482,1,0
144,224,53659,1,2
144,224,53747,1,0
144,224,53835,1,0
216,176,54012,5,0
112,304,54188,1,0
192,312,54365,6,0,B|256:352|256:352,1,70,2|0
312,288,54717,1,0
312,288,54894,1,0
440,288,55070,1,2
440,288,55247,1,0
376,176,55423,1,0
448,128,55600,2,0,B|384:96|384:96,1,70,0|2
216,72,56129,5,0
312,176,56306,1,0
168,160,56482,1,2
296,96,56659,1,0
224,216,56835,1,0
240,144,57012,1,0
472,40,57541,5,0
416,104,57717,2,0,B|448:200|448:200,1,70,0|2
456,256,58070,1,0
392,312,58247,1,0
312,296,58423,2,0,B|168:296,1,140,0|0
128,224,58953,6,0,B|160:128|96:64|96:64,1,140,0|2
192,56,59482,1,0
272,40,59659,1,0
352,56,59835,1,0
424,296,60365,6,0,B|360:360|296:360|296:360,1,140,0|2
224,344,60894,1,0
224,344,61070,1,0
144,312,61247,1,0
120,280,61335,1,0
96,248,61423,1,2
72,168,61600,1,0
72,168,61776,2,0,B|152:120,1,70,0|0
200,176,62129,5,2
216,184,62217,1,0
232,192,62306,1,0
248,200,62394,2,0,B|296:200|296:200|304:200,3,35,0|0|0|0
368,176,62835,2,0,B|440:136,1,70,2|0
408,64,63188,5,0
312,144,63365,1,0
264,32,63541,1,2
144,152,63894,6,0,B|104:88|104:88,1,70,0|0
232,280,64247,2,0,B|272:344|272:344,1,70,2|0
112,256,64600,2,0,B|48:296|48:296,1,70,0|0
256,176,64953,2,0,B|320:136|320:136,1,70,2|0
392,96,65306,1,0
392,96,65482,1,0
144,72,66012,5,0
144,72,66188,1,0
144,72,66365,2,0,B|160:152|160:152,1,70,2|0
240,168,66717,2,0,B|224:88|224:88,1,70,0|0
296,48,67070,2,0,B|312:128|312:128,1,70,2|0
310,116,67423,5,0
336,200,67600,1,0
336,200,67688,1,0
336,200,67776,1,0
336,288,67953,2,0,B|336:336|336:336,6,35,0|0|0|0|0|0|2
256,96,68835,5,0
184,200,69012,1,0
328,200,69188,1,2
192,32,69541,2,0,B|256:8|336:32,2,140,0|2|0
256,280,70600,6,0,B|256:136,1,140,2|0
256,140,71129,1,0
184,232,71482,5,0
328,232,71659,1,0
256,192,72012,12,0,73070
256,192,73159,12,4,74835
320,64,80482,6,0,B|408:152|416:248|416:248,1,210,2|0
328,248,81894,2,0,B|280:336|144:336|144:336,1,210,2|0
128,256,83306,2,0,B|40:168|112:64|112:64,1,210,2|0
192,80,84717,2,0,B|288:112|320:176|320:176,1,140,2|0
384,304,86129,5,2
216,272,86835,1,0
288,120,87541,1,2
120,144,88247,1,0
288,120,88953,1,2
216,272,89659,1,0
88,160,90365,5,2
176,192,90717,1,0
176,192,90894,2,0,B|176:160,2,17.5,0|2|0
88,48,91776,6,0,B|152:112|120:176|120:176,1,140,2|0
96,256,92835,1,0
160,312,93188,2,0,B|256:280|256:216|256:216,1,140,2|0
255,219,94247,1,0
312,152,94600,2,0,B|312:56|376:24,1,140,2|0
448,32,95659,1,0
448,32,95835,2,0,B|448:64,2,17.5,0|2|0
448,200,96717,1,2
128,96,97423,5,2
152,200,97600,1,0
232,128,97776,1,0
256,232,97953,1,0
336,160,98129,1,2
360,264,98306,1,0
440,192,98482,1,0
464,296,98659,1,0
416,256,98835,6,0,B|352:320|352:320,1,70,2|0
96,256,99188,2,0,B|160:320|160:320,1,70,0|0
96,128,99541,2,0,B|160:64|160:64,1,70,2|0
416,128,99894,2,0,B|352:64|352:64,1,70,0|0
256,192,100247,12,4,101659
144,72,102717,5,0
72,120,102894,1,0
96,200,103070,1,2
96,200,103423,2,0,B|120:272|208:280|208:280,1,140,0|2
288,288,103953,5,0
360,328,104129,1,0
416,264,104306,1,0
440,184,104482,1,2
440,144,104570,1,0
440,104,104659,1,0
360,72,104835,5,0
360,72,105012,1,0
272,88,105188,2,0,B|200:96|200:96,1,70,2|0
128,136,105541,1,0
248,176,105717,1,0
120,176,105894,1,2
240,216,106070,1,0
112,216,106247,1,0
232,264,106423,2,0,B|216:344|216:344,1,70,0|2
352,240,106953,5,0
352,160,107129,1,0
424,200,107306,1,2
424,280,107482,1,0
352,320,107659,1,0
280,280,107835,1,0
280,200,108012,1,2
72,136,108364,5,0
120,200,108541,2,0,B|192:176|192:176,1,70,0|2
264,152,108894,1,0
344,160,109070,1,0
392,232,109247,2,0,B|384:304|296:328|296:328,1,140,0|0
216,304,109776,6,0,B|224:232|312:208|312:208,1,140,0|2
384,168,110306,1,0
440,104,110482,1,0
384,40,110659,1,0
136,72,111188,6,0,B|96:136|136:216|136:216,1,140,0|2
168,280,111717,1,0
168,280,111894,1,0
240,320,112070,1,0
280,328,112159,1,0
320,328,112247,1,2
400,328,112423,1,0
400,328,112600,2,0,B|448:264|448:264,1,70,0|0
440,184,112953,5,2
416,184,113041,1,0
392,184,113129,1,0
368,184,113217,2,0,B|328:152|328:152,3,35
264,120,113659,6,0,B|208:80|208:80,1,70,2|0
152,144,114012,1,0
88,248,114188,1,0
192,312,114364,1,2
344,232,114717,5,0
344,128,114894,1,0
288,248,115070,1,2
288,112,115247,1,0
232,264,115423,1,0
232,96,115600,1,0
176,248,115776,1,2
176,112,115953,1,0
120,232,116129,1,0
120,128,116306,1,0
288,320,116835,5,0
288,320,117012,1,0
288,320,117188,2,0,B|320:256|320:256,1,70,2|0
376,144,117541,2,0,B|344:208|344:208,1,70,0|0
264,200,117894,2,0,B|200:168|200:168,1,70,2|0
201,168,118247,5,0
128,128,118423,1,0
128,128,118512,1,0
128,128,118600,1,2
128,48,118776,2,0,B|128:0|128:0,6,35,0|0|0|0|0|0|2
256,288,119659,5,0
328,184,119835,1,0
184,184,120011,1,2
320,352,120364,2,0,B|256:376|176:352,2,140,0|2|0
256,104,121423,6,0,B|256:248,1,140,2|0
256,244,121952,1,0
328,152,122305,5,0
184,152,122482,1,0
256,192,122836,12,0,125659
