osu file format v13

[General]
AudioFilename: fripSide - Late in autumn.mp3
AudioLeadIn: 2000
PreviewTime: 106556
Countdown: 0
SampleSet: Soft
StackLeniency: 0.7
Mode: 0
LetterboxInBreaks: 0
WidescreenStoryboard: 1

[Editor]
Bookmarks: 144344,256036,289846
DistanceSpacing: 1
BeatDivisor: 4
GridSize: 8
TimelineZoom: 2.799999

[Metadata]
Title:late in autumn
TitleUnicode:late in autumn
Artist:fripSide
ArtistUnicode:fripSide
Creator:sammy711
Version:Extra
Source:
Tags:
BeatmapID:523530
BeatmapSetID:224261

[Difficulty]
HPDrainRate:6
CircleSize:4
OverallDifficulty:7
ApproachRate:9
SliderMultiplier:3.3
SliderTickRate:1

[Events]
//Background and Video events
0,0,"autumn2.jpg",0,0
//Break Periods
//Storyboard Layer 0 (Background)
//Storyboard Layer 1 (Fail)
//Storyboard Layer 2 (Pass)
//Storyboard Layer 3 (Foreground)
//Storyboard Sound Samples
//Background Colour Transformations
3,100,0,0,0

[TimingPoints]
462,461.538461538462,4,2,1,70,1,0
26192,-100,4,1,1,70,0,0
270000,-100,4,1,1,70,0,0
273692,-100,4,2,1,70,0,0
286500,-100,4,1,1,70,0,0
288462,-100,4,1,1,70,0,1
295385,-83.3333333333333,4,1,1,70,0,1
303231,-71.4285714285714,4,1,1,70,0,1
318000,-62.5,4,1,1,70,0,1
325385,-55.5555555555556,4,1,1,70,0,1
332769,-100,4,1,1,70,0,0
347769,-100,4,2,1,70,0,0

[Colours]
Combo1 : 238,227,96
Combo2 : 46,214,250
Combo3 : 132,240,60
Combo4 : 233,145,242

[HitObjects]
41,97,270000,6,0,P|151:104|289:49,2,247.500009441376,0|0|0,0:0|0:0|0:0,0:0:0:0:
86,263,270923,2,0,L|20:191,1,82.5000031471254
196,197,271154,2,0,L|191:297,1,82.5000031471254
274,342,271385,1,0,0:0:0:0:
330,251,271500,1,0,0:0:0:0:
429,290,271615,2,0,L|513:281,1,82.5000031471254
465,183,271846,2,0,B|396:144|401:107|376:80|376:80|330:70|330:70|275:41,2,247.5,0|0|0,0:0|0:0|0:0,0:0:0:0:
194,195,272769,6,0,B|124:204|97:245|97:245|0:267,1,165.000006294251
39,160,273115,1,0,0:0:0:0:
113,27,273231,2,0,L|129:127,1,82.5000031471254
216,69,273462,2,0,L|263:-3,1,82.5000031471254
358,225,273692,5,0,0:0:0:0:
320,347,275538,5,0,0:0:0:0:
112,135,277385,5,0,0:0:0:0:
96,165,279231,5,0,0:0:0:0:
400,258,281077,5,0,0:0:0:0:
179,54,282923,5,0,0:0:0:0:
117,263,284769,5,0,0:0:0:0:
245,87,286615,6,0,B|185:128|136:100|124:87|63:130|63:130|0:134,2,247.5,0|0|0,0:0|0:0|0:0,0:0:0:0:
314,169,287423,1,0,0:0:0:0:
263,263,287538,2,0,L|362:284,1,82.5
176,204,287769,2,0,L|98:285,1,82.5
53,187,288000,1,0,0:0:0:0:
53,80,288115,1,0,0:0:0:0:
152,37,288231,1,0,0:0:0:0:
245,87,288346,1,0,0:0:0:0:
263,264,288462,6,0,P|330:291|423:253,1,165
463,166,288808,1,0,0:0:0:0:
395,83,288923,2,0,P|327:55|235:94,1,165
195,196,289269,1,0,0:0:0:0:
135,286,289385,6,0,L|52:293,1,82.5
113,189,289615,2,0,L|195:196,1,82.5
246,87,289846,2,0,L|163:94,1,82.5
136,286,290077,1,0,0:0:0:0:
209,363,290192,1,0,0:0:0:0:
315,348,290308,6,0,P|387:338|496:352,1,165
426,245,290654,1,0,0:0:0:0:
341,165,290769,2,0,L|356:75,1,82.5
247,88,291000,2,0,L|216:11,1,82.5
29,264,291231,6,0,P|99:290|203:248,1,165
239,173,291577,1,0,0:0:0:0:
143,108,291692,2,0,L|112:184,1,82.5
210,364,291923,2,0,L|304:352,1,82.5
398,173,292154,6,0,P|318:155|238:171,1,165
185,265,292500,1,0,0:0:0:0:
105,339,292615,2,0,L|22:348,1,82.5
105,204,292846,1,0,0:0:0:0:
185,264,292962,1,0,0:0:0:0:
238,171,293077,6,0,P|318:155|398:173,1,165
493,121,293423,1,0,0:0:0:0:
430,34,293538,2,0,L|346:54,1,82.5
400,173,293769,1,0,0:0:0:0:
487,236,293885,1,0,0:0:0:0:
436,329,294000,6,0,P|347:326|251:338,1,165
188,265,294346,1,0,0:0:0:0:
112,341,294462,2,0,B|76:288|76:288|71:246|44:189,1,165,0|0,0:0|0:0,0:0:0:0:
30,85,294808,1,0,0:0:0:0:
165,13,294923,6,0,L|137:101,1,82.5
401,173,295154,2,0,L|312:107,1,82.5
245,360,295385,2,0,P|351:363|471:301,1,197.99999395752,0|0,0:0|0:0,0:0:0:0:
189,266,295846,6,0,B|112:217|112:217|46:219|11:280,1,197.99999395752
30,85,296192,1,0,0:0:0:0:
163,11,296308,2,0,L|138:154,1,98.9999969787599
306,195,296538,2,0,L|426:166,1,98.9999969787599
467,42,296769,6,0,L|222:98,1,197.99999395752
307,194,297115,1,0,0:0:0:0:
314,323,297231,2,0,L|470:346,1,98.9999969787599
167,166,297462,2,0,L|192:276,1,98.9999969787599
162,9,297692,6,0,B|78:26|78:26|99:75|26:160,1,197.99999395752
16,255,298038,1,0,0:0:0:0:
65,374,298154,2,0,L|250:388,1,98.9999969787599
315,322,298385,1,0,0:0:0:0:
446,335,298500,1,0,0:0:0:0:
510,198,298615,6,0,P|427:146|368:68,1,197.99999395752
240,57,298962,1,0,0:0:0:0:
167,165,299077,2,0,L|273:196,1,98.9999969787599
158,348,299308,2,0,L|39:383,1,98.9999969787599
16,58,299538,6,0,P|51:169|67:281,1,197.99999395752
168,164,299885,2,0,P|242:109|371:53,1,197.99999395752
429,384,300231,2,0,B|414:343|365:313|365:313|336:175,1,197.99999395752
446,134,300577,5,0,0:0:0:0:
338,64,300692,2,0,L|218:55,1,98.9999969787599
73,189,300923,2,0,L|169:164,1,98.9999969787599
17,58,301154,1,0,0:0:0:0:
75,190,301269,1,0,0:0:0:0:
25,326,301385,6,0,B|118:294|202:374|303:180,2,296.99999093628,0|0|0,0:0|0:0|0:0,0:0:0:0:
486,96,302308,6,0,L|421:22,1,98.9999969787599
256,144,302538,2,0,L|349:112,1,98.9999969787599
410,226,302769,2,0,B|412:295|359:326|359:326|234:375,1,197.99999395752
0,142,303231,6,0,B|-1:73|50:42|50:42|175:-6,1,230.99999295044
220,114,303577,1,0,0:0:0:0:
226,279,303692,2,0,L|109:330,1,115.49999647522
38,245,303923,2,0,L|155:194,1,115.49999647522
324,98,304154,6,0,P|338:234|365:369,1,230.99999295044
355,326,304500,1,0,0:0:0:0:
226,280,304615,1,0,0:0:0:0:
121,329,304731,1,0,0:0:0:0:
40,245,304846,1,0,0:0:0:0:
93,143,304962,1,0,0:0:0:0:
208,163,305077,6,0,B|296:200|354:157|452:185,1,230.99999295044
388,20,305423,1,0,0:0:0:0:
211,23,305538,2,0,L|45:46,1,115.49999647522
93,143,305769,2,0,L|40:245,1,115.49999647522
121,329,306000,6,0,B|213:349|286:325|286:325|382:329,1,230.99999295044
498,303,306346,1,0,0:0:0:0:
434,166,306462,2,0,L|324:201,1,115.49999647522
389,19,306692,2,0,L|580:86,1,115.49999647522
182,175,306923,6,0,B|92:142|92:142|176:90|149:10,1,230.99999295044
4,25,307269,1,0,0:0:0:0:
28,234,307385,2,0,L|96:141,1,115.49999647522
233,275,307615,2,0,L|273:391,1,115.49999647522
388,20,307846,6,0,P|414:118|346:219,1,230.99999295044
256,97,308192,1,0,0:0:0:0:
165,384,308308,2,0,L|53:355,1,115.49999647522
128,226,308538,1,0,0:0:0:0:
232,276,308654,1,0,0:0:0:0:
507,117,308769,6,0,B|507:205|515:258|515:258|476:377,1,230.99999295044
256,97,309115,1,0,0:0:0:0:
343,247,309231,2,0,P|270:270|191:276,1,115.49999647522
128,226,309462,1,0,0:0:0:0:
140,116,309577,1,0,0:0:0:0:
256,97,309692,6,0,P|322:99|429:82,1,115.49999647522,0|0,0:0|0:0,0:0:0:0:
346,362,309923,2,0,P|348:295|331:189,1,115.49999647522
141,117,310154,1,0,0:0:0:0:
232,276,310269,1,0,0:0:0:0:
128,226,310385,1,0,0:0:0:0:
256,99,310500,1,0,0:0:0:0:
428,199,310615,6,0,B|460:254|423:343|423:343|344:357|324:371,1,230.99999295044
233,275,310962,1,0,0:0:0:0:
256,99,311077,2,0,L|391:57,1,115.49999647522
232,274,311308,2,0,L|127:227,1,115.49999647522
11,126,311538,6,0,P|-14:178|107:378,1,230.99999295044
157,384,311885,1,0,0:0:0:0:
255,98,312000,2,0,P|214:59|166:26,1,115.49999647522
233,275,312231,2,0,P|288:258|340:234,1,115.49999647522
11,125,312462,6,0,B|91:177|292:91|129:-25|67:-41|-33:70|195:264,1,461.999985900879
233,275,313038,1,0,0:0:0:0:
342,235,313154,2,0,P|397:221|442:184,1,115.49999647522
354,47,313385,6,0,P|299:61|254:98,1,115.49999647522
139,149,313615,1,0,0:0:0:0:
139,149,313731,1,0,0:0:0:0:
33,250,313846,2,0,L|100:349,1,115.49999647522
233,275,314077,2,0,L|252:144,1,115.49999647522
15,42,314308,6,0,P|145:52|270:12,1,230.99999295044
353,47,314654,1,0,0:0:0:0:
468,84,314769,2,0,P|504:145|451:309,1,230.99999295044
323,268,315115,1,0,0:0:0:0:
293,155,315231,6,0,P|350:166|418:190,1,115.49999647522
167,38,315462,2,0,P|155:95|132:163,1,115.49999647522
142,357,315692,1,0,0:0:0:0:
324,267,315808,1,0,0:0:0:0:
208,252,315923,1,0,0:0:0:0:
259,369,316039,1,0,0:0:0:0:
349,51,316154,6,0,B|223:23|223:23|149:42|149:42|100:72|-15:46,2,346.499989425659,0|0|0,0:0|0:0|0:0,0:0:0:0:
456,95,316962,1,0,0:0:0:0:
430,207,317077,6,0,L|447:326,1,115.49999647522,0|0,0:0|0:0,0:0:0:0:
323,266,317308,2,0,L|306:147,1,115.49999647522
122,106,317538,1,0,0:0:0:0:
61,196,317654,1,0,0:0:0:0:
32,45,317769,1,0,0:0:0:0:
154,259,317885,1,0,0:0:0:0:
225,109,318000,6,0,B|278:62|338:73|368:117|365:141|371:177|461:225,1,264
456,95,318346,1,0,0:0:0:0:
424,328,318462,2,0,P|365:358|237:377,1,132
166,371,318692,1,0,0:0:0:0:
225,109,318808,1,0,0:0:0:0:
386,203,318923,6,0,B|329:270|329:270|287:244|96:266,1,264
40,327,319269,1,0,0:0:0:0:
13,74,319385,2,0,P|46:133|63:203,1,132
225,108,319615,2,0,P|292:105|361:84,1,132
423,327,319846,6,0,B|351:362|290:348|290:348|221:343|152:377,1,264
40,327,320192,1,0,0:0:0:0:
225,107,320308,2,0,P|192:55|9:84,1,264
107,170,320654,1,0,0:0:0:0:
211,261,320769,6,0,B|294:231|294:231|345:237|345:237|361:166|395:124,1,264
400,0,321115,1,0,0:0:0:0:
511,94,321231,1,0,0:0:0:0:
505,225,321346,1,0,0:0:0:0:
423,329,321462,1,0,0:0:0:0:
293,353,321577,1,0,0:0:0:0:
0,243,321692,6,0,P|102:186|209:253,1,264
226,106,322038,1,0,0:0:0:0:
367,101,322154,2,0,B|364:168|332:211|332:211|321:308|285:368,1,264
162,368,322500,1,0,0:0:0:0:
10,60,322615,6,0,L|127:1,1,132
225,105,322846,2,0,L|108:164,1,132
198,255,323077,2,0,L|315:196,1,132
445,16,323308,1,0,0:0:0:0:
512,113,323423,1,0,0:0:0:0:
443,229,323538,6,0,B|426:285|461:344|461:344|277:365,1,264
162,368,323885,1,0,0:0:0:0:
239,167,324000,2,0,P|166:156|96:166,1,132
347,43,324231,2,0,P|274:53|204:43,1,132
13,61,324462,5,0,0:0:0:0:
320,362,324692,1,0,0:0:0:0:
434,141,324923,2,0,B|396:86|396:86|324:22,1,132
143,257,325154,2,0,B|196:218|196:218|260:145,1,132
13,61,325385,6,0,B|83:114|72:176|72:176|-5:268|115:400,1,296.99999093628
202,375,325731,1,0,0:0:0:0:
289,255,325846,2,0,P|359:285|427:339,1,148.49999546814
433,142,326077,2,0,P|446:70|472:0,1,148.49999546814
144,121,326308,6,0,B|116:217|143:258|113:302|195:291|256:252|301:249|289:257,1,296.99999093628
287,107,326654,1,0,0:0:0:0:
434,142,326769,2,0,P|467:220|508:275,1,148.49999546814
368,0,327000,1,0,0:0:0:0:
291,256,327115,1,0,0:0:0:0:
145,122,327231,6,0,B|-149:292|-7:-8|152:-89|75:377,1,593.999981872559
226,371,327808,1,0,0:0:0:0:
373,354,327923,2,0,P|438:313|519:299,1,148.49999546814
332,104,328154,5,0,0:0:0:0:
290,256,328269,1,0,0:0:0:0:
18,46,328385,2,0,P|100:85|168:151,1,148.49999546814
116,243,328615,2,0,L|116:337,1,74.2499977340699
207,299,328731,2,0,L|225:370,1,74.2499977340699
289,258,328846,2,0,L|289:183,1,74.2499977340699
386,239,328962,2,0,L|471:345,1,74.2499977340699
229,6,329077,6,0,P|162:120|-5:156,1,296.99999093628
493,384,329423,2,0,P|437:351|495:143,1,296.99999093628
33,339,329769,2,0,L|195:373,1,148.49999546814
502,35,330000,6,0,P|335:63|197:-33,1,296.99999093628
34,341,330346,2,0,P|201:313|339:409,1,296.99999093628
63,195,330692,2,0,L|90:38,1,148.49999546814
376,59,330923,6,0,L|486:368,1,296.99999093628
34,337,331269,2,0,L|299:161,1,296.99999093628
100,54,331615,1,0,0:0:0:0:
100,54,331731,1,0,0:0:0:0:
264,328,331846,6,0,P|336:343|416:367,1,148.49999546814
155,188,332077,2,0,P|139:262|116:340,1,148.49999546814
103,56,332308,2,0,P|270:94|294:305,1,296.99999093628
474,37,332769,5,0,0:0:0:0:
