osu file format v6

[General]
AudioFilename: late in autumn (TV Size).mp3
AudioLeadIn: 0
PreviewTime: 14288
Countdown: 0
SampleSet: Soft
StackLeniency: 0.2
Mode: 0
LetterboxInBreaks: 1

[Editor]
Bookmarks: 15215,22599,29984,37369,44753,52138,61369,68753,76138,83522,90676
DistanceSpacing: 1
BeatDivisor: 4
GridSize: 32

[Metadata]
Title:late in autumn (TV Size)
Artist:fripSide
Creator:DJPop
Version:Normal
Source:To Aru Kagaku no Railgun
Tags:

[Difficulty]
HPDrainRate:4
CircleSize:4
OverallDifficulty:4
SliderMultiplier:1.28
SliderTickRate:1

[Events]
//Background and Video events
0,0,"late in autumn (TV Size).png"
Video,320,"late in autumn (TV Size).avi"
//Break Periods
//Storyboard Layer 0 (Background)
//Storyboard Layer 1 (Fail)
//Storyboard Layer 2 (Pass)
//Storyboard Layer 3 (Foreground)
//Storyboard Sound Samples
//Background Colour Transformations
3,100,0,0,0

[TimingPoints]
446,461.538461538462,4,2,0,75,1,0
13369,-200,4,2,0,75,0,0
26176,-200,4,1,1,75,0,0
26292,-100,4,1,1,75,0,0
61369,-100,4,1,1,75,0,1
90792,-100,4,1,1,0,0,1

[Colours]
Combo1 : 65,55,115
Combo2 : 170,125,85
Combo3 : 150,60,60
Combo4 : 220,220,220

[HitObjects]
64,32,15215,2,0,C|64:96,1,64,2|0
64,224,16138,1,0
64,352,16599,1,0
192,320,17061,6,0,C|192:256,1,64,2|0
192,128,17984,2,0,C|192:64,1,64,2|0
320,32,18907,6,0,C|320:96,1,64,2|0
320,224,19830,1,0
320,352,20292,1,0
448,320,20753,6,0,C|448:256,1,64,2|0
448,128,21676,2,0,C|448:64,1,64,2|0
320,32,22599,6,0,C|256:32,1,64,2|0
128,32,23522,1,0
32,128,23984,1,0
32,256,24446,6,0,C|96:256,1,64,2|0
192,352,25369,2,0,C|256:352,1,64,2|0
352,256,26292,6,2,C|480:256,1,128
480,128,27215,2,2,C|352:128,1,128
240,192,28138,6,2,C|144:192,2,96
288,192,29061,2,2,C|384:192,2,96
256,160,29984,5,4
256,32,30446,1,8
128,32,30907,2,0,B|48:24|32:96,1,128,0|8
32,224,31830,5,0
32,352,32292,1,8
160,352,32753,2,0,B|243:358|256:288,1,128,0|8
256,160,33676,5,0
256,32,34138,1,8
384,32,34599,2,0,B|468:27|480:96,1,128,0|8
480,224,35522,6,0,L|480:352,3,128,0|8|0|8
352,352,37369,5,4
288,240,37830,1,8
352,128,38292,2,0,B|360:48|288:32,1,128,0|8
160,32,39215,5,0
160,160,39676,1,8
32,160,40138,2,0,C|32:288,1,128,0|8
160,288,41061,6,0,L|288:288,3,128,0|8|0|8
288,160,42907,6,0,L|384:160,4,96,0|8|0|8|8
192,64,44753,5,4
96,160,45215,1,8
96,288,45676,2,0,B|40:289|40:352,2,96,0|8|0
144,288,46599,6,0,B|200:289|200:352,2,96,0|8|0
120,256,47522,2,0,B|120:200|192:216|192:158,1,128,0|8
288,64,48446,5,0
384,160,48907,1,8
480,256,49369,2,0,L|480:352,2,96,0|8|0
480,208,50292,6,0,L|480:112,2,96,0|8|0
448,232,51215,2,0,B|360:216|352:288,1,128,8|8
224,288,52138,6,0,B|216:320|177:341|136:320|128:288,1,128,4|8
32,192,53061,1,0
32,96,53407,1,8
128,96,53753,1,0
160,32,53984,6,0,C|256:32,4,96,0|8|0|8|8
160,160,55830,6,0,L|288:160,2,128,0|8|0
160,256,57099,1,8
160,352,57446,1,8
224,352,57676,6,0,C|352:352,1,128,0|8
448,256,58599,2,0,C|448:128,1,128,0|8
352,32,59522,5,0
256,32,59869,1,0
160,32,60215,1,0
256,352,61369,6,0,C|256:224,3,128,0|8|0|8
256,96,63215,6,0,L|352:96,2,96,0|8|0
192,96,64138,1,0
64,96,64599,1,8
64,224,65061,6,0,B|82:298|160:288,3,128,0|8|0|8
288,288,66907,6,0,L|288:192,2,96,0|8|0
288,352,67830,1,8
416,352,68292,1,8
416,224,68753,6,0,B|448:216|466:176|448:136|414:128,1,128,4|8
320,32,69676,2,0,C|192:32,1,128,0|8
96,128,70599,5,0
96,224,70946,1,8
96,320,71292,1,0
160,352,71522,2,0,C|288:352,1,128,0|8
288,256,72330,6,0,B|224:264|184:224|192:160,1,160,0|8
192,64,73253,2,0,B|256:56|296:96|288:160,1,160,0|8
384,160,74176,2,0,B|376:96|416:56|480:64,1,160,0|8
480,192,75215,6,0,C|480:224,1,32,0|8
480,320,75676,1,8
352,320,76138,6,0,C|256:320,2,96,4|8|0
384,256,77061,1,0
384,128,77522,1,8
352,64,77753,1,0
288,32,77984,6,0,C|192:32,4,96,0|8|0|8|8
288,160,79830,6,0,C|288:256,2,96,0|8|0
256,96,80753,1,0
128,96,81214,1,8
64,128,81445,1,0
32,192,81676,6,0,C|32:288,4,96,0|8|0|8|8
96,192,83292,1,0
160,192,83522,6,0,C|160:320,1,128,4|8
256,192,84446,2,0,L|256:320,1,128,0|8
352,192,85369,6,0,L|352:320,1,128,4|8
448,192,86292,2,0,C|448:224,1,32,0|8
448,320,86753,1,8
280,240,87215,6,0,C|352:304,2,96,4|8|8
256,256,88138,6,0,C|256:352,2,96,0|8|8
232,240,89061,6,0,C|160:304,2,96,0|8|8
256,224,89984,5,10
256,128,90330,1,10
256,32,90676,1,10
256,192,90734,12,0,92753
