osu file format v6

[General]
AudioFilename: late in autumn (TV Size).mp3
AudioLeadIn: 0
PreviewTime: 14288
Countdown: 0
SampleSet: Normal
StackLeniency: 0.2
Mode: 0
LetterboxInBreaks: 1

[Editor]
Bookmarks: 15215,22599,29984,37369,44753,52138,61369,68753,76138,83522,90676
DistanceSpacing: 1
BeatDivisor: 4
GridSize: 16

[Metadata]
Title:late in autumn (TV Size)
Artist:fripSide
Creator:DJPop
Version:Insane
Source:To Aru Kagaku no Railgun
Tags:

[Difficulty]
HPDrainRate:5
CircleSize:5
OverallDifficulty:8
SliderMultiplier:1.9
SliderTickRate:1

[Events]
//Background and Video events
0,0,"late in autumn (TV Size).png"
Video,320,"late in autumn (TV Size).avi"
//Break Periods
//Storyboard Layer 0 (Background)
//Storyboard Layer 1 (Fail)
//Storyboard Layer 2 (Pass)
//Storyboard Layer 3 (Foreground)
//Storyboard Sound Samples
//Background Colour Transformations
3,100,0,0,0

[TimingPoints]
446,461.538461538462,4,2,0,75,1,0
13369,-200,4,2,0,75,0,0
26176,-200,4,1,1,75,0,0
26292,-100,4,1,1,75,0,0
26638,-100,4,2,0,75,0,0
26869,-100,4,1,1,75,0,0
27446,-100,4,2,0,75,0,0
27561,-100,4,1,1,75,0,0
27792,-100,4,2,0,75,0,0
27907,-100,4,1,1,75,0,0
61369,-100,4,1,1,75,0,1
90792,-100,4,1,1,0,0,1

[Colours]
Combo1 : 65,55,115
Combo2 : 170,125,85
Combo3 : 150,60,60
Combo4 : 220,220,220

[HitObjects]
64,352,14292,5,2
64,288,14522,1,0
64,224,14753,1,0
64,160,14984,1,0
64,96,15215,2,0,C|80:72|48:56|64:32,1,95,2|0
192,32,16138,5,0
192,96,16369,1,0
192,160,16599,1,0
192,224,16830,1,0
192,288,17061,2,0,C|208:312|176:328|192:352,1,95,2|0
320,352,17984,5,2
320,288,18215,1,0
320,224,18446,1,0
320,160,18676,1,0
320,96,18907,2,0,C|304:72|336:56|320:32,1,95,2|0
448,32,19830,5,0
448,96,20061,1,0
448,160,20292,1,0
448,224,20522,1,0
448,288,20753,2,0,C|464:312|432:328|448:352,1,95,2|0
288,352,21676,5,2
224,352,21907,1,0
160,352,22138,1,0
96,352,22369,1,0
32,352,22599,2,0,L|32:256,1,95,2|0
32,32,23522,5,0
96,32,23753,1,0
160,32,23984,1,0
224,32,24215,1,0
288,32,24446,2,0,L|288:128,1,95,2|0
480,192,25369,5,2
416,192,25599,1,0
352,192,25830,1,0
288,192,26061,1,0
224,192,26292,2,2,L|32:192,1,190,2|0
32,256,26984,5,2
32,320,27215,2,0,B|70:352|120:352,1,95,2|0
152,352,27561,2,0,B|202:352|240:320,1,95,2|0
272,304,27907,1,2
320,352,28138,6,0,C|416:352,1,95,2|0
448,352,28484,2,0,B|488:360|501:320|480:288,1,95,2|0
464,256,28830,1,2
448,224,28946,1,0
432,192,29061,2,0,B|400:155|400:104,1,95,2|0
400,72,29407,2,0,B|400:22|352:16|336:32,1,95,2|0
304,48,29753,1,2
256,96,29984,5,4
192,96,30215,1,0
128,96,30446,1,8
64,96,30676,1,0
32,112,30792,1,0
16,144,30907,1,0
32,176,31022,1,0
64,240,31253,1,0
80,272,31369,2,0,B|110:312|160:320,1,95,8|0
224,352,31830,5,0
288,352,32061,1,0
352,352,32292,1,8
416,352,32522,1,0
448,336,32638,1,0
464,304,32753,1,0
448,272,32869,1,0
416,208,33099,1,0
400,176,33215,2,0,B|371:137|320:128,1,95,8|0
256,128,33676,5,0
256,192,33907,1,0
192,192,34138,1,8
192,256,34369,1,0
128,256,34599,1,0
96,256,34715,1,0
32,240,34946,2,0,L|32:192,1,47.5,0|8
32,128,35292,1,0
64,64,35522,6,0,B|72:24|113:0|160:16|176:40,1,142.5
192,64,35984,1,8
224,128,36215,1,0
256,64,36446,1,0
272,40,36561,2,0,B|287:16|334:0|375:24|383:64,1,142.5,8|8
416,128,37138,1,0
432,160,37253,1,0
448,192,37369,5,4
480,256,37599,1,0
480,320,37830,1,8
416,352,38061,1,0
352,320,38292,1,0
352,288,38407,1,0
288,256,38638,1,0
288,224,38753,2,0,L|288:128,1,95,8|0
256,64,39215,5,0
192,32,39446,1,0
128,64,39676,1,8
128,128,39907,1,0
160,144,40022,1,0
192,160,40138,1,0
224,176,40253,1,0
224,240,40484,1,0
224,272,40599,2,0,B|212:324|160:336,1,95,8|0
96,352,41061,6,0,B|16:352|16:304|16:256|98:256,1,190,0|8
96,192,41753,1,0
64,176,41869,1,0
32,160,41984,2,0,B|8:114|48:80|96:48,1,142.5
128,32,42446,1,8
192,32,42676,1,0
256,32,42907,5,0
256,144,43253,2,0,L|256:192,1,47.5,0|8
256,256,43599,1,0
256,320,43830,1,0
256,352,43946,2,0,L|400:352,1,142.5,8|8
464,352,44522,1,0
472,320,44638,1,0
480,288,44753,5,4
416,256,44984,1,0
448,192,45215,1,8
384,160,45446,1,0
416,96,45676,1,0
416,96,45792,1,0
384,32,46022,2,0,B|358:38|352:64,1,47.5,0|8
320,128,46369,1,0
288,64,46599,6,0,B|253:16|208:16|160:32,1,142.5
128,40,47061,2,0,B|64:68|64:104,1,95,8|0
64,168,47522,2,0,B|64:218|96:256,1,95
128,320,47984,1,8
192,352,48215,1,0
224,352,48330,1,0
256,352,48446,5,0
320,320,48676,1,0
288,256,48907,1,8
352,224,49138,1,0
320,160,49369,1,0
320,160,49484,1,0
384,128,49715,2,0,B|409:123|416:96,1,47.5,0|8
448,32,50061,1,0
480,96,50292,6,0,L|480:240,1,142.5
480,256,50753,2,0,B|470:305|416:320,1,95,8|0
352,320,51215,1,0
336,352,51330,1,8
272,352,51561,1,0
256,320,51676,2,0,L|160:320,1,95,8|0
96,352,52138,5,4
32,320,52369,1,0
96,288,52599,2,0,L|96:192,1,95,8|0
32,160,53061,1,0
48,128,53176,1,0
112,128,53407,2,0,C|160:128,1,47.5,0|8
192,64,53753,1,0
256,32,53984,6,0,B|296:40|320:81|304:128|280:144,1,142.5
256,160,54446,1,8
192,192,54676,1,0
256,224,54907,2,0,B|352:192|320:320|416:288,1,190,0|8
448,352,55599,1,0
480,288,55830,6,0,L|480:96,1,190,0|8
448,32,56522,1,0
416,32,56638,1,0
384,32,56753,2,0,B|336:32,1,47.5
304,96,57099,2,0,B|256:96,1,47.5,0|8
224,32,57446,1,0
192,32,57561,1,0
160,32,57676,6,0,B|32:14|32:130,1,190,0|8
32,192,58369,1,0
32,224,58484,1,0
48,256,58599,1,0
80,272,58715,1,8
112,272,58830,1,0
176,272,59061,2,0,B|214:299|224:352,1,95,8|0
288,352,59522,5,0
256,192,59869,1,0
224,32,60215,1,0
288,32,60446,5,0
352,64,60676,1,2
288,96,60907,1,0
224,96,61138,1,2
160,64,61369,6,0,B|32:46|32:162,1,190,4|8
32,224,62061,1,0
32,256,62176,2,0,B|32:288|96:288|96:320,1,95
96,336,62522,1,0
160,344,62753,1,8
224,352,62984,1,0
288,352,63215,6,0,B|384:354|384:272,1,142.5
384,240,63676,1,8
432,200,63907,1,0
480,160,64138,1,0
480,128,64253,2,0,B|480:96|416:96|416:64,1,95,8|0
416,32,64599,1,8
352,32,64830,1,0
288,32,65061,6,0,B|192:46|192:128|256:160,1,190,0|8
320,192,65753,1,0
304,224,65869,2,0,B|274:264|224:272,1,95
192,288,66215,1,0
128,320,66446,1,8
64,352,66676,1,0
32,288,66907,6,0,B|5:195|64:160,1,142.5
96,144,67369,1,8
32,112,67599,1,0
96,80,67830,1,0
128,64,67946,2,0,L|224:64,1,95,8|0
256,48,68292,1,8
312,80,68522,1,0
352,32,68753,6,0,L|448:32,1,95,4|0
480,96,69215,1,8
448,160,69446,1,0
416,160,69561,1,0
384,224,69792,1,0
352,224,69907,1,0
320,288,70138,1,8
384,320,70369,1,0
320,352,70599,6,0,L|224:352,1,95
192,352,70946,1,0
160,352,71061,1,8
128,288,71292,1,0
96,352,71522,1,0
64,352,71638,1,8
32,288,71869,1,0
32,256,71984,1,8
64,192,72215,5,0
96,192,72330,2,0,B|120:192|176:144|160:192|144:240|200:192|224:192,1,142.5
256,128,72907,1,8
288,192,73138,1,0
320,192,73253,2,0,B|344:192|400:240|384:192|368:144|424:192|448:192,1,142.5
480,128,73830,1,8
448,64,74061,5,0
416,48,74176,2,0,B|392:48|336:0|352:48|368:96|312:48|288:48,1,142.5
224,32,74753,1,8
160,32,74984,5,0
128,48,75099,1,0
96,64,75215,1,0
64,80,75330,1,8
32,96,75446,1,0
32,160,75676,1,8
32,224,75907,1,0
32,288,76138,1,4
160,352,76484,5,0
160,352,76599,1,8
224,352,76830,1,0
288,352,77061,2,0,L|384:352,1,95
448,352,77522,1,8
480,288,77753,1,0
480,256,77869,1,0
480,224,77984,1,0
416,96,78330,5,0
416,96,78446,1,8
384,32,78676,1,0
352,96,78907,1,0
320,96,79022,1,8
288,96,79138,1,0
256,32,79369,2,0,B|205:44|192:96,1,95,8|0
192,160,79830,1,0
64,96,80176,5,0
64,96,80292,1,8
32,160,80522,1,0
64,224,80753,2,0,L|64:320,1,95
128,352,81215,1,8
192,352,81446,1,0
224,336,81561,1,0
256,320,81676,1,0
256,160,82022,5,0
256,160,82138,1,8
224,96,82369,1,0
192,32,82599,1,0
224,32,82715,1,8
256,32,82830,1,0
320,32,83061,1,8
288,96,83292,1,0
256,160,83522,6,0,L|256:352,1,190,4|8
480,352,84446,2,0,B|480:208,1,142.5
480,192,84907,2,0,L|480:96,1,95,8|0
480,32,85369,6,0,L|288:32,1,190,4|8
224,32,86061,1,0
192,32,86176,1,0
160,32,86292,1,0
128,32,86407,1,8
96,32,86522,1,0
32,64,86753,1,8
96,96,86984,1,0
32,128,87215,5,4
32,192,87446,1,0
32,208,87561,2,0,L|32:256,1,47.5,0|8
64,320,87907,1,0
96,256,88138,1,0
112,224,88253,1,0
144,208,88369,1,0
176,224,88484,1,0
192,256,88599,2,0,B|224:294|224:344,1,95,8|0
288,344,89061,6,0,B|288:294|320:256,1,95
336,224,89407,1,0
368,208,89522,1,8
400,224,89638,1,0
416,256,89753,1,0
448,320,89984,2,0,L|400:344,2,47.5,10|0|0
448,320,90330,2,0,L|496:296,2,47.5,10|0|0
448,320,90676,1,10
256,192,90734,12,0,92753
