osu file format v6

[General]
AudioFilename: late in autumn (TV Size).mp3
AudioLeadIn: 0
PreviewTime: 14288
Countdown: 0
SampleSet: Normal
StackLeniency: 0.2
Mode: 0
LetterboxInBreaks: 1

[Editor]
Bookmarks: 15215,22599,29984,37369,44753,52138,61369,68753,76138,83522,90676
DistanceSpacing: 0.800000011920929
BeatDivisor: 4
GridSize: 32

[Metadata]
Title:late in autumn (TV Size)
Artist:fripSide
Creator:DJPop
Version:Hard
Source:To Aru Kagaku no Railgun
Tags:

[Difficulty]
HPDrainRate:5
CircleSize:4
OverallDifficulty:6
SliderMultiplier:1.6
SliderTickRate:1

[Events]
//Background and Video events
0,0,"late in autumn (TV Size).png"
Video,320,"late in autumn (TV Size).avi"
//Break Periods
//Storyboard Layer 0 (Background)
//Storyboard Layer 1 (Fail)
//Storyboard Layer 2 (Pass)
//Storyboard Layer 3 (Foreground)
//Storyboard Sound Samples
//Background Colour Transformations
3,100,0,0,0

[TimingPoints]
446,461.538461538462,4,2,0,75,1,0
13369,-200,4,2,0,75,0,0
26176,-200,4,1,1,75,0,0
26292,-100,4,1,1,75,0,0
26638,-100,4,2,0,75,0,0
26869,-100,4,1,1,75,0,0
61369,-100,4,1,1,75,0,1
90792,-100,4,1,1,0,0,1

[Colours]
Combo1 : 65,55,115
Combo2 : 170,125,85
Combo3 : 150,60,60
Combo4 : 220,220,220

[HitObjects]
448,352,14292,5,2
448,288,14522,1,0
448,224,14753,1,0
448,160,14984,1,0
448,96,15215,2,0,B|409:64|487:64|448:32,1,80,2|0
320,32,16138,5,0
320,96,16369,1,0
320,160,16599,1,0
320,224,16830,1,0
320,288,17061,2,0,B|281:320|359:320|320:352,1,80,2|0
192,352,17984,5,2
192,288,18215,1,0
192,224,18446,1,0
192,160,18676,1,0
192,96,18907,2,0,B|231:64|153:64|192:32,1,80,2|0
64,32,19830,5,0
64,96,20061,1,0
64,160,20292,1,0
64,224,20522,1,0
64,288,20753,2,0,B|25:320|103:320|64:352,1,80,2|0
256,352,21676,5,2
320,352,21907,1,0
384,352,22138,1,0
448,320,22369,1,0
480,256,22599,2,0,L|480:176,1,80,2|0
480,32,23522,5,0
416,32,23753,1,0
352,32,23984,1,0
288,64,24215,1,0
256,128,24446,2,0,L|256:208,1,80,2|0
256,352,25369,5,2
192,352,25599,1,0
128,352,25830,1,0
64,320,26061,1,0
32,256,26292,2,2,C|32:96,1,160,2|0
64,32,26984,5,2
128,32,27215,1,2
224,96,27561,1,2
320,32,27907,1,2
384,32,28138,5,2
480,96,28484,1,2
416,192,28830,1,2
416,256,29061,1,2
352,352,29407,1,2
288,256,29753,1,2
256,192,29984,5,4
192,192,30215,1,0
128,192,30446,1,8
96,256,30676,1,0
128,320,30907,2,2,L|248:320,2,120
64,320,31830,5,0
32,256,32061,1,0
64,192,32292,1,8
32,128,32522,1,0
64,64,32753,2,2,L|184:64,2,120
32,128,33676,5,0
96,128,33907,1,0
160,128,34138,1,8
224,128,34369,1,0
288,128,34599,2,2,B|348:96|352:32,2,120
256,192,35522,6,2,B|197:223|192:288,2,120
320,192,36446,1,0
320,192,36561,1,10
352,288,36907,1,10
480,352,37369,5,4
480,288,37599,1,0
480,224,37830,1,8
480,160,38061,1,0
416,160,38292,2,2,L|416:40,2,120
352,160,39215,5,0
288,128,39446,1,0
224,96,39676,1,8
160,64,39907,1,0
96,32,40138,2,2,B|35:67|32:128,2,120
160,64,41061,6,0,C|160:224,1,160,0|8
160,288,41753,1,0
128,352,41984,2,2,B|71:352|32:288,2,120
192,352,42907,6,2,B|249:352|288:288,2,120
160,288,43830,1,0
160,288,43946,1,10
160,192,44292,1,10
288,192,44753,5,4
320,128,44984,1,0
352,64,45215,1,8
416,32,45446,1,0
480,64,45676,2,0,C|480:104,1,40,2|0
480,168,46022,2,2,C|480:288,1,120
416,288,46599,6,2,L|416:168,2,120
352,288,47522,2,2,B|336:328|288:344|240:328|224:289,1,160,2|10
160,288,48215,1,0
96,288,48446,5,0
64,352,48676,1,0
32,288,48907,1,8
64,224,49138,1,0
32,160,49369,2,0,C|32:120,1,40,2|0
32,56,49715,2,2,B|48:32|81:16|120:32|128:64,1,120
160,128,50292,6,2,B|144:206|208:224,2,120
192,64,51215,1,0
192,64,51330,1,10
304,64,51676,2,0,L|384:64,1,80,10|0
448,64,52138,5,4
480,128,52369,1,0
448,192,52599,2,0,L|448:352,1,160,8|0
448,352,53176,1,0
384,352,53407,2,2,B|327:352|288:288,1,120
288,224,53984,6,2,B|304:176|351:166|384:192,2,120
224,256,54907,2,2,L|64:256,1,160,2|10
32,192,55599,1,0
64,128,55830,6,0,C|224:128,2,160,0|8|0
32,32,57099,1,2
128,64,57446,1,2
192,32,57676,6,0,L|352:32,1,160,0|10
416,64,58369,1,0
352,96,58599,2,2,L|192:96,1,160,2|10
128,224,59522,5,0
256,192,59869,1,0
384,224,60215,1,0
448,256,60446,5,0
384,288,60676,1,2
448,320,60907,1,0
384,352,61138,1,2
320,352,61369,5,4
192,352,61830,2,0,L|72:352,2,120,8|0|0
224,288,62753,1,8
192,224,62984,1,0
128,224,63215,6,0,B|71:224|32:288,2,120
160,160,64138,1,0
160,160,64253,1,8
64,128,64599,1,8
32,64,64830,1,0
96,32,65061,1,0
224,32,65522,6,0,L|344:32,2,120,8|0|0
192,96,66446,1,8
224,160,66676,1,0
288,160,66907,6,0,L|288:280,2,120
352,128,67830,1,0
352,128,67946,1,8
384,32,68292,1,8
448,64,68522,1,0
480,128,68753,6,0,L|480:288,1,160,4|8
480,352,69446,1,0
480,352,69561,1,0
384,352,69907,2,0,C|304:352,2,80,0|8|0
416,288,70599,5,0
384,192,70946,1,0
352,288,71292,1,0
320,224,71522,2,0,C|280:224,1,40,0|8
192,256,71984,1,8
160,320,72215,5,0
160,320,72330,2,0,B|43:314|32:192,1,200,0|8
32,128,73138,1,0
32,128,73253,2,0,B|64:80|112:50|160:80|192:130,1,200,0|8
256,128,74061,1,0
256,128,74176,2,0,B|344:144|328:16|416:32,1,200,0|8
480,64,74984,5,0
448,128,75215,1,0
480,192,75446,1,0
448,256,75676,1,8
480,320,75907,1,0
416,352,76138,5,4
320,288,76484,1,0
224,224,76830,1,0
224,160,77061,2,0,B|229:33|160:32,1,160,0|8
96,32,77753,1,0
32,32,77984,5,0
96,128,78330,1,0
32,224,78676,1,0
32,288,78907,2,0,L|32:328,1,40,0|8
144,256,79369,1,8
288,352,79830,5,0
384,288,80176,1,0
480,224,80522,1,0
480,160,80753,2,0,B|480:112|433:79|384:112|384:160,1,160,0|8
384,224,81446,1,0
320,256,81676,5,0
256,160,82022,1,0
192,64,82369,1,0
128,32,82599,2,0,C|88:32,1,40,0|8
64,160,83061,5,8
32,224,83292,1,0
64,288,83522,2,0,L|224:288,1,160,4|8
360,288,84446,2,0,L|480:288,2,120,0|0|0
288,288,85369,6,0,C|288:128,1,160,4|8
352,96,86061,1,0
384,160,86292,1,0
416,224,86522,1,0
448,160,86753,1,8
480,96,86984,1,0
448,32,87215,5,4
384,32,87446,2,0,C|344:32,1,40,0|8
224,32,87907,1,8
160,64,88138,1,0
96,96,88369,2,0,C|32:128,1,40,0|8
32,224,88830,1,8
64,288,89061,5,0
128,320,89292,2,0,C|168:320,1,40,0|8
256,224,89753,1,8
320,256,89984,2,0,C|368:320,1,80,10|0
408,320,90330,2,0,C|456:256,1,80,10|0
480,224,90676,1,10
256,192,90734,12,0,92753
