osu file format v6

[General]
AudioFilename: late in autumn (TV Size).mp3
AudioLeadIn: 0
PreviewTime: 14288
Countdown: 0
SampleSet: Normal
StackLeniency: 0.4
Mode: 0
LetterboxInBreaks: 1

[Editor]
Bookmarks: 15215,22599,29984,37369,44753,52138,61369,68753,76138,83522,90676
DistanceSpacing: 0.800000011920929
BeatDivisor: 4
GridSize: 32

[Metadata]
Title:late in autumn (TV Size)
Artist:fripSide
Creator:DJPop
Version:Easy
Source:To Aru Kagaku no Railgun
Tags:

[Difficulty]
HPDrainRate:3
CircleSize:3
OverallDifficulty:3
SliderMultiplier:0.96
SliderTickRate:1

[Events]
//Background and Video events
0,0,"late in autumn (TV Size).png"
Video,320,"late in autumn (TV Size).avi"
//Break Periods
//Storyboard Layer 0 (Background)
//Storyboard Layer 1 (Fail)
//Storyboard Layer 2 (Pass)
//Storyboard Layer 3 (Foreground)
//Storyboard Sound Samples
//Background Colour Transformations
3,100,0,0,0

[TimingPoints]
446,461.538461538462,4,2,0,75,1,0
25830,-100,4,1,1,75,0,0
59522,-100,4,1,1,0,0,0
60907,-100,4,1,1,75,0,0
61369,-100,4,1,1,75,0,1
90676,-100,4,1,1,0,0,1

[Colours]
Combo1 : 65,55,115
Combo2 : 170,125,85
Combo3 : 150,60,60
Combo4 : 220,220,220

[HitObjects]
480,32,15215,5,2
32,32,17061,5,2
32,192,17984,1,2
32,352,18907,1,2
480,352,20753,5,2
480,192,21676,1,2
480,32,22599,1,2
256,304,24446,5,2
144,192,25369,1,2
256,80,26292,1,0
368,192,27215,1,0
256,288,28138,6,0,C|256:96,2,192,0|0|4
256,352,30446,5,8
128,352,31138,1,8
128,352,31369,1,8
32,224,32292,1,8
32,64,33215,1,8
192,64,34138,5,8
288,192,35061,1,8
384,64,35984,2,0,B|453:72|480:128,1,120,8|8
480,208,36907,1,8
456,296,37369,5,4
384,352,37830,1,8
256,352,38522,1,8
256,352,38753,1,8
256,192,39676,1,8
256,32,40599,1,8
96,32,41522,5,8
96,192,42446,1,8
96,352,43369,2,0,B|159:348|192:288,1,120,8|8
216,216,44292,1,8
288,160,44753,6,0,C|479:160,2,192,4|0|0
192,352,47522,5,0
240,288,47984,1,8
288,224,48446,2,0,C|480:224,2,192
320,32,51215,5,0
272,96,51676,1,8
224,160,52138,2,0,C|32:160,2,192,4|0|0
320,352,54907,5,0
272,288,55369,1,8
224,224,55830,2,0,C|32:224,2,192
480,192,58369,5,0
480,192,58599,2,0,C|288:192,1,192
32,40,61369,6,0,C|32:328,1,288,4|0
32,344,63215,1,0
256,288,64138,6,0,C|256:360,2,72
256,272,65061,2,0,B|256:256|328:216|328:152|256:152|184:152|184:88|256:48|256:31,1,288
352,32,66907,6,0,C|312:96,2,72
352,32,67830,2,0,C|392:96,2,72
352,32,68753,6,0,B|448:24|496:24|512:94|496:176|448:192,1,288,4|0
384,256,70599,1,0
112,352,71522,6,0,C|40:352,2,72
112,352,72446,6,0,C|400:352,1,288
480,352,74292,1,0
368,144,75215,6,0,C|408:208,2,72
368,96,76138,2,0,C|408:32,2,72,4|0|0
328,120,77061,2,0,C|184:120,1,144
144,96,77984,2,0,C|104:32,2,72
144,144,78907,2,0,C|88:224,1,96
128,320,79830,6,0,C|56:320,2,72
160,352,80753,2,0,C|304:352,1,144
336,320,81676,2,0,C|336:248,2,72
368,352,82599,2,0,C|464:352,1,96
480,256,83522,6,0,C|480:64,1,192,4|0
32,64,85369,6,0,C|32:256,1,192,4|0
256,328,87215,6,0,C|256:256,1,72
256,192,87907,12,0,90676
