osu file format v9

[General]
AudioFilename: fripSide - Late in autumn.mp3
AudioLeadIn: 2000
PreviewTime: 106556
Countdown: 0
SampleSet: Normal
StackLeniency: 0.7
Mode: 0
LetterboxInBreaks: 0

[Editor]
Bookmarks: 144344,256036
DistanceSpacing: 0.8
BeatDivisor: 4
GridSize: 8

[Metadata]
Title:late in autumn
Artist:fripSide
Creator:Glass
Version:Special
Source:
Tags:Mystearica samiljul

[Difficulty]
HPDrainRate:8
CircleSize:5
OverallDifficulty:6
ApproachRate:6
SliderMultiplier:1.8
SliderTickRate:1

[Events]
//Background and Video events
0,0,"autumn2.jpg"
//Break Periods
2,137277,143411
2,242508,255104
//Storyboard Layer 0 (Background)
//Storyboard Layer 1 (Fail)
//Storyboard Layer 2 (Pass)
//Storyboard Layer 3 (Foreground)
//Storyboard Sound Samples
//Background Colour Transformations
3,100,0,0,0

[TimingPoints]
462,461.538461538462,4,2,1,70,1,0
26192,-100,4,1,1,70,0,0
273692,-100,4,2,1,70,0,0
286500,-100,4,1,1,70,0,0
288462,-100,4,1,1,70,0,1
332769,-100,4,1,1,70,0,0
347769,-100,4,2,1,70,0,0

[Colours]
Combo1 : 238,227,96
Combo2 : 46,214,250
Combo3 : 132,240,60
Combo4 : 233,145,242

[HitObjects]
448,176,462,2,0,B|512:264|440:352,2,180,4|0|2
408,112,1615,1,0
344,24,2077,2,0,B|280:24,1,45
296,48,2308,2,0,B|216:112|128:48,1,180,4|0
24,144,3231,2,0,B|24:240,1,90,2|0
112,96,4154,5,4
112,288,4615,1,0
264,192,5077,1,2
328,192,5308,1,0
104,128,6000,6,0,B|56:136|32:192|56:248|104:256|104:256|112:256,1,180,4|0
120,192,6692,1,0
120,192,6808,1,0
120,192,6923,2,0,B|168:160|208:224|264:184,2,135,2|0|0
120,192,7846,5,4
248,192,8308,2,0,B|390:121|406:241|518:193,1,270
464,56,9461,1,0
488,80,9577,1,0
456,88,9692,1,4
376,120,10154,5,0
376,258,10615,1,2
416,189,10846,1,0
256,189,11308,5,0
295,120,11538,1,4
296,258,12000,1,0
416,189,12461,5,2
256,189,12923,1,0
183,189,13154,1,0
151,189,13269,1,0
119,189,13385,1,2
256,56,13846,1,0
256,328,14308,5,2
176,328,14538,1,0
216,264,14769,1,0
296,264,15000,1,0
336,328,15231,2,0,B|424:304|456:192,1,180,0|0
328,128,16154,1,2
388,172,16385,1,0
448,128,16615,1,0
425,56,16846,1,0
351,56,17077,2,0,B|272:16|256:104|168:48,1,180,0|0
40,32,18000,5,2
8,96,18231,1,0
40,160,18462,1,0
104,184,18692,1,0
168,160,18923,2,0,B|216:248|160:336,1,180,0|0
24,352,19846,1,2
72,296,20077,1,0
144,272,20308,1,0
216,296,20538,1,0
264,352,20769,2,0,B|360:384|456:352,1,180,0|0
456,216,21692,5,2
488,152,21923,1,0
456,88,22154,1,0
384,88,22385,1,0
416,152,22615,2,0,B|336:200|240:144,1,180,0|0
120,80,23538,1,2
64,32,23769,1,0
120,80,24000,1,0
128,8,24231,1,0
120,80,24462,2,0,B|56:152|88:256,1,180,0|0
136,360,25385,5,2
184,304,25615,1,0
256,320,25846,1,0
328,336,26077,1,0
376,280,26308,1,4
256,88,27231,1,0
136,280,28154,1,0
136,280,28846,5,0
192,328,29077,1,0
256,224,29423,1,0
320,328,29769,1,0
376,280,30000,1,4
256,224,30346,1,0
192,120,30692,1,0
256,88,30923,1,4
320,120,31154,1,0
360,192,31385,5,0
392,208,31500,1,0
424,216,31615,1,0
456,208,31731,1,0
488,192,31846,1,4
488,64,32308,5,8
488,320,32769,1,2
304,192,33231,1,8
232,64,33692,1,0
208,40,33808,2,0,B|160:72|112:40,1,90
96,72,34154,2,0,B|96:128|40:160,1,90,8|0
120,184,34615,2,0,B|120:328,2,135,2|8|0
160,120,35538,2,0,B|248:176|336:120,1,180,0|8
464,40,36462,1,2
464,40,36577,1,0
416,96,36808,1,0
416,96,36923,1,8
392,24,37154,1,0
344,80,37385,6,0,B|280:120|192:64,1,135,0|8
128,16,38077,2,0,B|88:40|72:88,1,90,0|2
88,160,38538,1,0
152,104,38769,1,8
184,120,38885,1,0
208,144,39000,1,0
216,184,39115,1,0
216,224,39231,1,4
72,192,39692,5,8
184,104,40154,1,2
184,104,40269,1,0
201,38,40500,1,0
201,38,40615,1,8
267,56,40846,1,0
249,121,41077,2,0,B|312:208|416:168,1,180,0|8
448,232,41769,5,0
426,304,42000,2,0,B|426:350,1,45,2|0
361,338,42346,2,0,B|344:384,1,45,0|8
296,320,42692,1,0
296,320,42923,2,0,B|210:359|114:319,1,180,0|8
32,192,43846,5,2
32,192,43962,1,0
8,128,44192,1,0
8,128,44308,1,8
32,64,44538,1,0
72,128,44769,2,0,B|144:168|208:128,1,135,0|8
256,48,45462,1,0
288,112,45692,5,2
352,136,45923,1,0
424,144,46154,1,8
424,144,46269,1,0
424,144,46385,1,0
424,144,46500,1,0
424,144,46615,2,0,B|472:168|480:216|472:264|424:288|424:288|416:288,1,180,4|8
304,208,47538,2,0,B|280:160,1,45,2|0
224,216,47885,2,0,B|244:256,1,45,0|8
304,296,48231,1,0
304,296,48346,1,0
304,296,48462,2,0,B|256:352|168:336,1,135,0|8
72,336,49154,1,0
72,336,49385,2,0,B|24:312|16:264|24:216|72:192|72:192|80:192,1,180,2|8
208,96,50308,6,0,B|208:176|128:192,1,135,4|8
56,96,51000,1,0
128,112,51231,2,0,B|144:216|248:224,1,180,2|8
248,152,51923,1,0
248,152,52038,1,0
248,152,52154,2,0,B|256:72|336:64,1,135,0|8
448,48,52846,1,0
488,112,53077,1,2
448,176,53308,1,8
416,112,53538,1,8
384,128,53654,1,0
368,160,53769,1,0
368,200,53885,1,0
384,232,54000,1,4
448,336,54462,5,8
320,272,54923,2,0,B|296:224,1,45,2|0
248,272,55269,2,0,B|224:320,1,45,0|8
176,272,55615,1,0
176,272,55846,2,0,B|64:272|40:176,1,180,0|8
72,40,56769,2,0,B|96:80,1,45,2|0
160,48,57115,2,0,B|200:72,1,45,0|8
120,200,57692,6,0,B|152:272|112:336,2,135,0|8|0
48,192,58615,1,2
152,88,59077,1,8
256,192,59538,6,0,B|224:120|264:56,2,135,0|8|0
288,256,60462,1,2
320,192,60692,1,0
360,136,60923,1,8
384,112,61038,1,0
416,104,61154,1,0
448,112,61269,1,0
472,136,61385,5,4
504,200,61615,1,0
488,272,61846,1,0
424,304,62077,1,0
360,272,62308,2,0,B|294:311|214:255,2,135,2|0|0
384,208,63231,5,0
344,144,63462,1,0
272,168,63692,1,0
232,104,63923,1,0
160,128,64154,2,0,B|88:160|24:128,2,135,2|0|0
232,104,65077,6,0,B|256:56|224:8,1,90
176,64,65538,2,0,B|152:112|184:160,1,90
224,200,66000,2,0,B|224:248,1,45,2|0
288,200,66346,2,0,B|288:248,1,45
256,312,66692,1,0
344,368,66923,5,0
256,192,67269,1,0
168,368,67615,1,0
168,368,67846,1,2
256,128,68308,1,0
376,272,68769,6,0,B|352:224|384:176,1,90,4|0
440,144,69231,2,0,B|464:192|432:240,1,90
376,272,69692,2,0,B|312:312|232:264,1,135,2|0
168,192,70385,1,0
128,128,70615,1,0
200,128,70846,1,0
240,192,71077,1,0
200,256,71308,1,0
136,296,71538,2,0,B|62:279|40:200,2,135,2|0|0
199,337,72462,6,0,B|303:337,1,90
271,265,72923,2,0,B|361:265,1,90
432,264,73385,1,2
496,176,73731,1,0
432,88,74077,1,0
432,176,74308,5,0
344,240,74654,1,0
256,176,75000,1,0
344,176,75231,2,0,B|336:120|288:104,1,90,2|0
216,104,75692,1,0
200,96,75808,1,0
184,88,75923,1,0
168,80,76038,1,0
152,72,76154,6,0,B|72:24,1,90,4|0
80,112,76615,2,0,B|0:160,1,90,8|0
64,200,77077,2,0,B|8:248|32:328,2,135,2|8|0
128,168,78000,2,0,B|152:128|128:80,1,90
64,40,78462,2,0,B|40:80|64:128,1,90,8|0
129,82,78923,2,0,B|210:74|234:146,2,135,2|8|0
64,128,79846,5,0
8,176,80077,1,0
24,248,80308,1,8
88,288,80538,1,0
160,280,80769,2,0,B|160:336,1,45,2|0
224,360,81115,2,0,B|224:312,1,45,0|8
288,280,81461,1,0
288,280,81692,2,0,B|336:218|288:154,2,135,0|8|0
304,354,82615,1,2
304,354,83077,1,8
264,192,83538,6,0,B|224:216|176:192,1,90,4|0
120,152,84000,2,0,B|80:128|32:152,1,90,8|0
0,216,84461,2,0,B|0:272,1,45,2|0
72,240,84808,2,0,B|72:296,1,45,0|8
144,264,85154,1,0
216,288,85385,6,0,B|256:312|304:288,1,90
352,240,85846,2,0,B|392:216|440:240,1,90,8|0
512,248,86308,2,0,B|512:296,1,45,2|0
440,304,86654,1,0
440,304,86769,2,0,B|416:248|448:200,1,90,8|0
440,144,87231,6,0,B|392:168|352:144,1,90
304,96,87692,2,0,B|256:120|216:96,1,90,8|0
168,48,88154,2,0,B|104:88|32:40,2,135,2|8|0
240,32,89077,1,0
368,80,89423,1,8
424,192,89769,1,0
424,192,90000,2,0,B|384:224|328:184,1,90,2|0
288,144,90461,1,8
264,120,90577,1,0
232,112,90692,1,0
200,120,90808,1,0
176,144,90923,6,0,B|152:192|192:248,1,90,4|0
232,280,91385,2,0,B|280:304|336:272,1,90,8|0
395,273,91846,2,0,B|443:273,1,45,2|0
424,192,92192,2,0,B|465:168,1,45,0|8
416,112,92538,2,0,B|368:128|352:176,1,90
232,280,93115,1,8
192,120,93461,1,0
256,192,93692,1,2
256,192,94154,6,0,B|216:224|160:184,1,90,8|0
116,148,94615,2,0,B|84:100|124:52,1,90
172,108,95077,2,0,B|204:156|164:204,1,90,8|0
104,216,95538,2,0,B|56:216,1,45,2|0
128,288,95885,2,0,B|88:327,1,45,0|8
200,288,96231,1,0
272,288,96461,2,0,B|328:256|360:312|408:288,2,135,0|8|0
236,231,97385,2,0,B|212:183|236:143,1,90,2|0
232,72,97846,1,8
248,56,97961,1,0
256,72,98077,1,0
272,56,98192,1,0
280,72,98308,6,0,B|320:40|368:72,1,90,4|0
408,120,98769,2,0,B|368:152|320:120,1,90,8|0
280,72,99231,2,0,B|256:112,1,45,2|0
192,88,99577,2,0,B|168:128,1,45,0|8
104,104,99923,1,0
40,136,100154,2,0,B|8:152|-8:192|8:232|40:248,2,135,0|8|0
72,192,101077,2,0,B|152:232,1,90,2|0
88,272,101538,6,0,B|168:312,1,90,8|0
104,352,102000,2,0,B|200:398|279:348,1,180,4|8
360,200,102923,1,2
304,96,103269,1,8
248,200,103615,1,0
304,160,103846,2,0,B|360:120|416:120|472:160,1,180,0|8
488,232,104538,2,0,B|488:328,2,90,0|2|0
416,256,105231,1,8
392,256,105346,1,0
368,256,105461,1,0
344,256,105577,1,0
320,256,105692,5,4
192,256,106038,1,0
256,128,106385,1,0
296,200,106615,5,0
216,200,106846,1,0
200,120,107077,1,0
216,88,107192,1,0
256,72,107308,1,0
296,88,107423,1,0
312,120,107538,1,4
256,224,108000,5,8
328,232,108231,2,0,B|376:192,2,45,0|0|2
288,288,108692,1,0
216,288,108923,2,0,B|176:312|128:288,1,90,8|0
128,224,109385,2,0,B|128:368,2,135,0|8|0
128,160,110308,1,2
216,264,110769,6,0,B|312:264,2,90,8|0|4
296,120,111692,1,8
224,120,111923,2,0,B|168:120,2,45,0|0|2
296,120,112385,1,0
368,120,112615,2,0,B|336:80|368:32,1,90,8|0
424,80,113077,1,0
504,152,113423,1,8
392,184,113769,1,0
440,144,114000,2,0,B|471:184|438:231,1,90,2|0
368,240,114461,5,0
344,248,114577,1,0
328,264,114692,1,0
312,280,114808,1,0
304,304,114923,2,0,B|216:344|216:264|128:304,1,180,4|8
96,368,115615,2,0,B|48:368,2,45,0|0|2
168,368,116077,2,0,B|201:322|168:277,1,90,0|8
104,280,116538,1,0
64,224,116769,2,0,B|24:160|64:88,2,135,0|8|0
104,280,117692,1,2
256,296,118154,5,0
256,192,118385,1,0
256,88,118615,1,0
400,112,119077,2,0,B|472:200|392:280,1,180,8|2
280,352,120000,2,0,B|176:352,2,90,8|0|0
344,264,120808,1,8
408,352,121154,2,0,B|512:352,2,90,0|2|0
344,352,121846,1,8
312,344,121961,1,0
280,320,122077,1,0
264,288,122192,1,0
264,248,122308,5,4
192,120,122769,1,8
128,88,123000,1,0
64,56,123231,1,2
192,120,123692,1,8
264,112,123923,2,0,B|320:104,2,45
160,56,124500,1,8
160,184,124846,1,0
192,120,125077,1,2
320,264,125538,1,8
176,248,126000,6,0,B|112:296|40:240,2,135,0|8|0
208,184,126923,2,0,B|368:272,1,180,2|8
440,264,127615,2,0,B|496:264,1,45
504,264,127846,2,0,B|464:200|504:136,1,135,0|8
504,24,128538,1,0
456,80,128769,1,2
384,56,129000,1,0
360,120,129231,5,8
352,136,129346,1,0
344,152,129461,1,0
336,168,129577,1,0
328,184,129692,2,0,B|312:224|256:248|200:224|184:184,1,180,0|8
176,64,130615,1,2
336,64,130961,1,8
256,192,131308,1,0
328,216,131538,2,0,B|312:256|256:280|200:256|184:216,1,180,0|8
112,192,132231,5,0
112,192,132346,1,0
112,192,132461,1,2
72,128,132692,1,0
144,128,132923,1,8
144,56,133154,1,0
208,88,133385,1,0
224,72,133500,1,0
296,72,133731,1,0
312,56,133846,1,8
384,56,134077,1,0
440,104,134308,2,0,B|392:192|440:280,1,180,2|8
304,224,135231,5,2
256,104,135577,1,8
208,224,135923,1,0
144,192,136154,1,2
104,256,136385,1,0
64,192,136615,1,8
48,192,136731,1,0
32,184,136846,1,0
16,168,136961,1,0
8,152,137077,1,4
183,53,144461,5,4
327,53,144923,1,8
292,192,145385,2,0,B|292:240,1,45,2|0
219,237,145731,2,0,B|219:189,1,45,0|8
146,192,146077,1,0
146,192,146308,2,0,B|87:277|143:365,1,180,0|8
216,360,147000,1,0
256,296,147231,5,2
256,296,147346,1,0
296,360,147577,1,0
296,360,147692,1,8
336,296,147923,1,0
336,296,148154,2,0,B|392:208|328:120,1,180,0|8
192,88,149077,2,0,B|144:88,1,45,2|0
112,152,149423,2,0,B|168:152,1,45,0|8
232,152,149769,1,0
232,152,150000,2,0,B|200:216|264:216|224:288,2,135,0|8|0
264,88,150923,6,0,B|360:88,1,90,2|0
424,88,151385,1,8
424,88,151500,1,0
424,88,151615,1,0
424,88,151731,1,0
424,88,151846,2,0,B|480:176|416:264,1,180,4|8
336,192,152769,1,2
328,208,152885,1,0
256,208,153115,1,0
248,224,153231,1,8
176,224,153461,1,0
168,240,153577,1,0
160,256,153692,2,0,B|88:288|96:368,2,135,0|8|0
160,256,154615,1,4
256,192,155077,1,8
296,104,155538,6,0,B|368:136|432:96,2,135,4|8|0
256,48,156461,2,0,B|208:136|256:224,1,180,2|8
312,264,157154,2,0,B|288:304,1,45
280,320,157385,2,0,B|216:280|152:320,2,135,0|8|0
344,344,158308,1,2
408,368,158538,1,0
400,296,158769,1,8
416,280,158885,1,0
424,256,159000,1,0
416,232,159115,1,0
400,216,159231,1,4
472,48,159692,5,8
352,120,160154,2,0,B|304:128,1,45,2|0
256,176,160500,2,0,B|208:184,1,45,0|8
160,232,160846,1,0
96,200,161077,5,0
40,336,161538,1,8
160,264,162000,2,0,B|208:256,1,45,2|0
256,208,162346,2,0,B|304:200,1,45,0|8
424,136,162923,6,0,B|464:160|464:232|408:264,2,135,4|8|0
384,192,163846,2,0,B|296:240|296:144|208:192,1,180,2|8
72,192,164769,1,0
40,88,165115,1,8
8,192,165462,1,0
40,256,165692,5,2
72,320,165923,1,0
112,256,166154,1,8
128,264,166269,1,0
144,272,166385,1,0
160,280,166500,1,0
176,288,166615,1,4
168,208,166846,5,0
240,208,167077,1,0
296,160,167308,1,0
368,144,167538,2,0,B|416:136,1,45,2|0
392,72,167885,2,0,B|440:64,1,45
504,72,168231,1,0
504,144,168462,2,0,B|480:184|504:232,1,90
432,232,168923,2,0,B|456:272|432:320,1,90
360,320,169385,2,0,B|296:352|216:312,2,135,2|0|0
368,248,170308,5,0
336,184,170538,1,0
272,216,170769,1,0
304,280,171000,1,0
232,280,171231,2,0,B|184:296,1,45,2|0
144,352,171577,2,0,B|96:368,1,45
32,352,171923,1,0
80,296,172154,1,0
40,192,172500,1,0
80,88,172846,1,0
32,32,173077,2,0,B|120:80|208:32,1,180,2|0
336,48,174000,5,0
376,112,174231,1,0
456,112,174462,1,0
496,176,174692,1,0
456,240,174923,2,0,B|496:304|456:368,1,135,2|0
368,304,175615,1,0
328,240,175846,1,0
256,216,176077,1,0
184,240,176308,1,0
144,304,176538,1,0
112,240,176769,2,0,B|72:216,1,45,2|0
96,144,177115,2,0,B|56:120,1,45
80,56,177462,1,0
152,56,177692,6,0,B|264:64|288:160,1,180
296,280,178615,2,0,B|368:280|408:208,2,135,2|0|0
216,280,179538,2,0,B|144:280|104:352,2,135
208,208,180462,2,0,B|304:200,1,90,2|0
280,136,180923,1,0
296,120,181038,1,0
320,112,181154,1,0
344,120,181269,1,0
360,136,181385,5,4
352,208,181615,1,0
400,264,181846,1,8
472,280,182077,1,0
424,336,182308,1,2
424,352,182423,1,0
352,352,182654,1,0
344,365,182769,1,8
272,368,183000,1,0
200,368,183231,2,0,B|144:368|120:320,1,90
192,296,183692,2,0,B|112:248,1,90,8|0
184,224,184154,2,0,B|144:152|200:88,2,135,2|8|0
256,256,185077,5,0
288,192,185308,1,0
256,128,185538,1,8
224,192,185769,1,0
256,256,186000,2,0,B|304:284,1,45,2|0
344,224,186346,2,0,B|400:224,1,45,0|8
392,152,186692,1,0
392,152,186923,2,0,B|432:88|520:112,2,135,0|8|0
320,152,187846,1,2
192,152,188308,1,8
336,352,188769,5,4
368,288,189000,1,0
440,288,189231,1,8
472,224,189462,1,0
488,152,189692,2,0,B|504:104,1,45,2|0
424,96,190038,2,0,B|424:48,1,45,0|8
352,40,190385,1,0
272,40,190615,6,0,B|232:64|184:40,1,90
112,32,191077,2,0,B|64:56|68:108,1,90,8|0
48,176,191538,2,0,B|48:232,1,45,2|0
120,248,191885,2,0,B|159:287,1,45,0|8
152,280,192231,1,0
224,304,192462,6,0,B|320:336|400:272,1,180,0|8
256,248,193385,1,2
200,160,193731,1,8
312,160,194077,1,0
288,80,194308,2,0,B|192:48|112:112,1,180,0|8
64,152,195000,2,0,B|40:192|64:240,1,90,0|2
128,192,195462,1,0
200,160,195692,1,8
216,144,195808,1,0
232,160,195923,1,0
248,144,196038,1,0
264,160,196154,5,4
328,128,196385,1,0
264,160,196615,1,8
328,200,196846,1,0
264,232,197077,2,0,B|264:288,1,45,2|0
328,320,197423,2,0,B|328:272,1,45,0|8
392,232,197769,1,0
392,160,198000,2,0,B|384:72|464:56,2,135,0|8|0
456,192,198923,1,2
384,320,199385,6,0,B|336:344|280:312,1,90,8|0
208,248,199846,2,0,B|256:224|312:256,1,90
208,320,200308,2,0,B|160:344|104:312,1,90,8|0
72,272,200769,2,0,B|24:272,1,45,2|0
56,200,201115,2,0,B|8:192,1,45,0|8
40,128,201462,1,0
112,120,201692,6,0,B|200:64|296:128,1,180,0|8
296,192,202385,2,0,B|400:184,2,90,0|2|0
224,200,203077,1,8
208,216,203192,1,0
200,232,203308,1,0
200,248,203423,1,0
200,264,203538,6,0,B|200:312|240:352,1,90,4|0
312,344,204000,2,0,B|312:296|352:256,1,90,8|0
408,232,204462,1,2
408,232,204577,1,0
472,192,204808,1,0
472,192,204923,1,8
408,160,205154,1,0
472,120,205385,5,0
472,264,205731,1,8
344,192,206077,1,0
272,192,206308,1,2
136,112,206769,5,8
168,192,207000,1,0
136,272,207231,1,0
256,352,207692,1,8
400,312,208154,1,2
360,192,208500,1,8
400,72,208846,1,0
344,120,209077,6,0,B|256:160|256:80|168:120,1,180,0|8
120,168,209769,2,0,B|24:168,2,90,0|2|0
192,192,210462,1,8
200,208,210577,1,0
216,224,210692,1,0
240,232,210808,1,0
264,232,210923,1,4
408,148,211269,1,0
408,320,211615,1,0
408,232,211846,5,0
408,148,212077,1,0
352,96,212308,1,0
328,96,212423,1,0
304,88,212538,1,0
288,72,212654,1,0
280,48,212769,6,0,B|216:136|120:112,1,180,4|8
56,128,213462,1,0
64,152,213577,1,0
72,176,213692,1,2
144,184,213923,1,0
120,248,214154,1,8
88,312,214385,1,0
160,312,214615,2,0,B|224:352|288:312,1,135,0|8
288,192,215308,2,0,B|376:224,1,90,0|2
488,48,216000,5,8
488,120,216231,1,0
488,192,216462,1,0
344,72,216923,1,8
328,144,217154,1,0
320,160,217269,1,0
312,176,217385,2,0,B|320:232|272:264,1,90,2|0
245,199,217846,2,0,B|184:280,1,90,8|0
136,224,218308,2,0,B|72:264|8:224,2,135,0|8|0
128,296,219231,1,2
64,336,219462,1,0
64,264,219692,5,8
64,264,219808,1,0
64,264,219923,1,0
64,264,220038,1,0
64,264,220154,2,0,B|32:160|72:72,1,180,4|8
104,32,220846,1,0
120,40,220962,1,0
136,48,221077,2,0,B|224:88,1,90,2|0
160,136,221538,2,0,B|248:176,1,90,8|0
184,216,222000,5,0
235,306,222346,1,8
336,280,222692,1,0
371,342,222923,1,2
480,232,223385,5,8
480,152,223615,1,0
416,192,223846,2,0,B|392:88|280:88,1,180,0|8
96,192,224769,2,0,B|120:88|232:88,1,180,2|8
256,152,225462,1,0
256,224,225692,6,0,B|224:288|288:288|256:352,2,135,0|8|0
288,160,226615,1,2
320,224,226846,1,0
392,224,227077,1,8
384,240,227192,1,0
376,256,227308,1,0
368,272,227423,1,0
360,288,227538,2,0,B|336:320|280:344|224:320|200:288,1,180,4|8
120,240,228231,1,0
120,240,228462,2,0,B|144:208|200:184|256:208|280:240,1,180,2|8
238,308,229154,1,0
224,300,229269,1,0
210,292,229385,1,0
120,240,229731,1,8
94,132,230077,1,0
31,96,230308,1,2
31,96,230769,1,8
208,24,231231,5,4
259,114,231577,1,8
360,88,231923,1,0
395,150,232154,2,0,B|435:174|451:230|435:286|395:310,1,180,2|8
360,248,232846,1,0
344,256,232962,1,0
328,264,233077,2,0,B|264:304|200:264,1,135,0|8
120,192,233769,2,0,B|40:232,2,90,0|2|0
176,144,234462,6,0,B|192:96,1,45,8|0
212,102,234692,2,0,B|228:150,1,45
248,144,234923,2,0,B|336:88|432:152,1,180,4|8
336,240,235846,2,0,B|368:304|304:304|336:368,2,135,2|8|0
336,176,236769,1,0
248,88,237231,1,8
184,56,237462,5,0
184,56,237577,1,0
184,56,237692,2,0,B|128:56|112:112,1,90,2|0
176,120,238154,2,0,B|232:120|248:176,1,90,8|0
312,192,238615,2,0,B|360:192,1,45
392,256,238962,2,0,B|433:280,1,45,0|8
496,312,239308,1,0
432,344,239538,2,0,B|344:400|248:336,1,180,2|8
256,200,240462,6,0,B|296:136|224:136|256:72,2,135,0|8|0
200,232,241385,1,2
256,264,241615,1,0
256,336,241846,1,8
272,328,241962,1,0
288,320,242077,1,0
304,312,242192,1,0
320,304,242308,1,4
192,56,256154,6,0,B|216:104|192:144,1,90,2|0
144,192,256615,1,0
144,192,256731,1,0
144,192,256846,1,0
144,192,256962,1,0
144,192,257077,2,0,B|96:280|152:376,1,180
288,360,258000,1,2
252,297,258231,1,0
314,261,258462,1,0
350,324,258692,1,0
392,264,258923,2,0,B|456:176|416:80,1,180
296,24,259846,5,2
220,26,260077,1,0
164,77,260308,1,0
148,151,260538,1,0
184,217,260769,2,0,B|199:318|101:280|102:373,1,180
224,360,261692,1,2
260,297,261923,1,0
198,261,262154,1,0
162,324,262385,1,0
120,264,262615,2,0,B|56:176|96:80,1,180
208,184,263538,6,0,B|232:136|208:96,1,90,2|0
152,56,264000,2,0,B|128:104|152:144,1,90
209,97,264462,2,0,B|296:144|384:96,1,180
480,152,265385,2,0,B|504:192|480:240,1,90,2|0
424,192,265846,2,0,B|376:272,1,90
328,216,266308,2,0,B|224:232|192:320,1,180
96,216,267231,6,0,B|152:216|168:160,1,90,2|0
165,97,267692,2,0,B|151:50|95:50,1,90
104,136,268154,2,0,B|288:136,1,180
408,248,269077,2,0,B|223:248,1,180,2|0
112,160,270000,6,0,B|89:119|16:120|-6:169,2,135
56,200,270923,2,0,B|88:288,1,90
136,232,271385,1,0
144,216,271500,1,0
168,208,271615,1,0
192,216,271731,1,0
200,232,271846,2,0,B|336:232,2,135
192,304,272769,2,0,B|216:344|272:344,1,90
256,272,273231,5,0
256,248,273346,1,0
256,224,273462,1,0
256,200,273577,1,0
256,176,273692,1,4
189,72,274154,6,0,B|133:80|125:128,1,90
117,256,274615,2,0,B|173:248|181:200,1,90,2|0
61,128,275077,2,0,B|69:184|117:192,1,90
253,240,275538,2,0,B|269:192|237:136|173:136,2,135,2|0|0
253,312,276462,1,0
392,280,276923,6,0,B|416:304|456:304|488:272,1,90
432,224,277385,1,4
360,104,277846,1,0
290,78,278077,2,0,B|306:29,2,45,0|0|2
216,72,278538,1,0
144,99,278769,1,0
96,158,279000,1,0
82,232,279231,2,0,B|29:282|88:309|38:360,2,135,2|0|0
82,232,280154,1,2
120,104,280615,6,0,B|96:80|56:80|24:112,1,90
80,160,281077,1,4
152,280,281538,1,0
222,306,281769,2,0,B|205:354,2,45,0|0|2
296,312,282231,1,0
368,285,282462,1,0
416,226,282692,1,0
430,152,282923,2,0,B|482:101|423:74|473:23,2,135,2|0|0
430,152,283846,1,2
352,288,284308,5,0
256,344,284538,1,0
160,288,284769,1,4
160,96,285231,1,0
256,40,285462,1,0
352,96,285692,1,2
224,168,286154,5,0
288,168,286385,1,0
256,112,286615,1,0
184,224,286962,1,0
328,224,287308,1,0
392,256,287538,5,0
392,184,287769,1,0
328,152,288000,1,0
328,152,288115,1,0
328,152,288231,1,0
328,152,288346,1,0
328,152,288462,2,0,B|240:200|152:152,1,180,4|8
32,104,289385,2,0,B|-16:192|32:280,1,180,2|8
104,280,290077,1,0
176,288,290308,2,0,B|256:296|280:376,2,135,0|8|0
104,280,291231,2,0,B|56:192|104:104,1,180,2|8
288,136,292154,6,0,B|424:136,2,135,4|8|0
288,64,293077,2,0,B|208:112|112:64,1,180,2|8
64,16,293769,1,0
115,65,294000,2,0,B|112:136|48:176,2,135,0|8|0
144,128,294923,2,0,B|176:216,1,90,2|0
240,160,295385,1,8
256,168,295500,1,0
272,176,295615,1,0
288,184,295731,1,0
304,192,295846,1,4
416,104,296308,5,8
304,192,296769,2,0,B|248:224|240:152|176:192,2,135,2|8|0
376,192,297692,2,0,B|368:296|256:312,1,180,0|8
192,296,298385,5,0
192,296,298500,1,0
192,296,298615,2,0,B|96:280,1,90,2|0
96,208,299077,2,0,B|192:224,1,90,8|0
192,152,299538,1,0
264,128,299769,1,0
296,120,299885,1,0
328,112,300000,1,8
400,88,300231,2,0,B|504:88,2,90,0|2|0
328,64,300923,1,8
296,56,301038,1,0
264,48,301154,1,0
232,40,301269,1,0
200,32,301385,1,4
256,128,301731,5,8
312,32,302077,1,0
384,32,302308,2,0,B|408:72,1,45,2|0
384,80,302538,2,0,B|360:120,1,45
352,144,302769,2,0,B|376:184,1,45,8|0
352,192,303000,2,0,B|328:232,1,45
320,248,303231,6,0,B|232:288|232:208|144:248,1,180,4|8
88,280,303923,2,0,B|40:304,2,45,0|0|2
88,208,304385,1,0
40,152,304615,2,0,B|0:112|16:56,1,90,8|0
80,96,305077,2,0,B|144:56|208:96,2,135,0|8|0
40,152,306000,1,2
216,40,306462,6,0,B|312:40,1,90,8|0
376,40,306923,2,0,B|312:120|384:224,1,180,4|8
416,264,307615,1,0
416,264,307731,1,0
416,264,307846,2,0,B|320:264,1,90,2|0
312,192,308308,2,0,B|232:240,1,90,8|0
176,272,308769,5,0
226,82,309115,1,8
365,221,309462,1,0
432,192,309692,2,0,B|432:96,1,90,2|0
440,24,310154,1,8
408,32,310269,1,0
376,56,310385,1,0
360,88,310500,1,0
360,128,310615,1,4
368,264,311077,5,8
304,240,311308,1,0
272,232,311423,1,0
240,224,311538,1,2
168,200,311769,2,0,B|128:224|80:200,1,90,0|8
40,144,312231,2,0,B|80:120|128:144,1,90
256,192,312808,1,8
385,143,313154,1,0
456,144,313385,1,2
432,288,313846,5,8
360,296,314077,1,0
312,352,314308,2,0,B|224:392|136:352,1,180,0|8
80,312,315000,2,0,B|48:272,1,45
80,256,315231,2,0,B|120:168|80:80,1,180,2|8
40,24,315923,6,0,B|-8:24,2,45,0|0|0
128,112,316500,2,0,B|192:152|256:112,1,135,8|0
256,200,317077,6,0,B|256:304,1,90,2|0
312,336,317538,1,8
329,358,317654,1,0
356,349,317769,1,0
356,321,317885,1,0
329,313,318000,2,0,B|376:208|288:144,1,180,4|8
214,150,318692,1,0
214,150,318923,2,0,B|136:208|183:313,1,180,2|8
256,312,319615,1,0
224,248,319846,2,0,B|152:208|96:280,2,135,0|8|0
288,248,320769,2,0,B|376:288|464:248,1,180,2|8
288,136,321692,6,0,B|360:176|416:104,2,135,4|8|0
224,136,322615,2,0,B|136:96|48:136,1,180,2|8
16,200,323308,1,0
48,208,323423,1,0
80,216,323538,2,0,B|152:248|144:336,2,135,0|2|0
48,152,324462,2,0,B|24:104|56:56,1,90,2|0
104,16,324923,5,0
120,48,325038,1,0
148,65,325154,1,0
188,70,325269,1,0
222,59,325385,2,0,B|312:32|400:80,1,180,4|8
464,192,326308,2,0,B|432:256|496:256|456:328,2,135,2|8|0
464,120,327231,2,0,B|352:120|296:192,1,180,0|8
312,256,327923,5,0
279,250,328038,1,0
246,245,328154,2,0,B|148:229,1,90,2|0
184,160,328615,2,0,B|86:144,1,90,8|0
48,200,329077,2,0,B|16:264|48:336,2,135,0|2|0
16,136,330000,2,0,B|104:104,1,90,2|0
168,88,330462,5,8
176,104,330577,1,0
192,120,330692,1,0
216,128,330808,1,0
240,128,330923,1,4
344,88,331269,1,8
344,192,331615,1,0
392,248,331846,1,2
376,264,331962,1,0
352,272,332077,1,0
328,264,332192,1,0
304,256,332308,1,8
288,272,332423,1,0
264,280,332538,1,0
240,272,332654,1,0
216,264,332769,5,4
184,152,333231,1,8
296,120,333692,1,2
328,232,334154,1,8
168,344,334615,6,0,B|120:336,1,45
144,264,334962,2,0,B|96:256,1,45,0|8
120,184,335308,1,0
104,112,335538,2,0,B|24:104|0:32,2,135,2|8|0
176,112,336462,1,0
304,184,336923,1,8
344,40,337385,6,0,B|392:48,1,45,2|0
368,120,337731,2,0,B|416:128,1,45,0|8
392,200,338077,1,0
408,272,338308,2,0,B|488:280|512:352,2,135,0|8|0
336,272,339231,2,0,B|288:272|240:240,1,90,2|0
184,208,339692,1,8
153,193,339808,1,0
127,169,339923,1,0
108,141,340038,1,0
105,108,340154,1,4
256,40,340615,5,8
407,108,341077,2,0,B|407:159,1,45,2|0
472,184,341423,2,0,B|472:235,1,45,0|8
408,264,341769,1,0
336,264,342000,2,0,B|264:312|240:224|160:264,1,180,0|8
96,264,342692,1,0
56,208,342923,6,0,B|8:192,1,45,2|0
16,120,343269,2,0,B|64:136,1,45,0|8
96,72,343615,1,0
168,72,343846,2,0,B|248:112|272:32|352:80,2,180,0|8|2
128,72,344885,1,0
104,144,345115,2,0,B|152:144,1,45,0|8
224,144,345462,1,0
224,144,345692,5,4
256,248,346038,1,8
288,144,346385,1,0
352,112,346615,2,0,B|392:88|448:104,1,90,2|0
408,168,347077,2,0,B|432:208,1,45,8|0
408,208,347308,2,0,B|384:248,1,45
408,248,347538,6,0,B|408:328|496:360,2,135,4|0|0
344,208,348462,2,0,B|256:264|168:200,1,180,2|0
104,208,349154,2,0,B|128:248,1,45
104,248,349385,2,0,B|104:328|16:360,2,135
176,205,350308,2,0,B|264:149|352:213,1,180,2|0
440,320,351231,5,0
472,256,351462,1,0
488,224,351577,1,0
504,192,351692,1,0
504,120,351923,1,0
504,48,352154,2,0,B|400:64|352:144,1,180,2|0
288,128,352846,2,0,B|264:168,1,45
256,184,353077,2,0,B|112:184,2,135
288,240,354000,2,0,B|304:352|192:376,1,180,2|0
120,208,354923,6,0,B|120:240|112:272|144:312|200:304,2,135
184,240,355846,2,0,B|184:208|176:176|208:136|264:144,2,135,2|0|0
248,208,356769,2,0,B|248:240|240:272|272:312|328:304,2,135
312,240,357692,2,0,B|312:208|304:176|336:136|392:144,2,135,2|0|0
376,208,358615,2,0,B|376:240|368:272|400:312|456:304,2,135
400,144,359538,6,0,B|360:120,1,45,2|0
296,152,359885,2,0,B|256:128,1,45
192,168,360231,2,0,B|136:176|104:144,1,90
40,112,360692,2,0,B|40:160,1,45
8,224,361038,2,0,B|8:272,1,45
40,336,361385,1,2
112,336,361615,1,0
144,352,361731,1,0
176,368,361846,1,0
240,336,362077,1,0
