osu file format v9

[General]
AudioFilename: fripSide - Late in autumn.mp3
AudioLeadIn: 2000
PreviewTime: 106556
Countdown: 0
SampleSet: Soft
StackLeniency: 0.7
Mode: 0
LetterboxInBreaks: 0

[Editor]
Bookmarks: 144344,242306
DistanceSpacing: 0.9
BeatDivisor: 4
GridSize: 4

[Metadata]
Title:late in autumn
Artist:fripSide
Creator:Glass
Version:Hard
Source:
Tags:Mystearica samiljul

[Difficulty]
HPDrainRate:7
CircleSize:4
OverallDifficulty:7
ApproachRate:7
SliderMultiplier:1.8
SliderTickRate:0.5

[Events]
//Background and Video events
0,0,"autumn.jpg"
//Break Periods
2,137277,143561
//Storyboard Layer 0 (Background)
//Storyboard Layer 1 (Fail)
//Storyboard Layer 2 (Pass)
//Storyboard Layer 3 (Foreground)
//Storyboard Sound Samples
//Background Colour Transformations
3,100,0,0,0

[TimingPoints]
462,461.538461538462,4,2,1,60,1,0
2192,-100,4,2,0,60,0,0
2423,-100,4,2,1,60,0,0
5885,-100,4,2,0,60,0,0
6115,-100,4,2,1,60,0,0
9577,-100,4,2,0,60,0,0
9808,-100,4,2,1,60,0,0
13269,-100,4,2,0,60,0,0
13500,-100,4,2,1,60,0,0
14192,-100,4,2,1,70,0,0
16962,-100,4,2,0,70,0,0
17192,-100,4,2,1,70,0,0
20654,-100,4,2,0,70,0,0
20885,-100,4,2,1,70,0,0
24346,-100,4,2,0,70,0,0
24577,-100,4,2,1,70,0,0
31731,-100,4,2,1,100,0,0
31962,-100,4,2,2,80,0,0
33577,-100,4,2,0,80,0,0
33808,-100,4,2,2,80,0,0
35423,-100,4,2,0,80,0,0
35654,-100,4,2,2,80,0,0
40962,-100,4,2,0,80,0,0
41192,-100,4,2,2,80,0,0
42808,-100,4,2,0,80,0,0
43038,-100,4,2,2,80,0,0
48346,-100,4,2,0,80,0,0
48577,-100,4,2,2,80,0,0
52038,-100,4,2,0,80,0,0
52269,-100,4,2,2,80,0,0
60577,-100,4,2,0,80,0,0
60808,-100,4,2,2,80,0,0
61038,-100,4,2,0,80,0,0
61269,-100,4,2,1,80,0,0
63115,-100,4,2,0,80,0,0
63346,-100,4,2,1,80,0,0
64962,-100,4,2,0,80,0,0
65192,-100,4,2,1,80,0,0
66808,-100,4,2,0,80,0,0
67038,-100,4,2,1,80,0,0
70500,-100,4,2,0,80,0,0
70731,-100,4,2,1,80,0,0
72346,-100,4,2,0,80,0,0
72577,-100,4,2,1,80,0,0
74192,-100,4,2,0,80,0,0
74423,-100,4,2,1,80,0,0
76038,-100,4,2,2,80,0,0
77885,-100,4,2,0,80,0,0
78115,-100,4,2,2,80,0,0
79731,-100,4,2,0,80,0,0
79962,-100,4,2,2,80,0,0
81577,-100,4,2,0,80,0,0
81808,-100,4,2,2,80,0,0
85269,-100,4,2,0,80,0,0
85500,-100,4,2,2,80,0,0
87115,-100,4,2,0,80,0,0
87346,-100,4,2,2,80,0,0
88962,-100,4,2,0,80,0,0
89192,-100,4,2,2,80,0,0
92654,-100,4,2,0,80,0,0
92885,-100,4,2,2,80,0,0
94500,-100,4,2,0,80,0,0
94731,-100,4,2,2,80,0,0
96346,-100,4,2,0,80,0,0
96577,-100,4,2,2,80,0,0
103731,-100,4,2,0,80,0,0
103962,-100,4,2,2,80,0,0
105577,-100,4,2,1,80,0,0
107538,-100,4,2,2,80,0,1
109269,-100,4,2,0,80,0,1
109500,-100,4,2,2,80,0,1
112962,-100,4,2,0,80,0,1
113192,-100,4,2,2,80,0,1
116654,-100,4,2,0,80,0,1
116885,-100,4,2,2,80,0,1
120346,-100,4,2,0,80,0,1
120577,-100,4,2,2,80,0,1
127731,-100,4,2,0,80,0,1
127962,-100,4,2,2,80,0,1
131423,-100,4,2,0,80,0,1
131654,-100,4,2,2,80,0,1
135231,-100,4,2,2,80,0,0
146192,-100,4,2,0,80,0,0
146423,-100,4,2,2,80,0,0
148038,-100,4,2,0,80,0,0
148269,-100,4,2,2,80,0,0
153577,-100,4,2,0,80,0,0
153808,-100,4,2,2,80,0,0
157269,-100,4,2,0,80,0,0
157500,-100,4,2,2,80,0,0
165808,-100,4,2,0,80,0,0
166038,-100,4,2,2,80,0,0
166269,-100,4,2,0,80,0,0
166500,-100,4,2,1,80,0,0
168346,-100,4,2,0,80,0,0
168577,-100,4,2,1,80,0,0
170192,-100,4,2,0,80,0,0
170423,-100,4,2,1,80,0,0
172038,-100,4,2,0,80,0,0
172269,-100,4,2,1,80,0,0
175731,-100,4,2,0,80,0,0
175962,-100,4,2,1,80,0,0
177577,-100,4,2,0,80,0,0
177808,-100,4,2,1,80,0,0
181269,-100,4,2,2,80,0,0
183115,-100,4,2,0,80,0,0
183346,-100,4,2,2,80,0,0
184962,-100,4,2,0,80,0,0
185192,-100,4,2,2,80,0,0
186808,-100,4,2,0,80,0,0
187038,-100,4,2,2,80,0,0
190500,-100,4,2,0,80,0,0
190731,-100,4,2,2,80,0,0
192346,-100,4,2,0,80,0,0
192577,-100,4,2,2,80,0,0
194192,-100,4,2,0,80,0,0
194423,-100,4,2,2,80,0,0
197885,-100,4,2,0,80,0,0
198115,-100,4,2,2,80,0,0
199731,-100,4,2,0,80,0,0
199962,-100,4,2,2,80,0,0
201577,-100,4,2,0,80,0,0
201808,-100,4,2,2,80,0,0
208962,-100,4,2,0,80,0,0
209192,-100,4,2,2,80,0,0
210808,-100,4,2,1,80,0,0
212769,-100,4,2,2,80,0,1
214500,-100,4,2,0,80,0,1
214731,-100,4,2,2,80,0,1
218192,-100,4,2,0,80,0,1
218423,-100,4,2,2,80,0,1
221885,-100,4,2,0,80,0,1
222115,-100,4,2,2,80,0,1
225577,-100,4,2,0,80,0,1
225808,-100,4,2,2,80,0,1
229269,-100,4,2,0,80,0,1
229500,-100,4,2,2,80,0,1
232962,-100,4,2,0,80,0,1
233192,-100,4,2,2,80,0,1
236654,-100,4,2,0,80,0,1
236885,-100,4,2,2,80,0,1
240462,-100,4,2,2,80,0,0

[Colours]
Combo1 : 128,64,0
Combo2 : 255,128,0
Combo3 : 255,0,0
Combo4 : 128,0,0

[HitObjects]
48,88,462,2,0,B|136:56|136:120|224:88,1,180,4|0
368,16,1385,2,0,B|400:104,1,90,2|0
408,240,2077,5,0
400,256,2192,1,0
392,272,2308,2,0,B|368:360|256:416|144:360|120:272,1,360,2|2
256,192,4154,6,0,B|288:104|256:16,1,180,4|0
128,64,5077,2,0,B|88:144,1,90,2|0
120,336,6000,6,0,B|256:392|256:280|392:336,1,270,2|0
400,336,6808,2,0,B|440:312,1,45,0|2
472,48,7846,6,0,B|400:216,1,180,4|0
240,176,8769,2,0,B|204:258,1,90,2|0
72,192,9461,6,0,B|24:192,2,45,0|0|2
256,56,10615,1,2
256,328,11538,1,4
344,192,12000,1,0
168,192,12461,1,2
256,192,12692,1,0
256,56,13154,6,0,B|256:0,2,45,0|0|2
512,192,14308,6,0,B|512:96,1,90,2|0
432,64,14769,2,0,B|432:160,1,90
432,232,15231,2,0,B|304:304|160:224,1,270,4|0
96,200,16154,1,2
24,160,16385,1,0
40,80,16615,1,0
120,72,16846,1,0
152,144,17077,2,0,B|152:296|312:344,1,270,2|0
384,344,18000,5,2
456,312,18231,1,0
424,240,18462,1,0
352,272,18692,1,0
384,344,18923,2,0,B|248:400|112:336,1,270,4|0
48,312,19846,1,2
40,232,20077,1,0
112,200,20308,1,0
168,264,20538,1,0
100,267,20769,2,0,B|128:128|304:120,1,270,2|0
344,40,21692,6,0,B|248:40,1,90,2|0
200,112,22154,2,0,B|112:48,1,90
48,40,22615,2,0,B|-8:168|48:312,1,270,4|0
112,352,23538,1,2
160,288,23769,1,0
232,256,24000,1,0
304,288,24231,1,0
352,352,24462,2,0,B|416:216|344:80,1,270,2|0
312,16,25385,5,2
272,88,25615,1,0
192,112,25846,1,0
112,88,26077,1,0
56,24,26308,2,0,B|-8:160|64:296,1,270,4|0
112,352,27231,5,8
192,312,27462,1,0
232,296,27577,1,0
272,280,27692,1,0
328,352,27923,1,0
328,352,28154,1,8
400,304,28385,5,0
424,264,28500,1,0
440,224,28615,1,0
472,144,28846,1,8
472,144,29077,1,8
472,56,29308,6,0,B|472:8,2,45,0|8|0
400,96,29769,5,8
384,104,29885,1,8
368,112,30000,2,0,B|296:136|264:192,1,135,4|4
192,96,30692,5,8
186,112,30808,1,8
180,129,30923,2,0,B|146:196|163:259,2,135,4|4|4
256,192,31846,6,0,B|168:232|80:192,1,180,4|8
24,120,32538,1,0
8,208,32769,1,2
8,224,32885,1,0
88,256,33115,1,0
96,272,33231,2,0,B|112:312|152:344,1,90,8|0
232,344,33692,2,0,B|312:296|352:208,1,180,0|8
384,136,34385,1,0
440,200,34615,5,2
448,216,34731,1,0
376,248,34962,1,0
368,264,35077,1,8
360,344,35308,1,0
280,328,35538,2,0,B|232:344,1,45,2|0
168,304,35885,2,0,B|120:288,1,45,0|8
40,304,36231,1,0
64,224,36462,2,0,B|48:168,1,45,2|0
144,181,36808,2,0,B|144:136,1,45,0|8
224,136,37154,1,0
304,168,37385,2,0,B|368:168|400:176|424:128|424:80,2,135,4|0|0
344,88,38308,2,0,B|280:88|248:96|224:48|224:0,2,135,4|0|0
417,120,39231,6,0,B|464:144|456:208,1,90,4|0
408,272,39692,2,0,B|364:300|304:264,1,90,8|0
280,192,40154,2,0,B|277:139|338:105,1,90,2|0
362,198,40615,2,0,B|365:251|304:285,1,90,8|0
232,256,41077,2,0,B|176:248,1,45,2|0
144,328,41423,2,0,B|96:336,1,45,0|8
16,344,41769,1,0
32,256,42000,2,0,B|-8:200|0:120,2,135,2|0|0
88,192,42923,6,0,B|168:264|248:192,1,180,2|8
256,112,43615,1,8
336,144,43846,1,2
344,128,43962,1,8
416,88,44192,1,0
424,72,44308,1,8
496,32,44538,1,8
504,112,44769,2,0,B|520:168|472:208,1,90,4|0
512,201,45115,2,0,B|510:259|451:280,1,90,8|0
493,288,45462,1,8
416,352,45692,5,2
400,320,45808,1,0
376,296,45923,1,0
344,288,46038,1,0
312,296,46154,1,8
288,320,46269,1,0
272,352,46385,1,0
208,312,46615,6,0,B|168:312|144:288|136:256,1,90,4|0
208,240,47077,2,0,B|248:240|272:216|280:184,1,90,8|0
208,168,47538,2,0,B|168:168|144:144|136:112,1,90,2|0
208,96,48000,2,0,B|248:96|272:72|280:40,1,90,8|0
344,24,48462,6,0,B|384:48|432:32,1,90,2|0
320,96,48923,2,0,B|347:134|397:140,1,90,8|0
280,160,49385,2,0,B|288:206|331:232,1,90,2|0
216,200,49846,2,0,B|204:244|232:287,1,90,8|0
304,312,50308,6,0,B|344:312|368:288|376:256,1,90,4|0
304,240,50769,2,0,B|264:240|240:216|232:184,1,90,8|0
304,168,51231,2,0,B|344:168|368:144|376:112,1,90,2|0
304,96,51692,2,0,B|264:96|240:72|232:40,1,90,8|0
168,24,52154,6,0,B|128:48|80:32,1,90,2|0
192,96,52615,2,0,B|166:134|116:140,1,90,8|0
232,160,53077,2,0,B|225:206|182:232,1,90,8|0
296,200,53538,2,0,B|309:244|281:287,1,90,8|0
216,344,54000,6,0,B|112:344|80:232,1,180,4|8
296,40,54923,2,0,B|400:40|432:152,1,180,2|8
84,140,55846,6,0,B|112:40|216:40,1,180,4|8
429,243,56769,2,0,B|400:344|296:344,1,180,2|8
120,336,57692,5,4
88,264,57923,1,0
80,240,58038,1,0
72,216,58154,1,8
120,152,58385,1,0
192,112,58615,2,0,B|240:96,1,45,2|8
312,128,58962,2,0,B|360:144,1,45,0|8
432,112,59308,1,8
496,168,59538,5,4
416,192,59769,1,0
392,200,59885,1,0
368,208,60000,1,8
288,208,60231,1,0
272,128,60462,5,4
200,168,60692,1,2
184,88,60923,5,8
112,128,61154,1,2
96,48,61385,5,4
24,88,61615,1,0
24,168,61846,1,8
96,208,62077,1,0
96,208,62192,1,0
96,208,62308,2,0,B|112:256|88:328,1,90,2|0
178,296,62769,2,0,B|186:248|178:200,1,90,8|0
168,128,63231,5,2
240,160,63462,1,0
296,224,63692,1,8
312,304,63923,1,0
312,304,64038,1,0
312,304,64154,2,0,B|408:304,1,90,2|0
472,264,64615,2,0,B|488:208|464:152,1,90,8|0
440,104,65077,5,2
392,168,65308,1,0
320,200,65538,1,8
240,184,65769,1,0
240,264,66000,2,0,B|240:312,1,45,2|0
160,296,66346,2,0,B|144:344,1,45,0|8
64,336,66692,1,0
88,256,66923,2,0,B|104:208|88:160|88:160|80:160,1,90,2|0
64,88,67385,1,8
144,64,67615,1,0
168,144,67846,2,0,B|264:184|344:120,1,180,2|8
488,128,68769,5,4
464,208,69000,1,0
384,184,69231,1,8
360,264,69462,1,0
280,240,69692,2,0,B|280:288,1,45,2|0
200,264,70038,1,0
200,264,70154,2,0,B|144:264|128:200,1,90,8|0
208,184,70615,5,2
272,136,70846,1,0
296,56,71077,1,8
376,56,71308,2,0,B|424:56,1,45
432,136,71654,2,0,B|480:152,1,45
512,232,72000,2,0,B|464:248|424:224,1,90,8|0
360,176,72462,6,0,B|280:216,1,90,2|0
336,288,72923,2,0,B|256:328,1,90,8|0
216,256,73385,2,0,B|152:296|72:248,2,135,2|0|0
296,256,74308,2,0,B|360:296|440:248,2,135,2|0|0
256,192,75231,1,2
256,192,75692,1,8
424,336,76154,5,4
496,280,76385,1,0
496,192,76615,1,8
424,136,76846,1,0
424,136,76962,1,0
424,136,77077,2,0,B|328:136,1,90,2|0
288,64,77538,2,0,B|240:88|184:56,1,90,8|0
128,24,78000,5,2
40,40,78231,1,0
24,128,78462,1,8
96,184,78692,1,0
96,184,78808,1,0
96,184,78923,2,0,B|144:216|152:272,1,90,2|0
80,312,79385,2,0,B|128:360|192:328,1,90,8|0
248,336,79846,5,2
336,336,80077,2,0,B|440:336,1,90,0|8
496,280,80538,1,0
496,280,80654,1,0
496,280,80769,2,0,B|520:232|488:176,1,90,2|0
407,105,81231,2,0,B|384:144|408:192,1,90,8|0
344,264,81692,2,0,B|208:232,2,135,2|8|0
256,336,82615,2,0,B|168:368|80:336,1,180,8|8
136,192,83538,5,4
224,176,83769,1,0
312,200,84000,1,8
384,256,84231,1,0
424,336,84461,2,0,B|464:312,1,45,2|0
440,224,84808,2,0,B|480:200,1,45,0|8
440,120,85154,1,0
376,192,85385,5,2
288,208,85615,1,0
200,184,85846,1,8
128,128,86077,1,0
88,48,86308,2,0,B|48:72,1,45,2|0
72,160,86654,2,0,B|32:184,1,45,0|8
56,272,87000,1,0
128,328,87231,6,0,B|232:328,1,90,2|0
264,248,87692,2,0,B|160:248,1,90,8|0
216,168,88154,2,0,B|280:128|288:56,2,135,2|8|0
296,168,89077,2,0,B|232:128|224:56,2,135,2|8|0
384,192,90000,1,2
379,209,90115,1,0
374,226,90231,1,0
369,243,90346,1,0
355,254,90461,1,8
350,271,90577,1,0
345,288,90692,1,0
256,304,90923,5,4
224,232,91154,1,0
160,184,91385,1,8
80,192,91615,1,0
24,136,91846,2,0,B|24:88,1,45,2|0
104,96,92192,2,0,B|120:48,1,45,0|8
192,96,92538,1,0
272,96,92769,2,0,B|336:136|400:96,2,135,2|8|0
336,40,93692,1,2
472,232,94154,6,0,B|496:280|456:328,1,90,8|0
400,272,94615,1,2
320,256,94846,1,0
266,324,95077,1,8
184,304,95308,1,0
104,272,95538,2,0,B|64:248,1,45,2|0
144,192,95885,2,0,B|120:152,1,45,0|8
208,136,96231,1,0
296,136,96461,2,0,B|360:176|424:136,2,135,2|8|0
256,64,97385,1,8
256,320,97846,1,8
256,320,98308,6,0,B|280:272|256:216,1,90,4|0
263,232,98769,2,0,B|240:176|256:120,1,90,8|0
280,56,99231,2,0,B|320:16,1,45,2|0
368,88,99577,2,0,B|416:80,1,45,0|8
424,168,99923,1,0
400,256,100154,2,0,B|352:232|296:264,1,90,4|0
224,344,100615,2,0,B|272:368|328:336,1,90,8|0
224,256,101077,2,0,B|176:232|120:264,1,90,4|0
48,256,101538,6,0,B|48:160,1,90,8|0
64,64,102000,2,0,B|168:48|216:152,1,180,4|8
448,64,102923,2,0,B|344:48|296:152,1,180,2|8
168,296,103846,6,0,B|256:344|344:296,1,180,2|8
344,88,104769,2,0,B|256:40|168:88,1,180,8|8
160,248,105692,5,8
192,272,105808,1,0
224,272,105923,1,0
256,248,106038,1,8
288,224,106154,1,2
320,224,106269,1,0
352,248,106385,1,8
424,328,106615,5,8
488,272,106846,1,8
472,192,107077,1,8
400,160,107308,1,8
320,168,107538,2,0,B|224:144|200:48,1,180,4|8
128,88,108231,1,0
128,88,108346,1,0
128,88,108461,2,0,B|88:120|80:168,1,90,2|0
176,168,108923,2,0,B|154:208|168:256,1,90,8|0
256,208,109385,2,0,B|256:344,2,135,2|8|0
256,208,110308,1,2
368,312,110769,6,0,B|408:344|464:328,1,90,8|0
424,256,111231,2,0,B|472:168|424:80,1,180,4|8
344,96,111923,2,0,B|320:48,1,45
240,56,112269,2,0,B|216:8,1,45
136,24,112615,2,0,B|88:16|48:48,1,90,8|0
104,104,113077,2,0,B|72:168|104:240,2,135,2|8|0
184,96,114000,1,8
328,24,114461,6,0,B|416:48,1,90,8|0
360,104,114923,2,0,B|312:192|360:280,1,180,4|8
416,336,115615,2,0,B|464:320,1,45
352,360,115961,2,0,B|304:376,1,45
272,304,116308,2,0,B|224:328|184:304,1,90,8|0
112,272,116769,2,0,B|112:352|32:384,2,135,2|8|0
112,192,117692,1,2
256,168,118154,6,0,B|280:120|328:104|376:120|400:168,1,180,8|4
256,240,119077,2,0,B|232:288|184:304|136:288|112:240,1,180,8|2
256,312,120000,2,0,B|280:264|328:248|376:264|400:312,1,180,8|2
256,192,120808,1,8
344,200,121154,5,0
336,232,121269,1,0
320,264,121385,1,8
288,280,121500,1,0
256,288,121615,1,0
224,280,121731,1,0
192,256,121846,1,8
176,232,121961,1,0
168,200,122077,1,0
188,111,122308,6,0,B|124:151|61:112,2,135,4|8|0
124,48,123231,2,0,B|140:144|256:144,1,180,2|8
304,80,123923,5,0
312,96,124038,1,0
323,111,124154,2,0,B|387:151|451:112,2,135,4|8|0
387,48,125077,2,0,B|371:144|256:144,1,180,2|8
256,144,126000,6,0,B|296:200|224:216|256:272,2,135,4|8|0
174,56,126923,2,0,B|255:9|350:59,1,180,2|8
414,190,127846,2,0,B|414:283|324:341,1,180,2|8
184,336,128769,2,0,B|96:288|96:184,1,180,8|8
128,104,129461,5,0
168,192,129692,2,0,B|168:248|216:272,1,90,4|0
303,268,130154,2,0,B|344:248|344:192,1,90,8|0
324,116,130615,2,0,B|256:92|256:140|188:116,2,135,2|8|0
344,40,131538,2,0,B|256:8|168:40,1,180,2|8
118,103,132231,5,0
110,119,132346,1,0
102,135,132461,1,2
66,207,132692,1,0
146,203,132923,1,8
146,283,133154,1,0
226,315,133385,5,4
238,327,133500,1,0
254,331,133615,1,0
270,327,133731,1,0
282,315,133846,1,8
362,283,134077,1,0
308,220,134308,2,0,B|288:176|308:132,1,90,2|0
204,76,134769,2,0,B|224:120|204:164,1,90,8|0
122,155,135231,5,2
110,167,135346,1,0
102,183,135461,1,0
98,199,135577,1,8
102,215,135692,1,0
110,231,135808,1,0
122,243,135923,1,0
196,212,136154,5,2
220,292,136385,1,0
292,260,136615,1,8
316,340,136846,1,0
388,308,137077,1,4
480,192,144461,6,0,B|392:232|304:192,1,180,4|8
256,120,145154,1,0
208,192,145385,1,2
200,208,145500,1,0
112,240,145731,1,0
104,256,145846,2,0,B|92:301|48:336,1,90,8|0
16,248,146308,6,0,B|-24:160|16:72,1,180,2|8
72,144,147000,1,0
128,72,147231,1,2
144,80,147346,1,0
160,160,147577,1,0
176,168,147692,1,8
256,192,147923,1,0
376,192,148154,6,0,B|408:224,1,45,2|8
320,296,148500,2,0,B|304:248,1,45,0|8
256,192,148846,1,8
206,254,149077,2,0,B|191:297,1,45,2|8
104,224,149423,2,0,B|135:193,1,45,0|8
256,192,149769,1,8
250,80,150000,6,0,B|170:136,1,90,4|0
177,172,150346,2,0,B|97:228,1,90,8|0
104,264,150692,1,2
160,328,150923,5,2
192,352,151038,1,0
224,352,151154,1,0
256,328,151269,1,0
288,304,151385,1,8
320,304,151500,1,0
352,328,151615,1,0
464,336,151846,6,0,B|496:296|496:248,1,90,4|0
408,264,152308,2,0,B|425:215|408:170,1,90,8|0
328,216,152769,2,0,B|327:164|296:128,1,90,2|0
240,200,153231,2,0,B|222:152|180:128,1,90,8|0
104,25,153692,6,0,B|104:129,1,90,2|0
16,73,154154,2,0,B|16:177,1,90,8|0
104,115,154615,2,0,B|104:219,1,90,2|0
16,163,155077,2,0,B|16:267,1,90,8|0
48,336,155538,6,0,B|16:296|16:248,1,90,4|0
104,264,156000,2,0,B|88:215|105:170,1,90,8|0
184,216,156461,2,0,B|186:164|217:128,1,90,2|0
272,200,156923,2,0,B|291:152|333:128,1,90,8|0
408,25,157385,6,0,B|408:129,1,90,2|0
496,73,157846,2,0,B|496:177,1,90,8|0
408,115,158308,2,0,B|408:219,1,90,8|0
496,163,158769,2,0,B|496:267,1,90,8|0
429,140,159231,6,0,B|400:40|296:40,1,180,4|8
84,243,160154,2,0,B|112:344|216:344,1,180,2|8
428,244,161077,6,0,B|400:344|297:344,1,180,4|8
84,140,162000,2,0,B|112:40|215:40,1,180,2|8
392,40,162923,5,4
456,104,163154,1,0
456,104,163269,1,0
456,104,163385,2,0,B|440:148|408:184,1,90,8|0
336,212,163846,1,2
332,228,163962,1,0
256,256,164192,1,0
260,272,164308,1,8
184,300,164538,1,8
132,236,164769,5,4
144,224,164885,1,0
152,208,165000,1,0
156,192,165115,1,8
152,176,165231,1,0
144,160,165346,1,0
132,148,165462,1,0
184,84,165692,5,4
232,152,165923,1,2
232,232,166154,1,8
184,300,166385,1,2
132,236,166615,5,4
88,304,166846,1,0
12,280,167077,1,8
52,212,167308,1,0
52,212,167423,1,0
52,212,167538,2,0,B|20:172|20:120,1,90,2|0
100,124,168000,2,0,B|116:36,1,90,8|0
200,32,168462,5,2
232,112,168692,1,0
320,128,168923,1,8
384,64,169154,1,0
384,64,169269,1,0
384,64,169385,2,0,B|432:144,1,90,2|0
392,216,169846,2,0,B|408:256|392:304,1,90,8|0
312,352,170308,5,2
280,272,170538,1,0
192,256,170769,1,8
128,320,171000,1,0
128,320,171115,1,0
128,320,171231,2,0,B|80:240,1,90,2|0
120,168,171692,2,0,B|104:128|120:80,1,90,8|0
200,128,172154,2,0,B|288:160|376:128,1,180,2|8
456,88,172846,1,0
456,176,173077,2,0,B|424:264|456:352,1,180,2|8
256,280,174000,6,0,B|304:200,1,90,4|0
336,280,174462,2,0,B|384:360,1,90,8|0
296,352,174923,2,0,B|208:384|120:352,1,180,2|8
192,144,175846,6,0,B|96:104,1,90,2|0
48,48,176308,1,8
48,136,176538,1,0
48,136,176654,1,0
48,136,176769,2,0,B|48:232,1,90,2|0
128,272,177231,2,0,B|128:320|144:376,1,90,8|0
216,320,177692,6,0,B|216:224,1,90,2|0
296,184,178154,2,0,B|296:280,1,90,8|0
216,120,178615,6,0,B|160:80|144:152|88:120,2,135,2|0|0
296,120,179538,2,0,B|352:80|368:152|424:120,2,135,4|0|0
344,192,180462,2,0,B|256:240|168:192,1,180,2|8
112,24,181385,5,4
160,96,181615,1,0
128,184,181846,1,8
40,192,182077,1,0
40,192,182192,1,0
40,192,182308,2,0,B|17:243|43:293,1,90,2|0
112,232,182769,2,0,B|108:287|150:325,1,90,8|0
216,360,183231,5,2
296,320,183462,1,0
376,360,183692,1,8
456,312,183923,1,0
456,312,184038,1,0
456,312,184154,2,0,B|496:280|496:224,1,90,2|0
408,240,184615,2,0,B|368:208|368:152,1,90,8|0
456,168,185077,6,0,B|496:136|496:80,2,90,2|0|8
408,96,185769,1,0
408,96,185885,1,0
408,96,186000,2,0,B|312:96,1,90,2|0
222,168,186462,2,0,B|312:168,1,90,8|0
216,96,186923,2,0,B|120:96,1,90,2|0
80,168,187385,2,0,B|40:136|40:80,2,90,8|0|8
80,168,188308,1,8
184,328,188769,5,4
224,248,189000,1,0
312,224,189231,1,8
392,264,189462,1,0
464,320,189692,2,0,B|512:304,1,45,2|0
512,216,190038,2,0,B|470:230,1,45,0|8
392,264,190385,1,0
328,328,190615,5,2
288,248,190846,1,0
200,224,191077,1,8
120,264,191308,1,0
48,320,191538,2,0,B|0:304,1,45,2|0
0,216,191885,2,0,B|43:230,1,45,0|8
120,264,192231,1,0
208,288,192462,6,0,B|304:288,1,90,2|0
298,197,192923,2,0,B|202:197,1,90,8|0
120,168,193385,1,2
256,104,193731,1,8
392,168,194077,1,0
368,256,194308,2,0,B|344:296|296:312,1,90,2|0
213,310,194769,2,0,B|168:296|144:256,1,90,8|0
256,224,195231,2,0,B|256:128,1,90,8|0
256,134,195692,1,8
352,32,196154,5,4
344,120,196385,1,0
416,176,196615,1,8
504,160,196846,1,0
480,248,197077,2,0,B|480:304,1,45,2|0
392,288,197423,2,0,B|384:336,1,45,0|8
296,312,197769,1,0
216,272,198000,2,0,B|176:296|128:272,1,90,2|0
128,224,198346,2,0,B|88:248|40:224,1,90,8|0
40,176,198692,1,0
40,176,198923,1,2
144,32,199385,5,8
160,120,199615,1,0
224,184,199846,1,2
312,208,200077,1,0
400,192,200308,1,8
472,136,200538,1,0
416,72,200769,2,0,B|416:16,1,45,2|0
336,112,201115,2,0,B|336:56,1,45,0|8
256,72,201462,1,0
176,104,201692,6,0,B|152:152|88:168,1,90,2|0
336,160,202154,2,0,B|360:208|424:224,1,90,8|0
160,216,202615,2,0,B|136:264|72:280,1,90,8|0
352,272,203077,2,0,B|376:320|440:336,1,90,8|0
432,248,203538,6,0,B|432:160|368:80,1,180,4|8
141,82,204462,2,0,B|80:160|80:248,1,180,2|8
288,208,205385,6,0,B|312:160|280:104,1,90,4|0
224,168,205846,2,0,B|200:216|232:272,1,90,8|0
328,208,206308,2,0,B|352:160|320:104,1,90,4|0
184,168,206769,2,0,B|160:216|192:272,1,90,8|0
64,320,207231,6,0,B|168:336|216:232,1,180,4|8
448,320,208154,2,0,B|344:336|296:232,1,180,2|8
168,88,209077,6,0,B|256:40|344:88,1,180,2|8
344,296,210000,2,0,B|256:344|168:296,1,180,8|8
128,192,210923,5,8
256,192,211269,1,8
384,192,211615,1,8
472,144,211846,1,8
472,240,212077,1,8
384,288,212308,5,8
376,320,212423,1,8
344,344,212538,1,8
312,352,212654,1,8
280,352,212769,2,0,B|192:320|192:376|96:344,1,180,4|8
64,264,213462,1,0
64,264,213577,1,0
64,264,213692,2,0,B|80:216|64:168,1,90,2|0
8,104,214154,2,0,B|-8:56|8:8,1,90,8|0
88,56,214615,2,0,B|144:56|184:88,1,90,2|0
208,64,214962,2,0,B|261:83|288:126,1,90,8|0
320,120,215308,2,0,B|363:155|373:206,1,90,0|4
180,216,216000,6,0,B|128:228|96:256,1,90,8|0
168,300,216462,2,0,B|256:348|344:300,1,180,4|8
376,224,217154,1,0
376,224,217269,1,0
376,224,217385,2,0,B|424:200|448:160,1,90,2|0
360,136,217846,2,0,B|390:91|391:44,1,90,8|0
304,80,218308,2,0,B|248:80|208:112,1,90,2|0
184,88,218654,2,0,B|132:107|105:150,1,90,8|0
80,144,219000,2,0,B|38:179|28:230,1,90,0|4
104,264,219462,1,0
192,264,219692,5,8
224,264,219808,1,0
256,280,219923,1,0
280,304,220038,1,0
288,336,220154,2,0,B|392:336|432:248,1,180,4|8
456,168,220846,2,0,B|472:120,2,45,0|0|2
376,184,221308,1,0
352,272,221538,2,0,B|304:296|248:264,1,90,8|0
176,184,222000,2,0,B|214:161|262:185,1,90,2|0
176,272,222462,2,0,B|128:296|72:264,1,90,8|0
88,184,222923,1,2
344,72,223385,6,0,B|248:48|147:80,1,180,8|4
344,144,224308,2,0,B|248:120|147:152,1,180,8|2
344,216,225231,2,0,B|248:192|147:224,1,180,8|2
256,288,226038,1,8
344,216,226385,1,0
352,120,226615,5,8
320,96,226731,1,0
288,96,226846,1,0
256,120,226962,1,0
224,144,227077,1,8
192,144,227192,1,0
160,120,227308,1,8
96,56,227538,6,0,B|48:144|96:232,1,180,4|8
416,328,228462,2,0,B|464:240|416:152,1,180,2|8
288,328,229385,2,0,B|200:376|112:328,1,180,2|8
224,56,230308,2,0,B|312:8|400:56,1,180,8|8
480,192,231231,6,0,B|480:288,1,90,4|0
408,224,231692,2,0,B|376:314,1,90,8|0
328,232,232154,2,0,B|267:305,1,90,2|0
256,192,232615,1,8
184,232,232846,5,0
184,232,232962,1,0
184,232,233077,2,0,B|246:305,1,90,2|0
104,224,233538,2,0,B|137:314,1,90,8|0
32,192,234000,2,0,B|32:288,1,90,2|0
32,192,234462,5,8
112,144,234692,1,0
168,216,234923,2,0,B|208:168|208:104,1,90,4|0
307,135,235385,2,0,B|312:176|348:223,1,90,8|0
416,264,235846,6,0,B|488:240|504:160,2,135,2|8|0
344,304,236769,2,0,B|256:336|256:272|168:304,1,180,2|8
88,336,237462,5,0
72,296,237577,1,0
56,256,237692,1,2
88,168,237923,1,0
32,96,238154,1,8
88,24,238385,1,0
176,56,238615,5,4
200,80,238731,1,0
232,96,238846,1,0
264,104,238962,1,0
296,104,239077,1,8
384,88,239308,1,0
384,176,239538,2,0,B|384:232,1,45,2|8
296,208,239885,2,0,B|256:248,1,45,0|8
176,240,240231,1,8
160,328,240462,5,4
193,352,240577,1,0
224,352,240692,1,0
256,328,240808,1,8
280,304,240923,1,0
311,304,241038,1,0
343,328,241154,1,8
344,192,241385,5,4
256,104,241615,1,0
168,192,241846,1,8
256,280,242077,1,0
256,192,242308,5,4
