osu file format v10

[General]
AudioFilename: holynightmagic.mp3
AudioLeadIn: 500
PreviewTime: 90254
Countdown: 0
SampleSet: Soft
StackLeniency: 0.7
Mode: 0
LetterboxInBreaks: 0

[Editor]
DistanceSpacing: 1.3
BeatDivisor: 4
GridSize: 2

[Metadata]
Title:holy night magic (Short Ver.)
TitleUnicode:holy night magic (Short Ver.)
Artist:fripSide
ArtistUnicode:fripSide
Creator:NewRulerNA
Version:Normal
Source:Merichri ~Juunenburi no White Christmas~
Tags:nao whirlpool visual novel eroge opening merry christmas xmas SakiK jih7491 Jing
BeatmapID:182263
BeatmapSetID:61055

[Difficulty]
HPDrainRate:4
CircleSize:3
OverallDifficulty:4
ApproachRate:5
SliderMultiplier:1.2
SliderTickRate:1

[Events]
//Background and Video events
0,0,"BG2.jpg"
Video,-925,"mc.avi"
//Break Periods
//Storyboard Layer 0 (Background)
//Storyboard Layer 1 (Fail)
//Storyboard Layer 2 (Pass)
//Storyboard Layer 3 (Foreground)
//Storyboard Sound Samples
//Background Colour Transformations
3,100,0,0,0

[TimingPoints]
2133,512.820512820513,4,2,1,60,1,0
32902,441.176470588235,4,2,2,70,1,0
49225,-100,4,2,2,60,0,0
60916,-100,4,2,2,70,0,0
91137,-100,4,2,2,70,0,1
119372,-100,4,2,2,70,0,0

[Colours]
Combo1 : 0,0,204
Combo2 : 255,32,32
Combo3 : 193,255,255

[HitObjects]
42,56,2133,6,0,B|100:32|158:56,1,120,2|0,0:0|0:0,0:0:0
308,102,3158,2,0,B|370:110|420:71,1,120,2|0,0:0|0:0,0:0:0
498,206,4184,2,0,B|506:268|467:318,1,120,2|0,0:0|0:0,0:0:0
314,286,5209,2,0,B|251:277|201:316,1,120,2|0,0:0|0:0,0:0:0
50,276,6235,6,0,B|11:226|19:163,1,120,2|0,0:0|0:0,0:0:0
122,46,7261,1,2,0:0:0
226,162,7774,1,0,0:0:0
378,126,8286,2,0,B|416:76|408:13,2,120,2|0|2,0:0|0:0|0:0,0:0:0
226,162,9825,1,0,0:0:0
326,282,10338,6,0,B|384:306|442:282,2,120,2|0|2,0:0|0:0|0:0,0:0:0
168,272,11876,1,0,0:0:0
22,214,12389,2,0,B|-2:272|22:330,2,120,2|0|2,0:0|0:0|0:0,0:0:0
172,164,13927,1,0,0:0:0
284,56,14440,6,0,B|343:64|343:64|380:112,1,120,2|0,0:0|0:0,0:0:0
380,272,15466,2,0,B|343:320|343:320|284:328,1,120,2|0,0:0|0:0,0:0:0
128,332,16491,2,0,B|119:269|70:231,1,120,2|0,0:0|0:0,0:0:0
70,153,17261,2,0,B|119:115|128:52,1,120,8|0,0:0|0:0,0:0:0
202,26,18030,1,0,0:0:0
236,96,18286,1,0,0:0:0
312,118,18543,6,0,B|370:94|428:118,2,120,2|0|2,0:0|0:0|0:0,0:0:0
256,172,19825,2,0,B|256:304,1,120
256,370,20594,1,2,0:0:0
104,332,21107,2,0,B|28:311,1,60
74,244,21620,2,0,B|18:188,1,60,2|0,0:0|0:0,0:0:0
28,124,22133,6,0,B|66:74|128:65,1,120,0|2,0:0|0:0,0:0:0
256,156,23158,1,0,0:0:0
384,65,23671,2,0,B|446:74|484:124,1,120,2|0,0:0|0:0,0:0:0
500,280,24697,2,0,B|475:338|417:363,1,120,2|0,0:0|0:0,0:0:0
350,324,25466,1,0,0:0:0
284,364,25722,6,0,B|144:364,1,120,2|0,0:0|0:0,0:0:0
108,310,26491,2,0,B|69:260|77:197,1,120,8|0,0:0|0:0,0:0:0
80,120,27261,2,0,B|59:96|29:91,2,60,0|0|2,0:0|0:0|0:0,0:0:0
158,120,28030,2,0,B|188:122|214:104,1,60
282,66,28543,2,0,B|338:44|338:44|394:66,1,120,8|0,0:0|0:0,0:0:0
410,142,29312,2,0,B|334:171,1,60,0|2,0:0|0:0,0:0:0
208,218,30081,6,0,B|134:218,2,60
256,280,30850,2,0,B|294:329|356:338,1,120,2|0,0:0|0:0,0:0:0
432,318,31620,2,0,B|481:279|490:217,1,120,2|0,0:0|0:0,0:0:0
494,138,32389,2,0,B|494:50,2,60,2|0|4,0:0|0:0|0:0,0:0:0
350,200,33343,5,0,0:0:0
312,268,33563,2,0,B|256:290|256:290|200:268,1,120,2|0,0:0|0:0,0:0:0
162,200,34225,2,0,B|162:120,2,60,8|0|4,0:0|0:0|0:0,0:0:0
84,336,35107,1,8,0:0:0
84,336,35549,2,0,B|132:374,1,60
208,354,35990,6,0,B|220:326|256:324|256:324|292:326|304:354,1,120,8|8,0:0|0:0,0:0:0
458,336,36872,2,0,B|450:272|396:237,1,120,8|8,0:0|0:0,0:0:0
248,192,37754,1,8,0:0:0
99,146,38196,2,0,B|45:111|38:48,2,120,8|0|0,0:0|0:0|0:0,0:0:0
214,40,39519,6,0,B|284:40|284:40|316:88,1,120,8|8,0:0|0:0,0:0:0
396,214,40401,2,0,B|326:214|326:214|294:166,1,120,8|8,0:0|0:0,0:0:0
458,158,41284,2,0,B|480:214|480:214|458:270,1,120,8|4,0:0|0:0,0:0:0
316,336,42166,1,0,0:0:0
166,292,42607,6,0,B|135:281|124:250,1,60,8|0,0:0|0:0,0:0:0
102,176,43049,1,8,0:0:0
34,138,43269,2,0,B|48:72|113:58,1,120
190,72,43931,1,8,0:0:0
266,56,44151,2,0,B|392:56,2,120,8|8|8,0:0|0:0|0:0,0:0:0
240,130,45254,6,0,B|204:185|239:242,1,120,8|0,0:0|0:0,0:0:0
302,290,45916,2,0,B|424:290,1,120,8|0,0:0|0:0,0:0:0
500,290,46578,1,8,0:0:0
460,222,46799,1,0,0:0:0
390,188,47019,2,0,B|400:157|431:146,2,60,12|0|8,0:0|0:0|0:0,0:0:0
314,208,47681,2,0,B|250:217|200:177,1,120,4|2,0:0|0:0,0:0:0
150,120,48343,1,0,0:0:0
290,52,48784,1,2,0:0:0
432,114,49225,6,0,B|484:150|490:214,1,120,8|0,0:0|0:0,0:0:0
440,274,49887,2,0,B|384:328,1,60,0|8,0:0|0:0,0:0:0
324,344,50328,2,0,B|260:355|211:313,1,120
186,240,50990,5,8,0:0:0
222,172,51210,2,0,B|350:172,1,120
412,136,51872,2,0,B|384:92|384:92|296:92,1,120,8|2,0:0|0:0,0:0:0
160,92,52754,5,8,0:0:0
40,192,53196,2,0,B|70:251|136:248,1,120,8|0,0:0|0:0,0:0:0
200,202,53857,2,0,B|256:180|256:180|312:202,1,120,8|0,0:0|0:0,0:0:0
374,248,54519,1,8,0:0:0
448,226,54740,2,0,B|474:244|477:276,1,60,0|0,0:0|0:0,0:0:0
436,342,55181,6,0,B|417:368|385:370,1,60,0|8,0:0|0:0,0:0:0
308,366,55622,2,0,B|247:344|225:283,1,120,8|0,0:0|0:0,0:0:0
190,214,56284,2,0,B|190:140,1,60,8|0,0:0|0:0,0:0:0
232,88,56725,2,0,B|258:48|258:48|342:48,1,120,8|0,0:0|0:0,0:0:0
404,76,57387,6,0,B|456:112|462:176,1,120,8|0,0:0|0:0,0:0:0
394,214,58049,2,0,B|366:227|352:255,1,60,8|0,0:0|0:0,0:0:0
312,322,58490,2,0,B|262:363|199:352,1,120,8|0,0:0|0:0,0:0:0
70,266,59372,6,0,B|119:224|182:235,1,120,8|8,0:0|0:0,0:0:0
256,262,60034,2,0,B|305:217|284:153,1,120,8|0,0:0|0:0,0:0:0
236,92,60696,1,8,0:0:0
170,52,60916,6,0,B|36:52,1,120,4|0,0:0|0:0,0:0:0
10,204,61799,2,0,B|144:204,1,120,4|0,0:0|0:0,0:0:0
200,240,62460,2,0,B|256:262|256:262|312:240,1,120,0|4,0:0|0:0,0:0:0
394,108,63343,6,0,B|338:86|338:86|282:108,2,120,8|8|8,0:0|0:0|0:0,0:0:0
454,158,64446,2,0,B|490:214|454:270,1,120,8|0,0:0|0:0,0:0:0
382,302,65107,1,8,0:0:0
314,262,65328,2,0,B|256:235|198:262,1,120,8|0,0:0|0:0,0:0:0
130,302,65990,5,8,0:0:0
58,157,66431,1,10,0:0:0
132,24,66872,2,0,B|197:38|211:103,1,120,8|8,0:0|0:0,0:0:0
160,162,67534,2,0,B|151:191|160:220,1,60,0|8,0:0|0:0,0:0:0
190,294,67975,6,0,B|234:343|298:322,1,120,8|0,0:0|0:0,0:0:0
370,292,68637,2,0,B|355:265|328:250,2,60,8|8|0,0:0|0:0|0:0,0:0:0
438,330,69299,6,0,B|467:323|488:301,1,60,0|8,0:0|0:0,0:0:0
504,224,69740,2,0,B|504:158|504:158|446:134,1,120,10|0,0:0|0:0,0:0:0
386,174,70401,1,8,0:0:0
318,136,70622,2,0,B|318:60,2,60,0|0|8,0:0|0:0|0:0,0:0:0
250,174,71284,1,0,0:0:0
179,211,71504,6,0,B|108:210|98:140,1,120,2|0,0:0|0:0,0:0:0
154,84,72166,2,0,B|174:61|204:54,1,60,8|0,0:0|0:0,0:0:0
282,72,72607,2,0,B|290:42|281:13,2,60,8|0|8,0:0|0:0|0:0,0:0:0
340,126,73269,6,0,B|381:175|370:238,1,120,4|0,0:0|0:0,0:0:0
346,312,73931,1,8,0:0:0
268,304,74151,2,0,B|204:292|155:334,1,120,4|0,0:0|0:0,0:0:0
82,306,74813,1,8,0:0:0
20,260,75034,6,0,B|-13:205|5:144,1,120,4|0,0:0|0:0,0:0:0
30,70,75696,2,0,B|74:20|138:41,1,120,8|8,0:0|0:0,0:0:0
206,80,76357,1,0,0:0:0
284,74,76578,2,0,B|313:67|334:45,1,60,8|0,0:0|0:0,0:0:0
394,96,77019,6,0,B|351:141|291:155,1,120,4|8,0:0|0:0,0:0:0
140,194,77901,2,0,B|182:239|242:253,2,120,8|8|8,0:0|0:0|0:0,0:0:0
98,128,79004,6,0,B|98:44,2,60,8|0|0,0:0|0:0|0:0,0:0:0
56,194,79666,2,0,B|56:326,1,120,8|2,0:0|0:0,0:0:0
120,358,80328,1,0,0:0:0
198,368,80549,6,0,B|261:379|310:337,2,120,4|8|8,0:0|0:0|0:0,0:0:0
212,212,81872,1,8,0:0:0
226,56,82313,6,0,B|163:45|114:87,2,120,8|8|0,0:0|0:0|0:0,0:0:0
354,146,83637,1,8,0:0:0
406,203,83857,1,0,0:0:0
367,271,84078,6,0,B|300:267|270:327,1,120,4|0,0:0|0:0,0:0:0
192,314,84740,2,0,B|132:283|135:217,1,120,4|0,0:0|0:0,0:0:0
150,140,85401,1,0,0:0:0
228,136,85622,2,0,B|294:139|324:80,1,120,4|0,0:0|0:0,0:0:0
394,116,86284,2,0,B|416:136|423:166,1,60
256,192,86725,12,4,89151,0:0:0
200,316,90475,6,0,B|256:338|256:338|312:316,1,120
380,276,91137,2,0,B|374:212|322:175,1,120,6|8,0:0|0:0,0:0:0
256,134,91799,1,0,0:0:0
190,175,92019,2,0,B|137:212|132:276,2,120,8|0|8,0:0|0:0|0:0,0:0:0
186,98,93122,6,0,B|177:69|186:40,2,60,0|8|0,0:0|0:0|0:0,0:0:0
258,70,93784,2,0,B|316:43|374:70,1,120,8|8,0:0|0:0,0:0:0
466,196,94666,6,0,B|460:259|408:296,1,120,8|8,0:0|0:0,0:0:0
332,278,95328,2,0,B|274:251|216:278,1,120,8|0,0:0|0:0,0:0:0
144,310,95990,2,0,B|127:335|128:366,2,60,8|0|8,0:0|0:0|0:0,0:0:0
116,238,96651,2,0,B|132:212|131:181,1,60,0|8,0:0|0:0,0:0:0
158,26,97313,6,0,B|224:22|254:82,1,120,8|0,0:0|0:0,0:0:0
256,160,97975,2,0,B|256:312,1,120,8|0,0:0|0:0,0:0:0
308,338,98637,2,0,B|333:354|364:353,1,60,8|0,0:0|0:0,0:0:0
440,330,99078,1,8,0:0:0
480,264,99299,2,0,B|489:235|480:206,1,60,8|0,0:0|0:0,0:0:0
402,190,99740,6,0,B|341:168|319:107,1,120,8|0,0:0|0:0,0:0:0
256,64,100401,1,8,0:0:0
192,107,100622,2,0,B|170:168|110:190,1,120,8|8,0:0|0:0,0:0:0
46,234,101284,2,0,B|92:306,1,60,8|0,0:0|0:0,0:0:0
122,348,101725,6,0,B|178:384|234:348,1,120,8|0,0:0|0:0,0:0:0
296,300,102387,2,0,B|352:264|408:300,1,120,8|0,0:0|0:0,0:0:0
466,246,103049,2,0,B|475:217|466:188,1,60,8|0,0:0|0:0,0:0:0
422,122,103490,6,0,B|384:72|384:72|274:72,1,120,6|0,0:0|0:0,0:0:0
250,72,104151,1,6,0:0:0
150,192,104593,2,0,B|242:192,1,60
288,192,105034,6,0,B|324:248|288:304,1,120,8|0,0:0|0:0,0:0:0
210,320,105696,1,8,0:0:0
132,320,105916,2,0,B|72:320|72:320|48:266,1,120,8|0,0:0|0:0,0:0:0
18,194,106578,1,8,0:0:0
68,134,106799,6,0,B|131:128|168:75,1,120,8|0,0:0|0:0,0:0:0
242,54,107460,1,8,0:0:0
312,88,107681,2,0,B|334:108|341:138,1,60,0|8,0:0|0:0,0:0:0
282,192,108122,6,0,B|210:192,2,60,0|8|0,0:0|0:0|0:0,0:0:0
288,270,108784,2,0,B|326:270|326:270|350:234|350:234|388:234,1,120,8|0,0:0|0:0,0:0:0
396,312,109446,6,0,B|366:352|366:352|294:352,1,120,8|8,0:0|0:0,0:0:0
189,242,110328,2,0,B|222:192|222:192|282:192,1,120,8|0,0:0|0:0,0:0:0
342,142,110990,1,10,0:0:0
228,36,111431,6,0,B|164:41|127:94,1,120,8|8,0:0|0:0,0:0:0
76,152,112093,2,0,B|50:168|19:167,2,60,8|0|0,0:0|0:0|0:0,0:0:0
152,168,112754,2,0,B|204:204|210:268,1,120,8|8,0:0|0:0,0:0:0
360,168,113637,6,0,B|308:204|302:268,1,120,8|8,0:0|0:0,0:0:0
326,342,114299,2,0,B|342:367|370:379,1,60
450,378,114740,1,8,0:0:0
498,316,114960,1,2,0:0:0
494,164,115401,5,8,0:0:0
494,164,115622,1,0,0:0:0
494,164,115843,2,0,B|457:111|393:106,1,120,8|0,0:0|0:0,0:0:0
320,132,116504,2,0,B|256:126|219:74,1,120,8|0,0:0|0:0,0:0:0
142,66,117166,2,0,B|81:87|60:147,1,120,8|12,0:0|0:0,0:0:0
142,318,118049,5,8,0:0:0
142,318,118269,2,0,B|81:296|60:236,1,120,4|0,0:0|0:0,0:0:0
124,192,118931,2,0,B|200:192,1,60,8|0,0:0|0:0,0:0:0
262,192,119372,6,0,B|321:161|318:95,1,120,4|8,0:0|0:0,0:0:0
166,62,120254,1,0,0:0:0
28,134,120696,2,0,B|1:192|28:250,1,120,8|8,0:0|0:0,0:0:0
138,360,121578,1,8,0:0:0
256,258,122019,1,8,0:0:0
374,360,122460,1,8,0:0:0
484,250,122901,6,0,B|511:192|484:134,1,120,8|8,0:0|0:0,0:0:0
348,50,123784,2,0,B|280:86,1,60,8|0,0:0|0:0,0:0:0
217,78,124225,2,0,B|164:50,1,60,8|0,0:0|0:0,0:0:0
96,88,124666,2,0,B|69:146|96:204,1,120,8|8,0:0|0:0,0:0:0
208,310,125549,1,8,0:0:0
256,162,125990,1,8,0:0:0
304,310,126431,6,0,B|370:313|400:254,1,120,12|8,0:0|0:0,0:0:0
402,98,127313,2,0,B|371:38|305:42,1,120,8|8,0:0|0:0,0:0:0
256,104,127975,1,0,0:0:0
208,42,128196,1,8,0:0:0
164,192,128637,2,0,B|212:256,1,60,8|0,0:0|0:0,0:0:0
348,192,129299,2,0,B|300:256,1,60,8|0,0:0|0:0,0:0:0
256,294,129740,1,0,0:0:0
188,332,129960,6,0,B|122:317|108:252,1,120,8|0,0:0|0:0,0:0:0
94,176,130622,2,0,B|94:46,1,120,8|0,0:0|0:0,0:0:0
168,28,131284,2,0,B|197:34|218:57,1,60,8|0,0:0|0:0,0:0:0
282,102,131725,6,0,B|311:96|332:73,2,60,4|0|4,0:0|0:0|0:0,0:0:0
256,176,132387,1,4,0:0:0
