osu file format v10

[General]
AudioFilename: holynightmagic.mp3
AudioLeadIn: 500
PreviewTime: 90254
Countdown: 0
SampleSet: Soft
StackLeniency: 0.7
Mode: 0
LetterboxInBreaks: 0

[Editor]
DistanceSpacing: 0.8
BeatDivisor: 4
GridSize: 2

[Metadata]
Title:holy night magic (Short Ver.)
TitleUnicode:holy night magic (Short Ver.)
Artist:fripSide
ArtistUnicode:fripSide
Creator:NewRulerNA
Version:Merry Christmas
Source:Merichri ~Juunenburi no White Christmas~
Tags:nao whirlpool visual novel eroge opening merry christmas xmas SakiK jih7491 Jing
BeatmapID:182262
BeatmapSetID:61055

[Difficulty]
HPDrainRate:8
CircleSize:4
OverallDifficulty:7
ApproachRate:8
SliderMultiplier:2
SliderTickRate:1

[Events]
//Background and Video events
0,0,"BG1.jpg"
Video,-925,"mc.avi"
//Break Periods
//Storyboard Layer 0 (Background)
//Storyboard Layer 1 (Fail)
//Storyboard Layer 2 (Pass)
//Storyboard Layer 3 (Foreground)
//Storyboard Sound Samples
//Background Colour Transformations
3,100,0,0,0

[TimingPoints]
2133,512.820512820513,4,2,1,60,1,0
32902,441.176470588235,4,2,2,70,1,0
49225,-100,4,2,2,60,0,0
54960,-100,4,2,2,45,0,0
55181,-100,4,2,2,60,0,0
58931,-100,4,2,2,45,0,0
59372,-100,4,2,2,60,0,0
60916,-100,4,2,2,70,0,0
91137,-100,4,2,2,70,0,1
119372,-100,4,2,2,70,0,0
132607,-100,4,2,2,10,0,0

[Colours]
Combo1 : 0,0,204
Combo2 : 255,32,32
Combo3 : 193,255,255

[HitObjects]
60,236,2133,2,0,B|59:297|98:331|146:347|199:315,1,200,2|0,0:0|0:0,0:0:0
452,236,3158,2,0,B|453:297|414:331|366:347|313:315,1,200,2|0,0:0|0:0,0:0:0
256,30,4184,2,0,B|256:236,2,200,2|0|2,0:0|0:0|0:0,0:0:0
256,30,5722,1,0,0:0:0
14,64,6235,6,0,B|59:168|173:156,1,200,2|0,0:0|0:0,0:0:0
498,64,7261,2,0,B|452:168|338:156,1,200,2|0,0:0|0:0,0:0:0
160,56,8286,2,0,B|256:10|352:56,1,200,2|0,0:0|0:0,0:0:0
352,328,9312,2,0,B|256:374|160:328,1,200,2|0,0:0|0:0,0:0:0
36,192,10338,6,0,B|71:91|171:56,1,200,2|0,0:0|0:0,0:0:0
476,192,11364,2,0,B|440:292|340:327,1,200,2|0,0:0|0:0,0:0:0
36,192,12389,2,0,B|71:292|171:327,1,200,2|0,0:0|0:0,0:0:0
476,192,13415,2,0,B|440:91|340:56,1,200,2|0,0:0|0:0,0:0:0
36,192,14440,5,2,0:0:0
256,268,14953,1,0,0:0:0
476,192,15466,1,2,0:0:0
256,116,15979,1,0,0:0:0
36,192,16491,2,0,B|36:292|36:292|128:336,1,200,2|0,0:0|0:0,0:0:0
220,374,17261,2,0,B|220:164,1,200,8|0,0:0|0:0,0:0:0
220,94,18030,1,0,0:0:0
142,66,18286,1,0,0:0:0
36,174,18543,6,0,B|128:242|220:174,1,200,2|0,0:0|0:0,0:0:0
476,210,19568,2,0,B|384:142|292:210,1,200,2|0,0:0|0:0,0:0:0
256,282,20338,2,0,B|256:382,1,100,0|2,0:0|0:0,0:0:0
76,284,21107,6,0,B|8:192|76:100,2,200,0|2|0,0:0|0:0|0:0,0:0:0
436,284,22645,2,0,B|504:192|436:100,1,200,2|0,0:0|0:0,0:0:0
256,40,23415,2,0,B|256:246,1,200,8|0,0:0|0:0,0:0:0
256,320,24184,1,0,0:0:0
178,334,24440,1,0,0:0:0
22,282,24697,6,0,B|70:260|118:282,1,100,2|0,0:0|0:0,0:0:0
184,192,25209,2,0,B|136:213|88:192,1,100,0|0,0:0|0:0,0:0:0
250,102,25722,2,0,B|368:102|368:102|408:176,1,200,2|0,0:0|0:0,0:0:0
310,364,26491,2,0,B|242:272|310:180,1,200,8|0,0:0|0:0,0:0:0
472,252,27261,2,0,B|424:273|376:252,1,100
406,174,27774,1,2,0:0:0
284,354,28030,6,0,B|240:323|236:270,1,100,0|0,0:0|0:0,0:0:0
276,88,28543,2,0,B|259:201|145:218,1,200,8|0,0:0|0:0,0:0:0
60,166,29312,2,0,B|23:130|10:81,1,100,0|2,0:0|0:0,0:0:0
324,24,30081,5,0,0:0:0
410,76,30338,2,0,B|447:112|460:161,1,100
428,328,30850,2,0,B|375:359|326:343|288:309|289:248,1,200,2|0,0:0|0:0,0:0:0
168,78,31620,2,0,B|220:46|269:62|307:96|306:158,1,200,2|0,0:0|0:0,0:0:0
212,192,32389,2,0,B|112:192,1,100
0,192,32902,1,4,0:2:0
218,60,33343,5,0,0:0:0
310,100,33563,2,0,B|378:190|310:284,1,200,2|0,0:0|0:0,0:0:0
218,324,34225,2,0,B|116:324,1,100
44,192,34666,5,4,0:0:0
118,60,34887,1,0,0:0:0
118,60,34997,1,0,0:0:0
118,60,35107,2,0,B|161:90|166:143,1,100,8|0,0:0|0:0,0:0:0
308,284,35549,2,0,B|264:253|260:200,1,100,0|0,0:0|0:0,0:0:0
392,144,35990,6,0,B|445:139|475:96,1,100,8|0,0:0|0:0,0:0:0
390,44,36431,1,8,0:0:0
304,95,36652,1,0,0:0:0
304,95,36762,1,0,0:0:0
304,95,36872,2,0,B|281:143|304:191,1,100,8|0,0:0|0:0,0:0:0
382,254,37313,1,8,0:0:0
206,220,37534,1,0,0:0:0
206,220,37644,1,0,0:0:0
206,220,37754,2,0,B|223:270|273:287,1,100,8|0,0:0|0:0,0:0:0
220,130,38196,6,0,B|128:62|36:130,2,200,8|0|0,0:0|0:0|0:0,0:0:0
290,202,39299,1,0,0:0:0
376,152,39519,2,0,B|399:200|376:248,1,100,8|0,0:0|0:0,0:0:0
204,248,39960,5,8,0:0:0
294,298,40181,1,0,0:0:0
294,298,40291,1,0,0:0:0
294,298,40401,2,0,B|315:249|290:202,1,100,8|0,0:0|0:0,0:0:0
48,80,40843,1,8,0:0:0
0,184,41063,1,0,0:0:0
0,184,41174,1,0,0:0:0
0,184,41284,2,0,B|48:207|96:184,1,100,8|0,0:0|0:0,0:0:0
174,40,41725,6,0,B|132:146|221:217,1,200,4|0,0:0|0:0,0:0:0
460,72,42607,2,0,B|412:49|364:72,1,100,8|0,0:0|0:0,0:0:0
306,130,43049,1,8,0:0:0
298,210,43269,2,0,B|296:271|335:305|383:321|436:290,1,200
474,208,43931,5,8,0:0:0
386,217,44151,2,0,B|325:304|219:313,1,200,8|0,0:0|0:0,0:0:0
126,274,44813,1,8,0:0:0
126,274,44924,1,0,0:0:0
126,274,45034,1,0,0:0:0
174,80,45254,6,0,B|284:80|284:80|340:154,1,200,8|0,0:0|0:0,0:0:0
248,366,45916,2,0,B|158:280|248:194,1,200,8|0,0:0|0:0,0:0:0
320,240,46578,1,8,0:0:0
320,322,46798,1,0,0:0:0
158,384,47019,6,0,B|104:379|74:336,1,100,12|0,0:0|0:0,0:0:0
36,126,47460,1,8,0:0:0
232,42,47681,2,0,B|255:90|232:138,1,100,4|0,0:0|0:0,0:0:0
144,304,48123,1,10,0:0:0
122,279,48233,1,0,0:0:0
106,250,48343,1,2,0:0:0
100,218,48453,1,0,0:0:0
106,185,48564,1,2,0:0:0
123,156,48674,1,0,0:0:0
145,131,48784,1,2,0:0:0
400,220,49225,6,0,B|308:288|216:220,1,200,8|0,0:0|0:0,0:0:0
145,130,49887,2,0,B|122:82|145:34,1,100,0|8,0:0|0:0,0:0:0
400,124,50328,2,0,B|423:172|400:220,1,100
336,283,50769,5,0,0:0:0
313,196,50989,1,8,0:0:0
424,306,51210,2,0,B|352:395|246:353,1,200
71,211,51872,2,0,B|143:300|249:258,1,200,8|10,0:0|0:0,0:0:0
432,72,52754,6,0,B|330:72,1,100,8|0,0:0|0:0,0:0:0
199,72,53196,2,0,B|179:176|248:257,1,200,8|8,0:0|0:0,0:0:0
446,237,53857,1,0,0:0:0
332,72,54078,5,8,0:0:0
309,211,54299,1,0,0:0:0
379,204,54520,1,8,0:0:0
339,147,54740,2,0,B|291:124|243:147,1,100,8|0,0:0|0:0,0:0:0
24,240,55181,6,0,B|72:263|120:240,1,100,0|8,0:0|0:0,0:0:0
208,28,55622,2,0,B|108:28|108:28|72:121,1,200,8|0,0:0|0:0,0:0:0
24,240,56284,2,0,B|67:270|71:323,1,100,8|0,0:0|0:0,0:0:0
168,156,56725,2,0,B|125:186|121:239,1,100,8|0,0:0|0:0,0:0:0
256,232,57166,1,0,0:0:0
410,60,57387,6,0,B|367:15|316:18|270:41|255:101,1,200,8|0,0:0|0:0,0:0:0
310,174,58049,2,0,B|412:174,1,100,8|0,0:0|0:0,0:0:0
256,232,58490,1,8,0:0:0
202,290,58710,2,0,B|100:290,1,100,8|0,0:0|0:0,0:0:0
60,16,59372,6,0,B|160:16|160:16|196:109,1,200,8|8,0:0|0:0,0:0:0
152,188,60034,2,0,B|111:222|59:212,1,100,0|8,0:0|0:0,0:0:0
12,136,60475,1,0,0:0:0
100,112,60696,1,0,0:0:0
320,204,60916,6,0,B|343:252|320:300,1,100,4|0,0:0|0:0,0:0:0
235,351,61357,1,0,0:0:0
235,250,61577,1,0,0:0:0
405,57,61799,2,0,B|428:105|405:153,1,100,4|0,0:0|0:0,0:0:0
320,204,62240,1,0,0:0:0
320,103,62460,1,0,0:0:0
467,289,62681,2,0,B|419:312|371:289,1,100,0|4,0:0|0:0,0:0:0
24,84,63343,6,0,B|116:16|208:84,1,200,8|8,0:0|0:0,0:0:0
192,209,64004,1,0,0:0:0
136,138,64225,1,8,0:0:0
321,104,64446,2,0,B|374:108|404:152,1,100,0|8,0:0|0:0,0:0:0
417,242,64887,1,0,0:0:0
236,336,65107,1,8,0:0:0
128,312,65328,6,0,B|23:266|36:152,1,200,8|0,0:0|0:0,0:0:0
85,64,65990,1,8,0:0:0
172,114,66211,1,0,0:0:0
122,200,66431,1,10,0:0:0
348,32,66872,6,0,B|401:36|431:79,1,100,8|0,0:0|0:0,0:0:0
447,210,67313,1,8,0:0:0
250,210,67534,1,0,0:0:0
348,134,67754,1,8,0:0:0
348,286,67975,2,0,B|250:316|152:286,1,200,8|0,0:0|0:0,0:0:0
30,75,68637,5,8,0:0:0
107,117,68857,2,0,B|150:147|155:200,1,100,8|0,0:0|0:0,0:0:0
84,252,69299,1,0,0:0:0
7,210,69519,1,8,0:0:0
208,70,69740,6,0,B|277:150|257:255,1,200,10|0,0:0|0:0,0:0:0
180,302,70401,1,8,0:0:0
340,210,70622,2,0,B|392:200|432:234,1,100
478,314,71063,1,8,0:0:0
410,374,71284,1,0,0:0:0
226,185,71504,6,0,B|234:291|322:352,1,200,10|0,0:0|0:0,0:0:0
340,210,72166,2,0,B|340:108,1,100,8|0,0:0|0:0,0:0:0
146,196,72607,2,0,B|146:298,1,100,8|0,0:0|0:0,0:0:0
222,372,73049,1,8,0:0:0
454,368,73269,6,0,B|508:338|518:288|508:238|454:208,1,200,4|0,0:0|0:0,0:0:0
420,288,73931,1,8,0:0:0
404,120,74151,2,0,B|290:107|244:212,1,200,4|0,0:0|0:0,0:0:0
312,296,74813,1,8,0:0:0
152,126,75034,2,0,B|97:212|101:315,1,200,4|0,0:0|0:0,0:0:0
210,364,75696,6,0,B|210:262,1,100,8|0,0:0|0:0,0:0:0
328,124,76137,1,8,0:0:0
328,124,76247,1,0,0:0:0
328,124,76357,1,0,0:0:0
328,124,76468,1,0,0:0:0
328,124,76578,2,0,B|351:172|328:220,1,100,8|0,0:0|0:0,0:0:0
140,60,77019,6,0,B|188:37|236:60,1,100,4|0,0:0|0:0,0:0:0
104,164,77460,2,0,B|56:187|8:164,1,100,8|0,0:0|0:0,0:0:0
124,270,77901,2,0,B|220:224|316:270,1,200,8|8,0:0|0:0,0:0:0
336,40,78784,5,8,0:0:0
388,114,79004,2,0,B|292:160|196:114,1,200,8|0,0:0|0:0,0:0:0
136,20,79666,1,8,0:0:0
136,20,79776,1,0,0:0:0
136,20,79887,2,0,B|92:50|88:103,1,100,0|10,0:0|0:0,0:0:0
92,280,80328,5,0,0:0:0
92,280,80438,1,0,0:0:0
92,280,80549,2,0,B|135:249|140:196,1,100,4|0,0:0|0:0,0:0:0
204,288,80990,2,0,B|234:331|287:336,1,100,8|0,0:0|0:0,0:0:0
458,224,81431,2,0,B|428:267|375:272,1,100,8|0,0:0|0:0,0:0:0
256,180,81872,2,0,B|256:80,1,100,8|0,0:0|0:0,0:0:0
340,32,82313,5,8,0:0:0
376,169,82534,1,0,0:0:0
136,79,82755,1,8,0:0:0
172,216,82975,2,0,B|59:236|6:135,1,200,8|0,0:0|0:0,0:0:0
52,64,83637,1,8,0:0:0
256,144,83857,5,0,0:0:0
256,144,83968,1,0,0:0:0
256,144,84078,2,0,B|302:240|256:336,1,200,4|0,0:0|0:0,0:0:0
172,216,84740,2,0,B|172:114,1,100,4|0,0:0|0:0,0:0:0
256,60,85181,1,0,0:0:0
432,136,85401,1,0,0:0:0
434,326,85622,2,0,B|342:394|250:326,1,200,4|0,0:0|0:0,0:0:0
211,244,86284,1,0,0:0:0
374,100,86504,5,0,0:0:0
398,195,86725,2,0,B|317:264|212:244,1,200,4|0,0:0|0:0,0:0:0
25,141,87387,1,4,0:0:0
148,136,87607,1,0,0:0:0
88,250,87828,1,0,0:0:0
88,250,87938,1,0,0:0:0
88,250,88049,2,0,B|148:337|254:346,1,200,4|0,0:0|0:0,0:0:0
384,336,88710,1,4,0:0:0
254,110,88931,1,4,0:0:0
448,223,89151,1,6,0:0:0
16,224,90475,6,0,B|0:168,2,50,0|0|8,0:0|0:0|0:0,0:0:0
64,304,90916,1,0,0:0:0
116,224,91137,1,6,0:0:0
116,124,91357,1,0,0:0:0
116,124,91468,1,0,0:0:0
116,124,91578,2,0,B|82:82|28:83,1,100,8|0,0:0|0:0,0:0:0
202,174,92019,1,8,0:0:0
204,272,92240,2,0,B|237:313|291:312,1,100,8|0,0:0|0:0,0:0:0
476,262,92681,2,0,B|460:202|415:179|364:176|321:220,1,200,8|0,0:0|0:0,0:0:0
388,376,93343,6,0,B|411:328|388:280,1,100,8|0,0:0|0:0,0:0:0
256,172,93784,2,0,B|233:220|256:268,1,100,8|0,0:0|0:0,0:0:0
92,314,94225,2,0,B|115:266|92:218,1,100,8|0,0:0|0:0,0:0:0
12,134,94666,2,0,B|57:238|171:226,1,200,8|8,0:0|0:0,0:0:0
256,172,95328,1,8,0:0:0
168,126,95549,5,8,0:0:0
168,126,95659,1,0,0:0:0
168,126,95769,1,0,0:0:0
260,272,95990,2,0,B|308:295|356:272,1,100,8|0,0:0|0:0,0:0:0
430,47,96431,2,0,B|386:77|382:130,1,100,8|0,0:0|0:0,0:0:0
410,208,96873,1,8,0:0:0
182,28,97313,6,0,B|152:126|182:224,1,200,8|0,0:0|0:0,0:0:0
244,304,97975,2,0,B|286:348|337:345|383:322|398:262,1,200,8|0,0:0|0:0,0:0:0
348,176,98637,2,0,B|238:176,1,100,8|0,0:0|0:0,0:0:0
148,176,99078,1,8,0:0:0
48,336,99299,6,0,B|101:331|131:288,1,100,8|0,0:0|0:0,0:0:0
232,82,99740,2,0,B|328:36|424:82,1,200,8|0,0:0|0:0,0:0:0
502,233,100401,1,8,0:0:0
480,310,100622,2,0,B|439:344|387:334,1,100,8|2,0:0|0:0,0:0:0
244,278,101063,5,8,0:0:0
244,278,101284,2,0,B|284:243|336:253,1,100,8|0,0:0|0:0,0:0:0
164,348,101725,2,0,B|96:304|96:304|96:168,1,200,8|0,0:0|0:0,0:0:0
269,90,102387,2,0,B|337:134|337:134|337:254,1,200,8|0,0:0|0:0,0:0:0
220,172,103049,1,8,0:0:0
344,30,103269,1,0,0:0:0
496,161,103490,6,0,B|450:265|337:253,1,200,6|0,0:0|0:0,0:0:0
76,236,104151,2,0,B|121:340|235:328,1,200,6|0,0:0|0:0,0:0:0
252,248,104813,1,0,0:0:0
214,84,105034,6,0,B|154:99|131:144|128:195|172:238,1,200,8|0,0:0|0:0,0:0:0
224,170,105696,1,8,0:0:0
108,52,105916,2,0,P|46:52|46:52|20:94,1,100,0|8,0:0|0:0,0:0:0
22,172,106357,2,0,B|26:225|69:255,1,100,0|8,0:0|0:0,0:0:0
244,256,106799,6,0,B|132:256,1,100,8|0,0:0|0:0,0:0:0
102,328,107240,1,0,0:0:0
324,352,107460,2,0,B|347:304|324:256,1,100,8|0,0:0|0:0,0:0:0
284,188,107901,1,0,0:0:0
164,68,108122,5,0,0:0:0
164,68,108343,2,0,B|168:121|212:152,1,100,8|0,0:0|0:0,0:0:0
460,64,108784,2,0,B|364:18|268:64,1,200,8|0,0:0|0:0,0:0:0
318,140,109446,2,0,B|341:188|318:236,1,100,8|0,0:0|0:0,0:0:0
272,302,109887,1,8,0:0:0
192,296,110107,1,0,0:0:0
32,343,110328,6,0,B|15:283|44:241|86:213|146:230,1,200,8|0,0:0|0:0,0:0:0
112,308,110990,1,10,0:0:0
402,68,111431,5,8,0:0:0
465,131,111651,1,0,0:0:0
465,131,111762,1,0,0:0:0
465,131,111872,1,8,0:0:0
356,242,112093,2,0,B|305:135|402:68,1,200,8|0,0:0|0:0,0:0:0
438,216,112754,1,8,0:0:0
498,282,112975,1,0,0:0:0
411,301,113196,2,0,B|357:305|327:349,1,100,8|0,0:0|0:0,0:0:0
212,348,113637,6,0,B|161:330|144:280,1,100
230,92,114078,2,0,B|320:178|230:264,1,200,8|0,0:0|0:0,0:0:0
144,180,114740,1,8,0:0:0
144,180,114850,1,0,0:0:0
144,180,114960,1,2,0:0:0
318,44,115401,5,8,0:0:0
318,44,115622,1,0,0:0:0
402,80,115843,2,0,B|425:128|402:176,1,100,8|0,0:0|0:0,0:0:0
370,208,116174,2,0,B|347:256|370:304,1,100,8|0,0:0|0:0,0:0:0
402,336,116504,2,0,B|310:268|218:336,1,200,8|0,0:0|0:0,0:0:0
135,372,117166,1,8,0:0:0
76,305,117387,1,0,0:0:0
208,246,117607,1,4,0:0:0
292,26,118049,5,8,0:0:0
208,76,118269,1,4,0:0:0
208,76,118379,1,0,0:0:0
208,76,118490,1,0,0:0:0
114,42,118710,2,0,B|79:82|89:134,1,100,0|8,0:0|0:0,0:0:0
160,288,119151,2,0,B|190:244|243:240,1,100,0|4,0:0|0:0,0:0:0
333,286,119593,5,0,0:0:0
333,286,119703,1,0,0:0:0
333,286,119813,1,8,0:0:0
247,338,120034,1,0,0:0:0
160,288,120255,1,0,0:0:0
156,188,120475,1,0,0:0:0
242,136,120696,6,0,B|276:95|266:43,1,100,8|0,0:0|0:0,0:0:0
272,246,121137,2,0,B|237:286|247:338,1,100,8|0,0:0|0:0,0:0:0
364,172,121578,2,0,B|398:131|388:79,1,100,8|0,0:0|0:0,0:0:0
393,282,122019,2,0,B|358:322|368:374,1,100,8|0,0:0|0:0,0:0:0
460,182,122460,6,0,B|353:140|282:229,1,200,8|8,0:0|0:0,0:0:0
214,304,123122,1,0,0:0:0
214,304,123232,1,0,0:0:0
214,304,123343,2,0,B|166:327|118:304,1,100,8|0,0:0|0:0,0:0:0
44,236,123784,1,8,0:0:0
452,32,124225,6,0,B|475:80|452:128,1,100,8|0,0:0|0:0,0:0:0
362,172,124666,1,8,0:0:0
280,114,124887,1,0,0:0:0
280,228,125107,2,0,B|275:281|232:312,1,100,8|0,0:0|0:0,0:0:0
79,159,125548,2,0,B|109:115|162:110,1,100,8|0,0:0|0:0,0:0:0
364,66,125990,2,0,B|333:109|280:114,1,100,8|0,0:0|0:0,0:0:0
156,36,126431,5,12,0:0:0
244,34,126651,1,0,0:0:0
244,34,126762,1,0,0:0:0
244,34,126872,1,8,0:0:0
192,116,127093,1,0,0:0:0
56,150,127313,2,0,B|86:193|140:198,1,100,8|0,0:0|0:0,0:0:0
298,188,127754,1,8,0:0:0
387,236,127975,1,0,0:0:0
301,288,128196,2,0,B|253:311|205:288,1,100,0|0,0:0|0:0,0:0:0
384,136,128637,5,8,0:0:0
384,136,128857,2,0,B|437:131|467:88,1,100,8|0,0:0|0:0,0:0:0
298,4,129299,2,0,B|230:96|298:188,1,200,8|0,0:0|0:0,0:0:0
484,316,129960,6,0,B|412:226|306:268,1,200,8|0,0:0|0:0,0:0:0
176,365,130622,1,8,0:0:0
276,368,130843,1,8,0:0:0
276,368,130953,1,0,0:0:0
276,368,131063,1,0,0:0:0
146,266,131284,2,0,B|113:226|122:174,1,100,8|0,0:0|0:0,0:0:0
325,43,131725,6,0,B|358:83|349:135,1,100,4|0,0:0|0:0,0:0:0
300,206,132166,1,4,0:0:0
146,266,132387,2,0,B|163:214|214:197,1,100,4|0,0:0|0:0,0:0:0
