osu file format v9

[General]
AudioFilename: future gazer.mp3
AudioLeadIn: 2000
PreviewTime: 75063
Countdown: 0
SampleSet: Soft
StackLeniency: 0.7
Mode: 0
LetterboxInBreaks: 0

[Editor]
DistanceSpacing: 1.2
BeatDivisor: 4
GridSize: 4

[Metadata]
Title:future gazer (TV Size)
Artist:fripSide
Creator:alacat
Version:Insane
Source:To Aru Kagaku no Railgun
Tags:opening nanjou yoshino yaginuma satoshi kusano Kosiga

[Difficulty]
HPDrainRate:7
CircleSize:4
OverallDifficulty:7
ApproachRate:8
SliderMultiplier:1.8
SliderTickRate:1

[Events]
//Background and Video events
Video,0,"To Aru Kagaku no Railgun OP.flv"
0,0,"bg.jpg"
//Break Periods
//Storyboard Layer 0 (Background)
//Storyboard Layer 1 (Fail)
//Storyboard Layer 2 (Pass)
//Storyboard Layer 3 (Foreground)
//Storyboard Sound Samples
//Background Colour Transformations
3,100,163,162,255

[TimingPoints]
486,434.782608695652,4,2,1,30,1,0
594,-100,4,2,1,40,0,0
920,-100,4,2,1,60,0,0
1029,-100,4,2,1,40,0,0
1355,-100,4,2,1,60,0,0
1464,-100,4,2,1,40,0,0
1790,-100,4,2,1,60,0,0
1899,-100,4,2,1,40,0,0
2225,-100,4,2,1,60,0,0
2333,-100,4,2,1,40,0,0
2659,-100,4,2,1,60,0,0
2768,-100,4,2,1,40,0,0
3094,-100,4,2,1,60,0,0
3203,-100,4,2,1,40,0,0
3529,-100,4,2,1,60,0,0
4072,-100,4,2,1,40,0,0
4399,-100,4,2,1,60,0,0
4507,-100,4,2,1,40,0,0
4833,-100,4,2,1,60,0,0
4942,-100,4,2,1,40,0,0
5268,-100,4,2,1,60,0,0
5377,-100,4,2,1,40,0,0
5703,-100,4,2,1,60,0,0
5812,-100,4,2,1,40,0,0
6138,-100,4,2,1,60,0,0
6246,-100,4,2,1,40,0,0
6572,-100,4,2,1,60,0,0
6681,-100,4,2,1,40,0,0
7007,-100,4,2,1,60,0,0
7116,-100,4,2,1,40,0,0
7551,-100,4,2,1,40,0,0
7877,-100,4,2,1,60,0,0
7985,-100,4,2,1,40,0,0
8312,-100,4,2,1,60,0,0
8420,-100,4,2,1,40,0,0
8746,-100,4,2,1,60,0,0
8855,-100,4,2,1,40,0,0
9181,-100,4,2,1,60,0,0
9290,-100,4,2,1,40,0,0
9616,-100,4,2,1,60,0,0
9725,-100,4,2,1,40,0,0
10051,-100,4,2,1,60,0,0
10159,-100,4,2,1,40,0,0
10485,-100,4,2,1,60,0,0
10920,-100,4,2,1,40,0,0
11355,-100,4,2,1,60,0,0
11464,-100,4,2,1,40,0,0
12225,-100,4,2,1,60,0,0
12333,-100,4,2,1,40,0,0
12985,-100,4,2,1,50,0,0
13312,-100,4,2,1,60,0,0
13529,-100,4,1,1,50,0,0
14399,-100,4,2,1,70,0,1
14507,-100,4,2,1,70,0,0
14833,-100,4,2,1,50,0,0
14942,-100,4,2,1,70,0,0
15268,-100,4,2,1,50,0,0
15377,-100,4,2,1,70,0,0
15703,-100,4,2,1,50,0,0
15812,-100,4,2,1,70,0,0
16138,-100,4,2,1,60,0,0
16246,-100,4,2,1,70,0,0
17007,-100,4,2,1,50,0,0
17116,-100,4,2,1,70,0,0
17442,-100,4,2,1,50,0,0
17551,-100,4,2,1,70,0,0
17877,-100,4,2,1,60,0,0
17985,-100,4,2,1,70,0,0
18312,-100,4,2,1,50,0,0
18420,-100,4,2,1,70,0,0
18746,-100,4,2,1,50,0,0
18855,-100,4,2,1,70,0,0
19181,-100,4,2,1,50,0,0
19290,-100,4,2,1,70,0,0
19616,-100,4,2,1,60,0,0
19725,-100,4,2,1,70,0,0
20051,-100,4,2,1,50,0,0
20159,-100,4,2,1,70,0,0
20485,-100,4,2,1,50,0,0
20703,-100,4,2,1,60,0,0
20920,-100,4,2,1,70,0,0
21138,-100,4,2,1,60,0,0
21246,-100,4,2,1,70,0,0
21355,-100,4,2,1,80,0,0
21464,-100,4,2,2,70,0,0
22225,-100,4,2,1,60,0,0
22333,-100,4,2,2,70,0,0
23094,-100,4,2,1,80,0,0
23203,-100,4,2,2,70,0,0
23964,-100,4,2,1,60,0,0
24072,-100,4,2,2,70,0,0
24833,-100,4,2,2,80,0,0
24942,-100,4,2,2,60,0,0
25703,-100,4,2,2,80,0,0
25812,-100,4,2,2,60,0,0
26572,-100,4,2,2,80,0,0
26681,-100,4,2,2,60,0,0
27442,-100,4,2,2,80,0,0
27551,-100,4,2,2,60,0,0
28312,-100,4,2,1,80,0,0
29181,-100,4,2,1,60,0,0
29290,-100,4,2,2,80,0,0
30377,-100,4,2,2,70,0,0
30485,-100,4,2,2,80,0,0
30703,-100,4,2,2,70,0,0
30920,-100,4,2,1,60,0,0
31029,-100,4,2,1,80,0,0
31138,-100,4,2,1,60,0,0
31246,-100,4,2,1,80,0,0
31355,-100,4,2,2,60,0,0
31464,-100,4,2,1,80,0,0
31790,-100,4,2,1,30,0,0
31899,-100,4,2,1,50,0,0
33312,-100,4,2,1,30,0,0
33638,-100,4,2,1,50,0,0
35268,-100,4,2,1,30,0,0
35377,-100,4,2,1,50,0,0
36790,-100,4,2,1,30,0,0
37116,-100,4,2,1,50,0,0
38746,-100,4,2,1,60,0,0
40485,-100,4,2,1,40,0,0
40594,-100,4,2,1,60,0,0
42225,-100,4,2,1,40,0,0
42333,-100,4,2,1,60,0,0
43094,-100,4,2,1,40,0,0
43203,-100,4,2,1,60,0,0
43964,-100,4,2,1,40,0,0
44072,-100,4,2,1,60,0,0
45703,-100,4,2,1,70,0,0
46138,-100,4,2,2,70,0,0
46246,-100,4,2,1,70,0,0
47007,-100,4,2,2,70,0,0
47116,-100,4,2,1,70,0,0
47877,-100,4,2,2,70,0,0
47985,-100,4,2,1,70,0,0
48746,-100,4,2,2,70,0,0
48855,-100,4,2,1,70,0,0
49616,-100,4,2,2,70,0,0
49725,-100,4,2,1,70,0,0
50485,-100,4,2,2,70,0,0
50594,-100,4,2,1,70,0,0
51355,-100,4,2,2,70,0,0
51464,-100,4,2,1,70,0,0
52225,-100,4,2,1,70,0,0
52333,-100,4,2,1,70,0,0
53094,-100,4,2,2,70,0,0
53203,-100,4,2,1,70,0,0
53964,-100,4,2,2,70,0,0
54072,-100,4,2,1,70,0,0
54833,-100,4,2,2,70,0,0
54942,-100,4,2,1,70,0,0
55703,-100,4,2,2,70,0,0
55812,-100,4,2,1,70,0,0
56572,-100,4,2,2,70,0,0
56681,-100,4,2,1,70,0,0
57007,-100,4,2,1,50,0,0
57116,-100,4,2,1,70,0,0
57442,-100,4,2,2,70,0,0
57551,-100,4,2,1,70,0,0
57877,-100,4,2,1,50,0,0
58312,-100,4,2,2,70,0,0
58420,-100,4,2,1,70,0,0
59181,-100,4,2,2,70,0,0
59290,-100,4,2,1,70,0,0
60485,-100,4,2,1,40,0,0
60703,-100,4,2,1,50,0,0
60920,-100,4,2,1,60,0,0
61138,-100,4,2,1,70,0,0
61355,-100,4,2,1,80,0,1
61464,-100,4,2,2,80,0,0
62225,-100,4,2,1,60,0,0
62333,-100,4,2,2,80,0,0
63094,-100,4,2,1,60,0,0
63203,-100,4,2,2,80,0,0
63964,-100,4,2,1,60,0,0
64072,-100,4,2,2,80,0,0
64833,-100,4,2,1,80,0,0
64942,-100,4,2,2,80,0,0
65703,-100,4,2,1,60,0,0
65812,-100,4,2,2,80,0,0
66572,-100,4,2,1,60,0,0
66681,-100,4,2,2,80,0,0
67442,-100,4,2,1,60,0,0
67551,-100,4,2,2,80,0,0
68312,-100,4,2,1,80,0,0
68420,-100,4,2,2,80,0,0
69181,-100,4,2,1,60,0,0
69290,-100,4,2,2,80,0,0
70051,-100,4,2,1,80,0,0
70159,-100,4,2,2,80,0,0
70920,-100,4,2,1,60,0,0
71029,-100,4,2,2,80,0,0
72007,-100,4,2,2,60,0,0
72659,-100,4,2,2,80,0,0
72877,-100,4,2,2,60,0,0
73529,-100,4,2,2,80,0,0
74399,-100,4,2,2,50,0,0
74616,-100,4,2,2,60,0,0
74833,-100,4,2,2,70,0,0
75051,-100,4,2,2,80,0,0
75268,-83.3333333333333,4,2,1,90,0,1
75377,-83.3333333333333,4,2,2,90,0,1
76138,-83.3333333333333,4,2,1,70,0,1
76246,-83.3333333333333,4,2,2,90,0,1
77007,-83.3333333333333,4,2,1,70,0,1
77116,-83.3333333333333,4,2,2,90,0,1
77877,-83.3333333333333,4,2,1,70,0,1
77985,-83.3333333333333,4,2,2,90,0,1
78746,-83.3333333333333,4,2,1,90,0,1
78855,-83.3333333333333,4,2,2,90,0,1
79616,-83.3333333333333,4,2,1,70,0,1
79725,-83.3333333333333,4,2,2,90,0,1
80485,-83.3333333333333,4,2,1,70,0,1
80594,-83.3333333333333,4,2,2,90,0,1
81355,-83.3333333333333,4,2,1,70,0,1
81464,-83.3333333333333,4,2,2,90,0,1
82225,-83.3333333333333,4,2,1,90,0,1
82333,-83.3333333333333,4,2,2,90,0,1
83094,-83.3333333333333,4,2,1,70,0,1
83203,-83.3333333333333,4,2,2,90,0,1
83964,-83.3333333333333,4,2,1,90,0,1
84072,-83.3333333333333,4,2,2,90,0,1
84833,-83.3333333333333,4,2,1,70,0,1
84942,-83.3333333333333,4,2,2,90,0,1
85268,-100,4,2,2,80,0,1
85485,-100,4,2,1,60,0,1
85703,-100,4,2,2,80,0,0
85920,-100,4,2,2,60,0,0
86572,-100,4,2,2,80,0,0
86790,-100,4,2,2,60,0,0
87442,-100,4,2,2,80,0,0
87659,-100,4,2,2,60,0,0
88312,-100,4,2,2,80,0,0
88420,-100,4,2,2,60,0,0
89181,-100,4,2,1,80,0,1
90051,-100,4,1,2,40,0,1
90485,-100,4,2,1,50,0,1
90920,-100,4,2,1,80,0,0
91355,-100,4,2,1,70,0,0
91790,-100,4,2,1,60,0,0
92225,-100,4,2,1,50,0,0
92659,-100,4,2,1,40,0,0
93094,-100,4,2,1,30,0,0
93529,-100,4,2,1,20,0,0
93964,-100,4,2,1,15,0,0
94399,-100,4,2,1,10,0,0

[Colours]
Combo1 : 255,198,140
Combo2 : 155,155,255
Combo3 : 170,255,170
Combo4 : 255,147,147

[HitObjects]
232,320,486,2,0,B|192:296|144:296,1,90,14|0
40,316,920,1,10
68,212,1138,2,0,B|52:168,1,45,2|0
88,128,1355,1,8
212,52,1572,1,2
340,120,1790,2,0,B|348:168|372:208,1,90,10|0
412,224,2116,1,0
456,232,2225,2,0,B|464:280|488:320,1,90,10|0
216,188,2659,5,10
88,128,2877,2,0,B|48:112,1,45,2|0
136,108,3094,2,0,B|160:68|208:60,1,90,10|2
144,288,3529,1,10
456,232,3964,6,0,B|432:272|384:280,1,90,10|0
340,180,4399,1,10
268,260,4616,1,2
244,248,4725,1,0
228,228,4833,1,10
220,204,4942,1,0
220,180,5051,1,2
292,68,5268,2,0,B|336:44|380:48,1,90,10|0
152,124,5703,6,0,B|108:148|64:144,1,90,10|0
32,132,6029,1,0
32,132,6138,1,10
264,76,6355,1,0
368,164,6572,2,0,B|404:192,1,45,10|0
284,332,6899,2,0,B|300:376,1,45,2|8
200,228,7225,1,8
360,280,7442,6,0,B|300:200|200:228,1,180,10|8
56,184,8094,2,0,B|24:152,1,45,2|0
80,224,8312,2,0,B|64:272|80:316,1,90,10|0
200,228,8746,2,0,B|216:180|200:136,1,90,10|0
96,56,9181,6,0,B|128:24|180:24,1,90,10|0
288,64,9616,2,0,B|340:116|416:104,1,135,10|0
436,72,10051,2,0,B|448:28,1,45,10|0
436,140,10268,2,0,B|448:184,1,45,2|0
452,288,10485,2,0,B|400:285|361:313,1,90,10|8
256,364,10920,5,8
464,40,11355,5,2
464,40,11572,2,0,B|432:72|392:96,1,90,8|8
48,344,12225,5,2
48,344,12442,2,0,B|80:312|120:288,1,90,8|8
292,320,12985,1,8
400,180,13312,1,8
320,72,13529,5,0
320,72,13746,1,0
192,112,13964,1,0
192,112,14181,1,0
124,228,14399,6,0,B|48:216|36:136,1,135,4|0
48,104,14833,1,10
232,200,15051,1,0
296,288,15268,2,0,B|344:288|376:252,1,90,8|2
428,160,15703,1,10
320,172,15920,5,2
320,172,16029,1,0
320,172,16138,2,0,B|240:188|204:124,2,135,4|2|0
288,76,17007,1,8
136,184,17225,1,2
352,112,17442,1,10
76,148,17659,1,2
52,164,17768,1,0
40,188,17877,6,0,B|48:236|96:256,1,90,4|0
264,156,18312,2,0,B|256:108|208:88,1,90,8|0
172,256,18746,2,0,B|180:280|200:292,1,45,10|0
336,208,19072,2,0,B|358:219|381:213,1,45,2|8
500,292,19399,1,2
500,292,19616,2,0,B|444:332|372:320,1,135,4|0
336,308,20051,1,8
244,364,20268,1,0
152,304,20485,5,8
64,200,20703,1,2
120,48,20920,1,2
208,112,21138,5,8
208,112,21246,1,0
208,112,21355,2,0,B|252:172|228:244,1,135,12|0
196,256,21790,1,10
224,16,22007,1,0
304,76,22225,2,0,B|372:96|440:76,1,135,8|0
468,52,22659,1,10
224,16,22877,1,0
144,88,23094,6,0,B|120:132|68:144,1,90,12|0
32,128,23420,1,0
32,128,23529,1,10
52,40,23746,1,0
244,156,23964,2,0,B|264:200|308:216,1,90,8|0
412,188,24399,1,8
468,96,24616,1,0
412,188,24833,5,4
444,272,25051,2,0,B|460:312|504:344,1,90,0|8
380,100,25485,1,0
280,256,25703,6,0,B|308:224|328:180,1,90,4|0
232,328,26138,1,8
328,180,26355,1,0
256,24,26572,6,0,B|292:56|304:104,1,90,4|0
364,256,27007,1,8
160,152,27225,1,0
112,224,27442,6,0,B|152:248|196:252,1,90,4|0
376,112,27877,2,0,B|336:88|292:84,2,90,8|0|4
460,180,28529,1,0
460,180,28638,1,0
460,180,28746,2,0,B|432:224|432:264,1,90,8|0
384,360,29181,5,8
360,348,29290,1,0
344,328,29399,1,0
336,304,29507,1,0
336,280,29616,1,8
376,112,29833,1,0
304,188,30051,6,0,B|264:212|216:200,1,90,4|0
172,232,30377,2,0,B|124:232|100:188,1,90,12|0
108,132,30703,1,12
196,40,30920,1,8
228,40,31029,1,0
260,40,31138,1,8
292,40,31246,1,0
328,40,31355,2,0,B|352:40,7,22.5,8|0|0|0|0|0|0|0
376,64,31790,6,0,B|412:88|424:140,1,90,12|0
400,224,32225,1,2
320,268,32442,1,0
232,252,32659,2,0,B|192:284|192:332,2,90,0|0|2
292,184,33312,1,8
180,68,33529,6,0,B|136:88|116:132,1,90,8|0
148,216,33964,1,2
232,252,34181,1,0
320,232,34399,1,0
320,232,34507,2,0,B|348:188|392:176,1,90
424,144,34833,2,0,B|440:56,2,90,2|0|12
288,316,35703,6,0,B|248:340|200:340,1,90,2|0
116,312,36138,1,0
56,244,36355,1,0
72,156,36572,1,2
140,96,36790,1,8
284,132,37007,6,0,B|292:180|276:220|228:244,2,135,10|2|0
232,60,37877,1,8
352,304,38312,1,10
472,60,38746,6,0,B|448:100|400:116,1,90,12|0
316,84,39181,2,0,B|272:96|248:140,1,90,8|0
244,228,39616,1,8
244,228,39725,1,0
120,348,39942,5,0
120,348,40051,2,0,B|164:336|188:292,1,90,8|0
108,148,40485,2,0,B|120:192|164:216,1,90,12|0
300,296,40920,2,0,B|288:252|244:228,1,90,8|0
104,272,41355,2,0,B|12:232|16:128,1,180,8|8
76,60,42007,5,8
164,80,42225,1,12
300,296,42659,1,8
448,80,43094,1,12
376,132,43312,1,0
296,88,43529,1,8
232,152,43746,1,0
276,232,43964,6,0,B|340:264|360:332,1,135,12|0
332,376,44399,1,8
176,228,44616,1,0
136,148,44833,1,0
136,148,44942,1,0
136,148,45051,1,0
264,316,45268,1,0
368,264,45485,5,8
368,264,45594,1,0
368,264,45703,2,0,B|406:234|396:180,1,90,12|0
384,76,46138,2,0,B|332:124|256:112,1,135,8|0
208,92,46572,2,0,B|164:80|120:100,1,90,8|0
36,164,47007,1,8
260,112,47225,1,0
264,304,47442,6,0,B|240:268|240:216,1,90,8|0
276,192,47768,1,0
276,192,47877,1,8
352,344,48094,1,0
160,156,48312,1,8
160,156,48420,1,0
160,156,48529,1,0
112,360,48746,6,0,B|160:364|200:336,1,90,8|0
344,248,49181,1,8
216,180,49399,1,0
356,204,49616,1,8
216,228,49833,1,0
404,312,50051,5,8
292,368,50268,1,0
168,368,50485,1,8
56,312,50703,1,0
148,228,50920,6,0,B|144:152|80:120,1,135,8|0
52,108,51355,2,0,B|36:20,1,90,8|0
40,200,51790,1,8
40,200,51899,1,0
40,200,52007,1,0
148,56,52225,1,12
300,152,52442,6,0,B|332:184,1,45,8|0
352,216,52659,2,0,B|348:288|404:336,1,135,12|0
440,340,53094,1,8
392,140,53312,1,0
272,64,53529,2,0,B|208:128|112:140,1,180,8|8
68,48,54181,5,0
105,40,54290,1,0
140,52,54399,2,0,B|204:84|224:156,1,135,12|0
232,188,54833,1,8
260,292,55051,1,0
368,308,55268,2,0,B|444:252|440:148,1,180,0|8
332,140,55920,1,0
252,68,56138,6,0,B|200:72|164:104|152:156|164:200,1,180,12|8
236,280,56790,1,0
260,308,56899,1,0
296,320,57007,1,12
408,340,57225,2,0,B|444:372,2,45,0|0|8
380,228,57659,1,0
236,280,57877,6,0,B|196:296,1,45,14|0
180,172,58203,2,0,B|136:164,1,45,2|8
80,72,58529,1,2
56,84,58638,1,0
40,104,58746,1,8
32,128,58855,1,0
32,156,58964,1,2
112,260,59181,1,8
112,260,59399,1,0
240,80,59616,5,0
240,80,59725,2,0,B|260:128|300:148,1,90,2|0
320,180,60051,2,0,B|340:268,1,90,2|0
348,304,60377,1,0
432,296,60485,6,0,B|464:264,1,45,4|0
400,164,60703,2,0,B|424:124,1,45,4|0
288,88,60920,2,0,B|296:44,1,45,4|0
160,120,61138,2,0,B|140:72,1,45,4|0
152,164,61355,6,0,B|156:232|112:292,1,135,12|0
80,300,61790,1,8
260,208,62007,1,0
260,208,62116,1,0
260,208,62225,1,8
152,164,62442,1,0
392,284,62659,1,8
472,232,62877,1,0
476,332,63094,5,12
476,332,63203,1,0
384,368,63420,1,0
384,368,63529,2,0,B|336:376|296:360,1,90,8|0
168,260,63964,1,8
168,260,64072,1,0
168,260,64181,1,0
264,196,64399,1,8
72,320,64616,1,0
72,212,64833,6,0,B|88:168|136:148,1,90,12|0
172,160,65159,1,0
208,176,65268,2,0,B|252:156|272:112,1,90,8|0
164,12,65703,1,8
164,12,65812,2,0,B|140:52|100:76,1,90
76,104,66138,2,0,B|48:192,1,90,8|0
60,344,66572,6,0,B|124:308|144:240,1,135,8|0
120,192,67007,1,8
24,144,67225,1,0
24,252,67442,1,8
24,252,67551,1,0
24,252,67659,1,0
328,304,67877,1,8
200,340,68094,1,0
236,212,68312,6,0,B|224:144|144:116,1,135,12|0
108,124,68746,1,8
24,252,68964,1,0
24,252,69072,1,0
24,252,69181,1,8
60,344,69399,1,0
236,212,69616,1,8
272,304,69833,1,0
136,212,70051,6,0,B|112:256|60:268,1,90,12|0
24,252,70377,1,0
24,252,70485,1,8
60,160,70703,1,0
236,212,70920,2,0,B|252:172|296:148,1,90,8|0
368,216,71355,1,8
396,120,71572,1,0
322,51,71790,5,4
236,212,72007,1,0
156,80,72225,2,0,B|120:116|116:160,1,90,8|0
312,148,72659,5,4
216,296,72877,1,0
424,344,73094,2,0,B|460:308|464:264,1,90,8|0
188,296,73529,2,0,B|140:296,3,45,4|0|0|0
112,336,73964,2,0,B|68:336,3,45,8|0|0|0
64,248,74399,6,0,B|48:208,1,45,4|0
164,156,74616,2,0,B|160:108,1,45,4|0
288,120,74833,2,0,B|304:72,1,45,12|0
424,116,75051,2,0,B|460:80,1,45,4|0
400,148,75268,6,0,B|364:184|360:256|404:300,1,161.999995056153,12|0
428,328,75703,1,8
192,280,75920,1,0
64,248,76138,1,8
64,248,76246,1,0
64,248,76355,1,0
100,368,76572,1,8
348,140,76790,5,0
348,140,76899,1,0
348,140,77007,2,0,B|392:104|452:120,1,108.000002574921,12|0
488,136,77333,1,0
488,136,77442,1,8
452,236,77659,1,0
332,272,77877,1,8
332,272,77986,1,0
332,272,78094,1,0
428,352,78312,1,8
312,40,78529,1,0
236,116,78746,6,0,B|212:168|152:176,1,108.000002574921,12|0
120,156,79072,1,0
120,156,79181,2,0,B|12:156,1,108.000002574921,8|0
136,40,79616,1,8
136,40,79725,1,0
344,140,79942,1,0
344,140,80051,2,0,B|360:192|400:232,1,108.000002574921,8|0
244,384,80486,6,0,B|240:320|288:272|332:264,1,161.999995056153,12|0
460,196,80920,2,0,B|472:84,1,108.000002574921,8|0
444,332,81355,1,8
444,332,81464,1,0
444,332,81572,1,0
332,264,81790,2,0,B|284:240|224:244,1,108.000002574921,8|0
112,320,82225,5,12
84,336,82333,1,0
63,197,82551,1,0
31,191,82659,1,8
180,112,82877,1,0
332,144,83094,2,0,B|392:148|440:124,1,108.000002574921,8|0
232,256,83529,1,8
52,64,83746,1,0
63,197,83964,6,0,B|120:196|160:148,1,108.000002574921,12|0
180,112,84290,1,0
180,112,84399,1,8
52,64,84616,1,0
16,296,84833,2,0,B|60:328|120:320,1,107.999996704102,8|0
232,256,85268,1,8
416,64,85486,1,0
352,148,85703,5,4
396,248,85920,2,0,B|412:288|456:320,1,90,0|8
304,48,86355,1,0
280,240,86572,5,4
205,148,86790,2,0,B|180:108|136:92,1,90,0|8
328,344,87225,1,0
304,48,87442,6,0,B|347:68|371:105,1,90,4|8
396,248,87877,1,8
136,92,88094,1,0
164,300,88312,6,0,B|176:348|216:372,1,90,4|0
356,120,88746,2,0,B|344:72|304:48,1,90,8|0
264,192,89181,6,0,B|216:184|180:216,1,90,4|0
152,260,89507,2,0,B|112:292|64:284,1,90,4|0
24,252,89833,1,4
84,160,90051,1,0
84,160,90159,1,0
84,160,90268,1,0
272,308,90486,1,2
360,244,90703,2,0,B|392:212,2,45,0|0|4
256,192,91029,12,0,94399
