osu file format v9

[General]
AudioFilename: future gazer.mp3
AudioLeadIn: 2000
PreviewTime: 75063
Countdown: 0
SampleSet: Soft
StackLeniency: 0.7
Mode: 0
LetterboxInBreaks: 0

[Editor]
DistanceSpacing: 1
BeatDivisor: 4
GridSize: 4

[Metadata]
Title:future gazer (TV Size)
Artist:fripSide
Creator:alacat
Version:Easy
Source:To Aru Kagaku no Railgun
Tags:opening nanjou yoshino yaginuma satoshi kusano Kosiga

[Difficulty]
HPDrainRate:2
CircleSize:3
OverallDifficulty:2
ApproachRate:3
SliderMultiplier:0.8
SliderTickRate:1

[Events]
//Background and Video events
Video,0,"To Aru Kagaku no Railgun OP.flv"
0,0,"bg.jpg"
//Break Periods
//Storyboard Layer 0 (Background)
//Storyboard Layer 1 (Fail)
//Storyboard Layer 2 (Pass)
//Storyboard Layer 3 (Foreground)
//Storyboard Sound Samples
//Background Colour Transformations
3,100,163,162,255

[TimingPoints]
486,434.782608695652,4,2,1,60,1,0
14399,-100,4,2,1,80,0,1
14507,-100,4,2,2,80,0,0
31790,-100,4,2,1,30,0,0
31899,-100,4,2,1,50,0,0
38746,-100,4,2,2,60,0,0
45703,-100,4,2,2,70,0,0
61355,-100,4,2,2,80,0,1
61464,-100,4,2,2,80,0,0
75268,-100,4,2,2,90,0,1
85703,-100,4,2,2,80,0,0
89181,-100,4,2,1,80,0,1
90051,-100,4,1,2,50,0,1
90920,-100,4,2,1,80,0,0
91355,-100,4,2,1,70,0,0
91790,-100,4,2,1,60,0,0
92225,-100,4,2,1,50,0,0
92659,-100,4,2,1,40,0,0
93094,-100,4,2,1,30,0,0
93529,-100,4,2,1,20,0,0
94399,-100,4,2,1,10,0,0

[Colours]
Combo1 : 255,198,140
Combo2 : 155,155,255
Combo3 : 170,255,170
Combo4 : 255,147,147

[HitObjects]
496,140,486,2,0,B|472:224|388:252,1,160,4|8
312,240,1790,1,2
256,180,2225,2,0,B|216:196|196:232,1,80,0|2
172,308,3094,2,0,B|152:344|112:360,1,80,8|2
44,320,3964,6,0,B|68:264|20:212|52:164,1,160,0|8
100,100,5268,1,2
172,140,5703,2,0,B|236:140|236:140|272:152|272:152|332:152,2,160,0|8|0
168,60,7877,5,2
244,36,8312,2,0,B|324:36,1,80,8|2
400,60,9181,1,0
456,116,9616,2,0,B|476:152|472:192,2,80,2|8|2
380,144,10920,5,0
320,196,11355,2,0,B|240:196,2,80,2|8|2
396,224,12659,1,0
284,340,13529,1,8
132,288,14399,6,0,B|80:228|88:136,1,160,4|8
220,48,16138,2,0,B|272:108|264:200,1,160,0|8
216,348,17877,5,4
104,232,18746,1,8
212,112,19616,2,0,B|240:80|288:68,2,80,0|8|0
224,192,20920,1,8
276,252,21355,6,0,B|332:312|420:316,1,160,4|8
472,164,23094,2,0,B|416:104|328:100,1,160,4|8
288,256,24833,5,4
133,207,25703,1,8
177,53,26572,1,4
330,97,27442,1,8
424,228,28312,6,0,B|408:316|336:356,1,160,4|8
256,344,29616,1,0
256,192,30051,12,6,31790
188,268,32659,5,2
348,248,33529,2,0,B|416:288,2,80,0|0|2
308,176,34833,1,0
236,140,35268,6,0,B|148:112|92:184,1,160,4|2
132,336,37007,2,0,B|220:364|276:292,1,160,0|2
304,220,38312,1,0
288,144,38746,6,0,B|244:152|228:200,2,80,4|8|0
364,164,40051,1,8
356,84,40485,2,0,B|308:40|244:72|204:40,1,160,4|8
124,40,41790,6,0,B|68:96,1,80,0|4
88,176,42659,1,8
48,248,43094,2,0,B|128:260|188:328,2,160,4|4|8
196,192,45703,6,0,B|276:180,1,80,4|0
276,260,46572,2,0,B|356:248,1,80,8|0
416,300,47442,2,0,B|460:232|448:144,1,160,0|8
388,92,48746,1,4
312,112,49181,6,0,B|232:100,1,80,4|0
232,180,50051,2,0,B|152:168,1,80,8|0
72,156,50920,2,0,B|36:228|72:312,2,160,0|8|4
120,92,53094,5,0
200,76,53529,2,0,B|228:112|264:124,1,80,8|0
328,168,54399,2,0,B|312:204|272:224,2,80,4|0|8
336,88,55703,1,0
280,28,56138,5,4
132,92,57007,1,8
256,192,57877,2,0,B|236:232|192:240,2,80,4|0|8
256,192,59616,12,4,61355
368,248,62225,5,8
480,132,63094,2,0,B|432:68|340:64,1,160,0|8
220,172,64833,6,0,B|196:204|156:216,2,80,0|0|8
228,92,66138,1,0
292,140,66572,2,0,B|332:208|312:296,1,160,0|8
152,316,68312,5,4
80,172,69181,1,8
188,56,70051,2,0,B|240:120|324:140,1,160,4|8
464,64,71790,5,4
452,224,72659,1,8
308,296,73529,1,4
172,212,74399,2,4,B|144:240|100:252,1,80,8|0
44,200,75268,6,0,B|56:120|12:44,2,160,4|8|0
28,280,77442,1,0
72,348,77877,2,0,B|152:348,1,80,8|0
216,300,78746,5,4
164,240,79181,1,0
160,160,79616,2,0,B|200:140|240:160,1,80,8|0
300,208,80486,2,0,B|356:268,2,80,0|0|8
308,128,81790,1,0
364,72,82225,6,0,B|436:116|464:196,1,160,4|8
356,312,83964,2,0,B|284:268|256:188,1,160,4|8
228,116,85268,6,0,B|200:84|160:80,1,80,0|4
44,192,86572,1,8
116,336,87442,1,4
276,320,88312,1,8
428,272,89181,6,0,B|416:184|340:144,1,160,4|0
264,128,90486,1,0
256,192,90920,12,0,94399
