osu file format v12

[General]
AudioFilename: future gazer.mp3
AudioLeadIn: 0
PreviewTime: 75268
Countdown: 0
SampleSet: Soft
StackLeniency: 0.7
Mode: 3
LetterboxInBreaks: 0
SpecialStyle: 0
WidescreenStoryboard: 1

[Editor]
DistanceSpacing: 1
BeatDivisor: 4
GridSize: 8

[Metadata]
Title:future gazer (TV Size)
TitleUnicode:future gazer (TV Size)
Artist:fripSide
ArtistUnicode:fripSide
Creator:17VA
Version:7K HD
Source:Toaru Kagaku no Railgun
Tags:opening nanjou yoshino yaginuma satoshi -_r_u_m_i_a_- simple_star Lunaris_Filia とある科学の超電磁砲
BeatmapID:298848
BeatmapSetID:115715

[Difficulty]
HPDrainRate:7
CircleSize:7
OverallDifficulty:7
ApproachRate:5
SliderMultiplier:1.4
SliderTickRate:1

[Events]
//Background and Video events
Video,0,"To Aru Kagaku no Railgun OP.flv"
0,0,"bg.png",0,0
//Break Periods
//Storyboard Layer 0 (Background)
//Storyboard Layer 1 (Fail)
//Storyboard Layer 2 (Pass)
//Storyboard Layer 3 (Foreground)
//Storyboard Sound Samples
//Background Colour Transformations
3,100,163,162,255

[TimingPoints]
486,434.782608695652,4,2,1,30,1,0
61355,-100,4,2,1,30,0,1
74399,-100,4,2,1,30,0,1
75268,-100,4,2,1,30,0,1
85703,-100,4,2,1,30,0,1
89181,-100,4,2,1,30,0,1
90920,-100,4,2,1,30,0,0

[HitObjects]
36,192,486,1,0,0:0:0:70:cymbol.wav
36,192,920,1,0,0:0:0:70:bassdrum.wav
36,192,1355,1,0,0:0:0:70:bassdrum.wav
36,192,1790,1,0,0:0:0:70:bassdrum.wav
329,192,2225,1,0,0:0:0:70:bassdrum.wav
329,192,2659,1,0,0:0:0:70:bassdrum.wav
329,192,3094,1,0,0:0:0:70:bassdrum.wav
329,192,3529,1,0,0:0:0:70:bassdrum.wav
256,192,3964,1,0,0:0:0:70:bassdrum.wav
256,192,4399,1,0,0:0:0:70:bassdrum.wav
256,192,4833,1,0,0:0:0:70:bassdrum.wav
256,192,5268,1,0,0:0:0:70:bassdrum.wav
109,192,5703,1,0,0:0:0:70:bassdrum.wav
109,192,6138,1,0,0:0:0:70:bassdrum.wav
109,192,6572,1,0,0:0:0:70:bassdrum.wav
109,192,7007,1,0,0:0:0:70:bassdrum.wav
109,192,7225,1,0,0:0:0:70:bassdrum.wav
36,192,7442,1,0,0:0:0:0:
329,192,7442,1,0,0:0:0:70:bassdrum.wav
329,192,7877,1,0,0:0:0:70:bassdrum.wav
329,192,8312,1,0,0:0:0:70:bassdrum.wav
329,192,8746,1,0,0:0:0:70:bassdrum.wav
182,192,9181,1,0,0:0:0:70:bassdrum.wav
182,192,9616,1,0,0:0:0:70:bassdrum.wav
182,192,10051,1,0,0:0:0:70:bassdrum.wav
182,192,10485,1,0,0:0:0:70:bassdrum.wav
182,192,10703,1,0,0:0:0:70:bassdrum.wav
36,192,10920,1,0,0:0:0:0:
256,192,10920,1,0,0:0:0:70:bassdrum.wav
475,192,11355,128,0,11790:0:0:0:0:
256,192,11572,1,0,0:0:0:70:bassdrum.wav
256,192,11790,1,0,0:0:0:70:bassdrum.wav
109,192,11790,128,0,12225:0:0:0:0:
402,192,12225,128,0,12659:0:0:0:0:
256,192,12442,1,0,0:0:0:70:bassdrum.wav
182,192,12659,128,0,12985:0:0:0:0:
256,192,12659,1,0,0:0:0:70:bassdrum.wav
36,192,12985,128,0,13312:0:0:0:0:
475,192,13312,128,0,13529:0:0:0:0:
109,192,13529,128,0,14181:0:0:0:0:
329,192,13529,1,0,0:0:0:0:
402,192,13529,1,0,0:0:0:70:bassdrum.wav
256,192,13529,1,0,0:0:0:0:
256,192,13746,1,0,0:0:0:0:
329,192,13746,1,0,0:0:0:0:
402,192,13746,1,0,0:0:0:70:bassdrum.wav
402,192,13964,1,0,0:0:0:70:bassdrum.wav
256,192,13964,1,0,0:0:0:0:
329,192,13964,1,0,0:0:0:0:
402,192,14181,1,0,0:0:0:70:bassdrum.wav
256,192,14181,1,0,0:0:0:0:
329,192,14181,1,0,0:0:0:0:
36,192,14399,1,0,0:0:0:0:
182,192,14399,1,0,0:0:0:70:cymbol.wav
402,192,14399,1,0,0:0:0:70:bassdrum.wav
475,192,14399,128,0,16138:0:0:0:70:bassdrum.wav
256,192,14616,1,0,0:0:0:70:hihat.wav
36,192,14833,1,0,0:0:0:70:bassdrum.wav
256,192,15051,1,0,0:0:0:70:hihat.wav
329,192,15268,1,0,0:0:0:70:bassdrum.wav
182,192,15485,1,0,0:0:0:70:hihat.wav
36,192,15703,1,0,0:0:0:70:bassdrum.wav
256,192,15920,1,0,0:0:0:70:hihat.wav
109,192,16138,128,0,17877:0:0:0:0:
402,192,16138,1,0,0:0:0:70:cymbol.wav
182,192,16355,1,0,0:0:0:70:hihat.wav
402,192,16572,1,0,0:0:0:70:bassdrum.wav
182,192,16790,1,0,0:0:0:70:hihat.wav
475,192,17007,1,0,0:0:0:70:bassdrum.wav
329,192,17225,1,0,0:0:0:70:hihat.wav
182,192,17442,1,0,0:0:0:70:bassdrum.wav
475,192,17659,1,0,0:0:0:70:hihat.wav
402,192,17877,128,0,19616:0:0:0:70:bassdrum.wav
256,192,17877,1,0,0:0:0:70:cymbol.wav
36,192,18094,1,0,0:0:0:70:hihat.wav
256,192,18312,1,0,0:0:0:70:bassdrum.wav
36,192,18529,1,0,0:0:0:70:hihat.wav
182,192,18746,1,0,0:0:0:70:bassdrum.wav
329,192,18964,1,0,0:0:0:70:hihat.wav
182,192,19181,1,0,0:0:0:70:bassdrum.wav
475,192,19399,1,0,0:0:0:70:hihat.wav
36,192,19616,128,0,21138:0:0:0:70:bassdrum.wav
109,192,19616,1,0,0:0:0:70:cymbol.wav
329,192,19833,1,0,0:0:0:70:hihat.wav
109,192,20051,1,0,0:0:0:70:bassdrum.wav
329,192,20268,1,0,0:0:0:70:hihat.wav
109,192,20485,1,0,0:0:0:0:
402,192,20485,1,0,0:0:0:70:bassdrum.wav
256,192,20485,1,0,0:0:0:0:
109,192,20703,1,0,0:0:0:0:
402,192,20703,1,0,0:0:0:70:bassdrum.wav
256,192,20703,1,0,0:0:0:0:
109,192,20920,1,0,0:0:0:0:
402,192,20920,1,0,0:0:0:70:bassdrum.wav
256,192,20920,1,0,0:0:0:0:
109,192,21138,1,0,0:0:0:0:
402,192,21138,1,0,0:0:0:70:bassdrum.wav
256,192,21138,1,0,0:0:0:0:
475,192,21355,128,0,23094:0:0:0:70:bassdrum.wav
329,192,21355,1,0,0:0:0:70:cymbol.wav
109,192,21572,1,0,0:0:0:70:hihat.wav
329,192,21790,1,0,0:0:0:70:bassdrum.wav
182,192,21790,1,0,0:0:0:70:snare.wav
109,192,22007,1,0,0:0:0:70:hihat.wav
402,192,22225,1,0,0:0:0:70:bassdrum.wav
109,192,22442,1,0,0:0:0:70:hihat.wav
36,192,22659,1,0,0:0:0:70:snare.wav
182,192,22659,1,0,0:0:0:70:bassdrum.wav
329,192,22877,1,0,0:0:0:70:hihat.wav
109,192,23094,128,0,23964:0:0:0:0:
182,192,23094,1,0,0:0:0:70:cymbol.wav
402,192,23312,1,0,0:0:0:70:hihat.wav
182,192,23529,1,0,0:0:0:70:bassdrum.wav
329,192,23529,1,0,0:0:0:70:snare.wav
402,192,23746,1,0,0:0:0:70:hihat.wav
36,192,23964,128,0,24833:0:0:0:0:
256,192,23964,1,0,0:0:0:70:bassdrum.wav
475,192,24181,1,0,0:0:0:0:
256,192,24399,1,0,0:0:0:70:snare.wav
109,192,24399,1,0,0:0:0:70:bassdrum.wav
475,192,24616,1,0,0:0:0:0:
402,192,24833,128,0,25703:0:0:0:70:bassdrum.wav
109,192,24833,1,0,0:0:0:70:cymbol.wav
256,192,25051,1,0,0:0:0:70:hihat.wav
329,192,25159,1,0,0:0:0:70:hihat.wav
36,192,25268,1,0,0:0:0:70:snare.wav
182,192,25268,1,0,0:0:0:70:bassdrum.wav
329,192,25485,1,0,0:0:0:70:hihat.wav
36,192,25703,128,0,26572:0:0:0:70:bassdrum.wav
475,192,25703,1,0,0:0:0:70:cymbol.wav
256,192,25920,1,0,0:0:0:70:hihat.wav
109,192,26029,1,0,0:0:0:70:hihat.wav
329,192,26138,1,0,0:0:0:70:bassdrum.wav
475,192,26138,1,0,0:0:0:70:snare.wav
109,192,26355,1,0,0:0:0:70:hihat.wav
475,192,26572,128,0,27442:0:0:0:70:bassdrum.wav
329,192,26572,1,0,0:0:0:70:cymbol.wav
256,192,26790,1,0,0:0:0:70:hihat.wav
402,192,26899,1,0,0:0:0:70:hihat.wav
36,192,27007,1,0,0:0:0:70:snare.wav
182,192,27007,1,0,0:0:0:70:bassdrum.wav
402,192,27225,1,0,0:0:0:70:hihat.wav
109,192,27442,128,0,27877:0:0:0:0:
329,192,27442,1,0,0:0:0:70:cymbol.wav
182,192,27442,1,0,0:0:0:70:bassdrum.wav
329,192,27659,128,0,28094:0:0:0:0:
182,192,27877,128,0,28312:0:0:0:70:bassdrum.wav
36,192,27877,1,0,0:0:0:70:snare.wav
475,192,28094,128,0,28312:0:0:0:0:
402,192,28312,1,0,0:0:0:70:cymbol.wav
36,192,28312,1,0,0:0:0:0:
256,192,28312,1,0,0:0:0:70:bassdrum.wav
109,192,28529,1,0,0:0:0:0:
182,192,28746,1,0,0:0:0:70:snare.wav
329,192,28746,1,0,0:0:0:0:
36,192,28746,1,0,0:0:0:70:bassdrum.wav
475,192,28964,1,0,0:0:0:0:
109,192,29181,1,0,0:0:0:70:bassdrum.wav
182,192,29290,1,0,0:0:0:0:
256,192,29399,1,0,0:0:0:0:
182,192,29507,1,0,0:0:0:0:
109,192,29616,1,0,0:0:0:70:bassdrum.wav
329,192,29616,1,0,0:0:0:70:snare.wav
475,192,29616,1,0,0:0:0:0:
36,192,29833,1,0,0:0:0:0:
182,192,29833,1,0,0:0:0:70:bassdrum.wav
475,192,30051,1,0,0:0:0:0:
109,192,30051,1,0,0:0:0:70:bassdrum.wav
402,192,30159,1,0,0:0:0:0:
329,192,30268,1,0,0:0:0:0:
402,192,30377,1,0,0:0:0:70:bassdrum.wav
36,192,30485,1,0,0:0:0:0:
475,192,30485,1,0,0:0:0:0:
109,192,30594,1,0,0:0:0:0:
182,192,30703,1,0,0:0:0:70:bassdrum.wav
109,192,30812,1,0,0:0:0:0:
256,192,30920,128,0,31790:0:0:0:0:
475,192,30920,1,0,0:0:0:70:bassdrum.wav
36,192,30920,1,0,0:0:0:0:
402,192,31029,1,0,0:0:0:0:
329,192,31138,1,0,0:0:0:0:
402,192,31246,1,0,0:0:0:0:
475,192,31355,1,0,0:0:0:70:bassdrum.wav
36,192,31355,1,0,0:0:0:0:
109,192,31464,1,0,0:0:0:0:
182,192,31572,1,0,0:0:0:0:
329,192,31572,1,0,0:0:0:70:bassdrum.wav
109,192,31681,1,0,0:0:0:0:
402,192,31681,1,0,0:0:0:70:bassdrum.wav
475,192,31790,1,0,0:0:0:70:bassdrum.wav
36,192,31790,1,0,0:0:0:70:cymbol.wav
329,192,32659,1,0,0:0:0:0:
109,192,33312,1,0,0:0:0:70:bassdrum.wav
109,192,33529,1,0,0:0:0:70:bassdrum.wav
256,192,33529,1,0,0:0:0:0:
329,192,34399,1,0,0:0:0:0:
256,192,34833,1,0,0:0:0:0:
36,192,35268,1,0,0:0:0:0:
182,192,35268,1,0,0:0:0:70:cymbol.wav
402,192,35268,1,0,0:0:0:70:bassdrum.wav
256,192,36138,1,0,0:0:0:0:
109,192,36572,1,0,0:0:0:0:
329,192,36790,1,0,0:0:0:70:bassdrum.wav
329,192,37007,1,0,0:0:0:70:bassdrum.wav
475,192,37007,1,0,0:0:0:0:
109,192,37877,1,0,0:0:0:70:cymbol.wav
256,192,37877,1,0,0:0:0:0:
402,192,37877,1,0,0:0:0:70:bassdrum.wav
36,192,38312,1,0,0:0:0:70:cymbol.wav
182,192,38312,1,0,0:0:0:0:
329,192,38312,1,0,0:0:0:70:bassdrum.wav
109,192,38746,1,0,0:0:0:70:cymbol.wav
402,192,38964,1,0,0:0:0:70:hihat.wav
256,192,39181,1,0,0:0:0:70:bassdrum.wav
36,192,39181,1,0,0:0:0:30:
182,192,39399,1,0,0:0:0:70:hihat.wav
402,192,39616,1,0,0:0:0:70:bassdrum.wav
36,192,39616,1,0,0:0:0:0:
182,192,39833,1,0,0:0:0:70:hihat.wav
256,192,40051,1,0,0:0:0:70:bassdrum.wav
475,192,40051,1,0,0:0:0:30:
182,192,40268,1,0,0:0:0:70:hihat.wav
109,192,40485,1,0,0:0:0:70:bassdrum.wav
402,192,40485,1,0,0:0:0:70:cymbol.wav
256,192,40703,1,0,0:0:0:70:hihat.wav
475,192,40920,1,0,0:0:0:0:
36,192,40920,1,0,0:0:0:70:bassdrum.wav
256,192,41138,1,0,0:0:0:70:hihat.wav
182,192,41355,1,0,0:0:0:70:bassdrum.wav
329,192,41355,1,0,0:0:0:0:
402,192,41572,1,0,0:0:0:70:hihat.wav
475,192,41790,1,0,0:0:0:70:bassdrum.wav
109,192,41790,1,0,0:0:0:0:
36,192,41790,1,0,0:0:0:0:
109,192,42007,1,0,0:0:0:0:
329,192,42007,1,0,0:0:0:70:bassdrum.wav
36,192,42007,1,0,0:0:0:0:
256,192,42225,1,0,0:0:0:70:bassdrum.wav
36,192,42225,1,0,0:0:0:0:
109,192,42225,1,0,0:0:0:70:cymbol.wav
329,192,42442,1,0,0:0:0:70:hihat.wav
256,192,42659,1,0,0:0:0:70:bassdrum.wav
109,192,42659,1,0,0:0:0:0:
329,192,42877,1,0,0:0:0:70:hihat.wav
475,192,43094,1,0,0:0:0:70:bassdrum.wav
182,192,43094,1,0,0:0:0:70:cymbol.wav
36,192,43094,1,0,0:0:0:0:
402,192,43312,1,0,0:0:0:70:hihat.wav
329,192,43529,1,0,0:0:0:70:bassdrum.wav
109,192,43529,1,0,0:0:0:0:
256,192,43746,1,0,0:0:0:70:hihat.wav
402,192,43964,1,0,0:0:0:70:bassdrum.wav
329,192,43964,128,0,45703:0:0:0:0:
36,192,43964,1,0,0:0:0:0:
182,192,43964,1,0,0:0:0:70:cymbol.wav
36,192,44399,1,0,0:0:0:70:snare.wav
182,192,44399,1,0,0:0:0:0:
256,192,44725,1,0,0:0:0:70:snare.wav
109,192,44833,1,0,0:0:0:70:bassdrum.wav
256,192,44942,1,0,0:0:0:70:snare.wav
36,192,45051,1,0,0:0:0:70:hihat.wav
109,192,45268,1,0,0:0:0:70:snare.wav
109,192,45485,1,0,0:0:0:70:snare.wav
182,192,45594,1,0,0:0:0:70:snare.wav
36,192,45703,1,0,0:0:0:70:cymbol.wav
256,192,45703,1,0,0:0:0:70:bassdrum.wav
475,192,45703,1,0,0:0:0:0:
109,192,45920,1,0,0:0:0:70:hihat.wav
256,192,46138,1,0,0:0:0:70:snare.wav
109,192,46355,1,0,0:0:0:70:hihat.wav
329,192,46572,1,0,0:0:0:70:bassdrum.wav
256,192,46681,1,0,0:0:0:70:snare.wav
182,192,46790,1,0,0:0:0:70:hihat.wav
475,192,47007,128,0,47442:0:0:0:0:
329,192,47007,1,0,0:0:0:70:snare.wav
182,192,47225,1,0,0:0:0:70:hihat.wav
329,192,47442,1,0,0:0:0:70:bassdrum.wav
36,192,47442,1,0,0:0:0:0:
256,192,47659,1,0,0:0:0:70:hihat.wav
109,192,47877,1,0,0:0:0:70:snare.wav
256,192,48094,1,0,0:0:0:70:hihat.wav
402,192,48312,1,0,0:0:0:70:bassdrum.wav
329,192,48420,1,0,0:0:0:70:snare.wav
256,192,48529,1,0,0:0:0:70:hihat.wav
109,192,48746,128,0,49181:0:0:0:0:
182,192,48746,1,0,0:0:0:70:snare.wav
402,192,48964,1,0,0:0:0:70:hihat.wav
256,192,49181,1,0,0:0:0:70:bassdrum.wav
36,192,49181,1,0,0:0:0:70:cymbol.wav
475,192,49399,1,0,0:0:0:70:hihat.wav
109,192,49616,1,0,0:0:0:70:snare.wav
329,192,49833,1,0,0:0:0:70:hihat.wav
475,192,50051,128,0,50920:0:0:0:0:
182,192,50051,1,0,0:0:0:0:
256,192,50051,1,0,0:0:0:70:bassdrum.wav
402,192,50268,128,0,50920:0:0:0:0:
329,192,50485,128,0,50920:0:0:0:0:
109,192,50485,1,0,0:0:0:70:snare.wav
182,192,50485,1,0,0:0:0:70:bassdrum.wav
256,192,50703,128,0,50920:0:0:0:0:
109,192,50920,1,0,0:0:0:70:bassdrum.wav
36,192,50920,1,0,0:0:0:0:
256,192,51138,1,0,0:0:0:70:hihat.wav
109,192,51355,1,0,0:0:0:70:snare.wav
256,192,51572,1,0,0:0:0:70:hihat.wav
475,192,51790,1,0,0:0:0:70:bassdrum.wav
402,192,51899,1,0,0:0:0:70:snare.wav
329,192,52007,1,0,0:0:0:70:hihat.wav
182,192,52225,1,0,0:0:0:70:snare.wav
182,192,52442,1,0,0:0:0:70:snare.wav
109,192,52551,1,0,0:0:0:70:snare.wav
36,192,52659,128,0,53529:0:0:0:70:bassdrum.wav
329,192,52659,1,0,0:0:0:70:cymbol.wav
475,192,52877,1,0,0:0:0:70:hihat.wav
256,192,53094,1,0,0:0:0:70:snare.wav
402,192,53312,1,0,0:0:0:70:hihat.wav
329,192,53529,1,0,0:0:0:70:bassdrum.wav
256,192,53638,1,0,0:0:0:70:snare.wav
182,192,53746,1,0,0:0:0:70:hihat.wav
329,192,53964,128,0,54399:0:0:0:70:snare.wav
475,192,53964,1,0,0:0:0:0:
256,192,54399,1,0,0:0:0:70:bassdrum.wav
36,192,54399,1,0,0:0:0:70:cymbol.wav
475,192,54616,1,0,0:0:0:0:
182,192,54833,1,0,0:0:0:70:snare.wav
402,192,55051,1,0,0:0:0:70:hihat.wav
256,192,55268,1,0,0:0:0:70:bassdrum.wav
182,192,55377,1,0,0:0:0:70:snare.wav
109,192,55485,1,0,0:0:0:70:hihat.wav
475,192,55703,128,0,56138:0:0:0:0:
36,192,55703,1,0,0:0:0:70:snare.wav
402,192,56138,128,0,56572:0:0:0:0:
109,192,56138,1,0,0:0:0:70:cymbol.wav
256,192,56138,1,0,0:0:0:70:bassdrum.wav
182,192,56355,128,0,56572:0:0:0:0:
36,192,56572,1,0,0:0:0:70:snare.wav
109,192,56572,1,0,0:0:0:0:
256,192,56790,128,0,57007:0:0:0:0:
36,192,57007,1,0,0:0:0:0:
182,192,57007,1,0,0:0:0:70:bassdrum.wav
402,192,57007,128,0,57442:0:0:0:0:
329,192,57225,1,0,0:0:0:0:
182,192,57442,1,0,0:0:0:70:snare.wav
109,192,57442,128,0,57877:0:0:0:0:
475,192,57659,128,0,57877:0:0:0:0:
36,192,57877,1,0,0:0:0:0:
182,192,57877,1,0,0:0:0:70:bassdrum.wav
329,192,57877,1,0,0:0:0:70:cymbol.wav
402,192,57985,1,0,0:0:0:0:
475,192,58094,1,0,0:0:0:0:
109,192,58312,1,0,0:0:0:70:snare.wav
256,192,58312,1,0,0:0:0:70:bassdrum.wav
329,192,58420,1,0,0:0:0:0:
402,192,58529,1,0,0:0:0:0:
36,192,58746,1,0,0:0:0:0:
182,192,58746,1,0,0:0:0:70:bassdrum.wav
256,192,58855,1,0,0:0:0:70:snare.wav
329,192,58964,1,0,0:0:0:0:
109,192,59181,1,0,0:0:0:0:
256,192,59181,1,0,0:0:0:70:bassdrum.wav
475,192,59181,1,0,0:0:0:70:snare.wav
109,192,59399,1,0,0:0:0:0:
256,192,59399,1,0,0:0:0:70:bassdrum.wav
475,192,59399,1,0,0:0:0:0:
36,192,59616,1,0,0:0:0:70:bassdrum.wav
182,192,59616,1,0,0:0:0:0:
402,192,59616,1,0,0:0:0:70:bassdrum.wav
475,192,59725,1,0,0:0:0:0:
256,192,59725,1,0,0:0:0:0:
36,192,59942,1,0,0:0:0:70:bassdrum.wav
182,192,59942,1,0,0:0:0:0:
329,192,60051,1,0,0:0:0:0:
402,192,60051,1,0,0:0:0:0:
36,192,60268,1,0,0:0:0:70:bassdrum.wav
182,192,60268,1,0,0:0:0:0:
256,192,60377,1,0,0:0:0:0:
402,192,60485,128,0,61355:0:0:0:0:
475,192,60485,1,0,0:0:0:70:bassdrum.wav
109,192,60485,128,0,60703:0:0:0:0:
329,192,60485,1,0,0:0:0:0:
256,192,60703,128,0,60920:0:0:0:0:
475,192,60920,1,0,0:0:0:70:bassdrum.wav
36,192,60920,128,0,61138:0:0:0:0:
109,192,60920,1,0,0:0:0:0:
182,192,61138,128,0,61355:0:0:0:0:
36,192,61355,1,0,0:0:0:70:cymbol.wav
475,192,61355,128,0,63094:0:0:0:0:
256,192,61355,1,0,0:0:0:70:bassdrum.wav
329,192,61355,1,0,0:0:0:0:
182,192,61572,1,0,0:0:0:70:hihat.wav
109,192,61790,1,0,0:0:0:0:
256,192,61790,1,0,0:0:0:70:bassdrum.wav
402,192,61790,1,0,0:0:0:70:snare.wav
329,192,62007,1,0,0:0:0:70:hihat.wav
36,192,62225,1,0,0:0:0:70:bassdrum.wav
109,192,62333,1,0,0:0:0:70:snare.wav
182,192,62442,1,0,0:0:0:70:hihat.wav
329,192,62442,1,0,0:0:0:0:
109,192,62551,1,0,0:0:0:0:
36,192,62659,1,0,0:0:0:70:snare.wav
402,192,62877,1,0,0:0:0:70:hihat.wav
109,192,63094,128,0,64833:0:0:0:0:
36,192,63094,1,0,0:0:0:0:
256,192,63094,1,0,0:0:0:70:bassdrum.wav
329,192,63094,1,0,0:0:0:0:
402,192,63312,1,0,0:0:0:70:hihat.wav
182,192,63529,1,0,0:0:0:70:snare.wav
329,192,63529,1,0,0:0:0:70:bassdrum.wav
475,192,63529,1,0,0:0:0:0:
256,192,63746,1,0,0:0:0:0:
475,192,63964,1,0,0:0:0:70:bassdrum.wav
402,192,64072,1,0,0:0:0:70:snare.wav
329,192,64181,1,0,0:0:0:70:hihat.wav
182,192,64181,1,0,0:0:0:0:
402,192,64290,1,0,0:0:0:0:
475,192,64399,1,0,0:0:0:70:snare.wav
256,192,64616,1,0,0:0:0:70:hihat.wav
329,192,64833,128,0,65051:0:0:0:0:
475,192,64833,128,0,65051:0:0:0:0:
36,192,64833,1,0,0:0:0:70:cymbol.wav
256,192,65051,128,0,65268:0:0:0:0:
402,192,65051,128,0,65268:0:0:0:0:
182,192,65268,128,0,65485:0:0:0:0:
36,192,65268,128,0,65485:0:0:0:0:
109,192,65485,128,0,65703:0:0:0:0:
256,192,65485,128,0,65703:0:0:0:0:
475,192,65703,128,0,66572:0:0:0:0:
402,192,65703,1,0,0:0:0:70:bassdrum.wav
329,192,65812,1,0,0:0:0:70:snare.wav
256,192,65920,1,0,0:0:0:0:
329,192,66029,1,0,0:0:0:0:
36,192,66138,1,0,0:0:0:70:snare.wav
402,192,66138,1,0,0:0:0:70:bassdrum.wav
109,192,66246,1,0,0:0:0:0:
182,192,66355,1,0,0:0:0:0:
109,192,66464,1,0,0:0:0:0:
36,192,66572,1,0,0:0:0:0:
256,192,66572,1,0,0:0:0:70:bassdrum.wav
402,192,66572,128,0,67442:0:0:0:0:
182,192,66790,1,0,0:0:0:70:hihat.wav
109,192,67007,1,0,0:0:0:70:bassdrum.wav
329,192,67007,1,0,0:0:0:70:snare.wav
256,192,67225,1,0,0:0:0:70:hihat.wav
182,192,67442,1,0,0:0:0:70:bassdrum.wav
475,192,67442,1,0,0:0:0:0:
36,192,67442,128,0,68312:0:0:0:0:
256,192,67551,1,0,0:0:0:70:snare.wav
329,192,67659,1,0,0:0:0:70:hihat.wav
182,192,67877,1,0,0:0:0:0:
402,192,67877,1,0,0:0:0:70:snare.wav
109,192,67877,1,0,0:0:0:70:bassdrum.wav
109,192,68094,1,0,0:0:0:70:bassdrum.wav
402,192,68094,1,0,0:0:0:0:
182,192,68094,1,0,0:0:0:0:
475,192,68312,128,0,70051:0:0:0:0:
256,192,68312,1,0,0:0:0:70:cymbol.wav
329,192,68312,1,0,0:0:0:0:
109,192,68312,1,0,0:0:0:70:bassdrum.wav
402,192,68529,1,0,0:0:0:70:hihat.wav
182,192,68746,1,0,0:0:0:70:snare.wav
256,192,68746,1,0,0:0:0:70:bassdrum.wav
36,192,68746,1,0,0:0:0:0:
329,192,68964,1,0,0:0:0:70:hihat.wav
36,192,69072,1,0,0:0:0:0:
182,192,69181,1,0,0:0:0:70:bassdrum.wav
109,192,69290,1,0,0:0:0:70:snare.wav
36,192,69399,1,0,0:0:0:0:
329,192,69399,1,0,0:0:0:70:hihat.wav
109,192,69616,1,0,0:0:0:70:bassdrum.wav
402,192,69616,1,0,0:0:0:70:snare.wav
182,192,69833,1,0,0:0:0:0:
36,192,70051,128,0,71790:0:0:0:0:
256,192,70051,1,0,0:0:0:70:bassdrum.wav
402,192,70051,1,0,0:0:0:0:
109,192,70051,1,0,0:0:0:0:
475,192,70268,1,0,0:0:0:70:hihat.wav
329,192,70485,1,0,0:0:0:0:
182,192,70485,1,0,0:0:0:70:snare.wav
109,192,70485,1,0,0:0:0:70:bassdrum.wav
402,192,70703,1,0,0:0:0:70:hihat.wav
182,192,70812,1,0,0:0:0:0:
329,192,70920,1,0,0:0:0:70:bassdrum.wav
256,192,71029,1,0,0:0:0:70:snare.wav
182,192,71138,1,0,0:0:0:0:
475,192,71138,1,0,0:0:0:70:hihat.wav
402,192,71355,1,0,0:0:0:70:bassdrum.wav
256,192,71355,1,0,0:0:0:70:snare.wav
329,192,71572,1,0,0:0:0:0:
475,192,71572,1,0,0:0:0:0:
329,192,71790,128,0,72659:0:0:0:70:bassdrum.wav
402,192,71790,1,0,0:0:0:70:cymbol.wav
109,192,71790,1,0,0:0:0:0:
182,192,72007,1,0,0:0:0:0:
36,192,72116,1,0,0:0:0:0:
475,192,72225,1,0,0:0:0:70:bassdrum.wav
256,192,72225,1,0,0:0:0:70:snare.wav
109,192,72442,1,0,0:0:0:0:
182,192,72659,128,0,73529:0:0:0:70:bassdrum.wav
36,192,72659,1,0,0:0:0:70:cymbol.wav
329,192,72877,1,0,0:0:0:0:
475,192,72985,1,0,0:0:0:0:
36,192,73094,1,0,0:0:0:70:snare.wav
256,192,73094,1,0,0:0:0:70:bassdrum.wav
402,192,73312,1,0,0:0:0:0:
36,192,73529,1,0,0:0:0:70:cymbol.wav
475,192,73529,1,0,0:0:0:0:
109,192,73638,1,0,0:0:0:0:
402,192,73638,1,0,0:0:0:0:
182,192,73746,1,0,0:0:0:0:
329,192,73746,1,0,0:0:0:0:
109,192,73855,1,0,0:0:0:0:
402,192,73855,1,0,0:0:0:0:
36,192,73964,1,0,0:0:0:70:snare.wav
475,192,73964,1,0,0:0:0:70:bassdrum.wav
256,192,74072,1,0,0:0:0:0:
182,192,74181,1,0,0:0:0:0:
329,192,74181,1,0,0:0:0:0:
109,192,74290,1,0,0:0:0:0:
402,192,74290,1,0,0:0:0:0:
36,192,74399,128,0,74616:0:0:0:0:
475,192,74399,128,0,74616:0:0:0:0:
329,192,74616,128,0,74833:0:0:0:0:
182,192,74616,128,0,74833:0:0:0:0:
109,192,74833,128,0,75051:0:0:0:0:
402,192,74833,128,0,75051:0:0:0:0:
36,192,75051,128,0,75268:0:0:0:0:
475,192,75051,128,0,75268:0:0:0:0:
329,192,75268,128,0,77007:0:0:0:0:
182,192,75268,1,0,0:0:0:70:cymbol.wav
256,192,75268,1,0,0:0:0:70:bassdrum.wav
109,192,75268,1,0,0:0:0:0:
475,192,75485,1,0,0:0:0:70:hihat.wav
109,192,75703,1,0,0:0:0:0:
182,192,75703,1,0,0:0:0:70:snare.wav
36,192,75703,1,0,0:0:0:70:bassdrum.wav
402,192,75920,1,0,0:0:0:70:hihat.wav
36,192,76138,1,0,0:0:0:70:bassdrum.wav
109,192,76246,1,0,0:0:0:70:snare.wav
182,192,76355,1,0,0:0:0:0:
256,192,76355,1,0,0:0:0:70:hihat.wav
109,192,76464,1,0,0:0:0:0:
36,192,76572,1,0,0:0:0:70:bassdrum.wav
475,192,76572,1,0,0:0:0:70:snare.wav
475,192,76790,1,0,0:0:0:0:
109,192,77007,128,0,78746:0:0:0:0:
36,192,77007,1,0,0:0:0:0:
182,192,77007,1,0,0:0:0:0:
256,192,77007,1,0,0:0:0:70:bassdrum.wav
402,192,77225,1,0,0:0:0:70:hihat.wav
182,192,77442,1,0,0:0:0:0:
256,192,77442,1,0,0:0:0:70:bassdrum.wav
475,192,77442,1,0,0:0:0:70:snare.wav
329,192,77659,1,0,0:0:0:70:hihat.wav
182,192,77877,1,0,0:0:0:70:bassdrum.wav
256,192,77985,1,0,0:0:0:70:snare.wav
329,192,78094,1,0,0:0:0:70:hihat.wav
36,192,78094,1,0,0:0:0:0:
256,192,78203,1,0,0:0:0:0:
182,192,78312,1,0,0:0:0:70:bassdrum.wav
475,192,78312,1,0,0:0:0:70:snare.wav
256,192,78529,1,0,0:0:0:70:bassdrum.wav
402,192,78529,1,0,0:0:0:70:hihat.wav
256,192,78746,1,0,0:0:0:70:bassdrum.wav
36,192,78746,128,0,79181:0:0:0:0:
329,192,78964,128,0,79181:0:0:0:0:
475,192,78964,128,0,79181:0:0:0:0:
109,192,79181,128,0,79616:0:0:0:0:
402,192,79399,128,0,79616:0:0:0:0:
256,192,79399,128,0,79616:0:0:0:0:
475,192,79616,128,0,80485:0:0:0:0:
36,192,79616,1,0,0:0:0:70:bassdrum.wav
182,192,79725,1,0,0:0:0:70:snare.wav
329,192,79833,1,0,0:0:0:0:
182,192,79942,1,0,0:0:0:0:
402,192,80051,1,0,0:0:0:70:bassdrum.wav
36,192,80051,1,0,0:0:0:70:snare.wav
329,192,80159,1,0,0:0:0:0:
256,192,80268,1,0,0:0:0:0:
329,192,80377,1,0,0:0:0:0:
36,192,80485,128,0,82225:0:0:0:0:
402,192,80485,1,0,0:0:0:70:bassdrum.wav
109,192,80485,1,0,0:0:0:0:
182,192,80485,1,0,0:0:0:0:
256,192,80703,1,0,0:0:0:70:hihat.wav
182,192,80920,1,0,0:0:0:70:bassdrum.wav
329,192,80920,1,0,0:0:0:0:
475,192,80920,1,0,0:0:0:70:snare.wav
256,192,81138,1,0,0:0:0:70:hihat.wav
109,192,81355,1,0,0:0:0:70:bassdrum.wav
402,192,81355,1,0,0:0:0:0:
182,192,81572,1,0,0:0:0:70:hihat.wav
256,192,81790,1,0,0:0:0:0:
402,192,81790,1,0,0:0:0:70:snare.wav
109,192,81790,1,0,0:0:0:70:bassdrum.wav
256,192,82007,1,0,0:0:0:0:
402,192,82007,1,0,0:0:0:0:
109,192,82007,1,0,0:0:0:70:bassdrum.wav
475,192,82225,128,0,83964:0:0:0:0:
329,192,82225,1,0,0:0:0:70:cymbol.wav
109,192,82225,1,0,0:0:0:70:bassdrum.wav
182,192,82225,1,0,0:0:0:0:
256,192,82442,1,0,0:0:0:70:hihat.wav
329,192,82551,1,0,0:0:0:0:
36,192,82659,1,0,0:0:0:0:
182,192,82659,1,0,0:0:0:70:snare.wav
402,192,82659,1,0,0:0:0:70:bassdrum.wav
329,192,82877,1,0,0:0:0:70:hihat.wav
36,192,83094,1,0,0:0:0:70:bassdrum.wav
109,192,83203,1,0,0:0:0:70:snare.wav
182,192,83312,1,0,0:0:0:70:hihat.wav
256,192,83420,1,0,0:0:0:0:
329,192,83529,1,0,0:0:0:70:snare.wav
109,192,83529,1,0,0:0:0:70:bassdrum.wav
36,192,83746,1,0,0:0:0:0:
256,192,83746,1,0,0:0:0:70:hihat.wav
109,192,83964,128,0,85703:0:0:0:0:
182,192,83964,1,0,0:0:0:0:
402,192,83964,1,0,0:0:0:70:bassdrum.wav
329,192,84181,1,0,0:0:0:0:
402,192,84290,1,0,0:0:0:0:
36,192,84399,1,0,0:0:0:0:
256,192,84399,1,0,0:0:0:70:bassdrum.wav
475,192,84399,1,0,0:0:0:70:snare.wav
402,192,84616,1,0,0:0:0:0:
182,192,84833,1,0,0:0:0:70:bassdrum.wav
256,192,84942,1,0,0:0:0:70:snare.wav
329,192,85051,1,0,0:0:0:70:hihat.wav
402,192,85159,1,0,0:0:0:0:
475,192,85268,1,0,0:0:0:0:
256,192,85268,1,0,0:0:0:70:bassdrum.wav
36,192,85268,1,0,0:0:0:0:
182,192,85485,1,0,0:0:0:0:
402,192,85485,1,0,0:0:0:0:
329,192,85703,128,0,86138:0:0:0:0:
36,192,85703,1,0,0:0:0:0:
256,192,85703,1,0,0:0:0:0:
182,192,85920,1,0,0:0:0:0:
402,192,86138,1,0,0:0:0:70:snare.wav
475,192,86138,1,0,0:0:0:0:
36,192,86138,1,0,0:0:0:0:
109,192,86355,1,0,0:0:0:0:
182,192,86572,128,0,87007:0:0:0:0:
256,192,86572,1,0,0:0:0:0:
475,192,86572,1,0,0:0:0:0:
329,192,86790,1,0,0:0:0:0:
36,192,87007,1,0,0:0:0:70:snare.wav
109,192,87007,1,0,0:0:0:0:
475,192,87007,1,0,0:0:0:0:
402,192,87225,1,0,0:0:0:0:
329,192,87442,128,0,87877:0:0:0:0:
36,192,87442,1,0,0:0:0:0:
256,192,87442,1,0,0:0:0:0:
182,192,87659,1,0,0:0:0:0:
402,192,87877,1,0,0:0:0:0:
475,192,87877,1,0,0:0:0:70:snare.wav
36,192,87877,1,0,0:0:0:0:
256,192,88094,1,0,0:0:0:0:
109,192,88094,1,0,0:0:0:0:
475,192,88312,128,0,88746:0:0:0:0:
402,192,88312,128,0,88529:0:0:0:0:
36,192,88312,1,0,0:0:0:0:
182,192,88312,1,0,0:0:0:0:
256,192,88529,128,0,88746:0:0:0:0:
182,192,88746,128,0,89181:0:0:0:70:snare.wav
36,192,88746,128,0,88964:0:0:0:0:
329,192,88964,128,0,89181:0:0:0:0:
475,192,89181,1,0,0:0:0:0:
402,192,89290,1,0,0:0:0:0:
329,192,89399,1,0,0:0:0:0:
256,192,89507,1,0,0:0:0:0:
36,192,89616,1,0,0:0:0:0:
109,192,89725,1,0,0:0:0:0:
182,192,89833,1,0,0:0:0:0:
256,192,89942,1,0,0:0:0:0:
329,192,90051,128,0,90377:0:0:0:0:
182,192,90159,128,0,90485:0:0:0:0:
36,192,90268,128,0,90594:0:0:0:0:
402,192,90377,128,0,90703:0:0:0:0:
256,192,90485,128,0,90812:0:0:0:0:
109,192,90594,128,0,90920:0:0:0:0:
475,192,90703,1,0,0:0:0:0:
329,192,90812,1,0,0:0:0:0:
182,192,90920,128,0,94399:0:0:0:0:
