osu file format v9

[General]
AudioFilename: FripSide - Fortissimo -The Ultimate Crisis-.mp3
AudioLeadIn: 2000
PreviewTime: 67066
Countdown: 0
SampleSet: Soft
StackLeniency: 0.7
Mode: 0
LetterboxInBreaks: 1

[Editor]
Bookmarks: 14679,28390,39731,54576,67050,92927,111174,146844,174679,189731,204885,220040,254267,270349
DistanceSpacing: 1
BeatDivisor: 4
GridSize: 8

[Metadata]
Title:fortissimo -the ultimate crisis-
Artist:fripSide
Creator:Nekoo[]
Version:Normal
Source:fortissimo//Akkord:Bsusvier
Tags:Roddie visual novel

[Difficulty]
HPDrainRate:4
CircleSize:3
OverallDifficulty:5
ApproachRate:5
SliderMultiplier:1.4
SliderTickRate:1

[Events]
//Background and Video events
0,0,"BGfort.jpg"
//Break Periods
2,27266,39062
2,108092,119887
2,175720,187516
2,205616,216176
//Storyboard Layer 0 (Background)
//Storyboard Layer 1 (Fail)
//Storyboard Layer 2 (Pass)
//Storyboard Layer 3 (Foreground)
//Storyboard Sound Samples
//Background Colour Transformations
3,100,163,162,255

[TimingPoints]
675,412.371134020619,4,2,1,100,1,0
68303,-100,4,2,1,100,0,1
94283,-100,4,2,1,100,0,0
149128,-100,4,2,1,100,0,1
175520,-100,4,2,1,100,0,0
218406,-100,4,2,1,100,0,1
256551,-100,4,2,1,100,0,0

[Colours]
Combo1 : 112,27,29
Combo2 : 247,215,220
Combo3 : 237,84,96

[HitObjects]
48,288,675,2,0,B|88:328|88:328|176:328,1,140,6|8
312,304,1499,2,0,B|344:280|344:280|408:280|408:280|448:256,1,140,2|8
440,120,2324,2,0,B|409:101|409:101|337:101|337:101|313:77,1,140,2|8
171,56,3149,2,0,B|88:56|88:56|48:96,1,140,2|8
176,160,3973,6,0,B|128:240,1,70,14|8
208,256,4386,2,0,B|256:176,1,70,2|8
312,232,4798,2,0,B|264:312,1,70,8|2
344,328,5211,2,0,B|392:248,1,70,8|2
416,200,5623,6,0,B|464:120,1,70,12|2
384,104,6035,2,0,B|432:24,1,70,0|2
344,24,6448,2,0,B|296:104,1,70,8|8
248,32,6860,2,0,B|200:112,1,70,8|8
256,160,7272,6,0,B|200:184|152:160|136:112,1,140,6|8
176,256,8097,2,0,B|120:232|72:256|56:304,1,140,2|8
176,376,8922,2,0,B|320:376,1,140,2|8
440,312,9747,2,0,B|472:288|472:288|472:168,1,140,2|8
472,48,10571,5,12
384,152,10984,1,2
296,40,11396,1,12
184,128,11809,1,2
48,112,12221,1,12
48,320,12839,5,8
48,320,13046,2,0,B|192:320,1,140,8|8
188,320,13664,2,0,B|224:368|272:368|304:320,1,140,14|2
408,224,14489,6,0,B|464:176,1,70,2|2
461,178,14901,2,0,B|461:100,1,70,0|10
461,109,15314,2,0,B|425:61|377:61|345:109,1,140,0|2
346,107,15932,2,0,B|280:160,1,70,8|2
88,104,16757,5,10
88,240,17169,2,0,B|88:320|88:320|48:368,2,140,2|10|2
208,312,18406,2,0,B|248:352|248:352|344:352,1,140,10|2
464,192,19437,5,8
464,192,19644,2,0,B|408:184|368:136|368:96,1,140,8|8
424,64,20262,2,0,B|392:96|344:112|296:112,1,140,14|2
160,104,21087,5,2
160,104,21293,2,0,B|112:64|64:56|32:56,1,140,2|10
31,55,21912,2,0,B|32:216,1,140,2|2
31,195,22530,2,0,B|32:272,1,70,0|2
232,320,23355,6,0,B|312:336,1,70,10|0
368,320,23767,2,0,B|448:304,1,70,2|0
472,248,24180,2,0,B|504:184,2,70,10|0|2
360,168,25004,1,10
288,184,25211,2,0,B|264:232|200:232|176:184,1,140,2|2
256,192,25726,12,4,27066
440,128,40262,6,0,B|376:280,1,140,2|2
256,320,41087,2,0,B|320:168,1,140,2|2
256,64,41912,2,0,B|192:216,1,140,10|2
201,193,42530,2,0,B|168:280,1,70,0|2
16,32,43561,6,0,B|56:72|56:72|152:72,1,140,10|2
272,128,44386,2,0,B|304:168|304:168|360:168|360:168|392:200,1,140,2|2
256,248,45211,2,0,B|256:360,2,105,10|2|0
256,248,46035,1,2
56,56,46860,6,0,B|56:208,1,140,10|2
152,304,47685,2,0,B|152:152,1,140,2|2
184,104,48303,2,0,B|224:88|240:56,1,70,8|10
464,232,49334,6,0,B|464:104,2,105,2|2|0
424,288,50159,2,0,B|392:336|392:336|296:336,1,140,10|2
168,336,50984,2,0,B|56:336,2,105,2|2|8
224,288,51809,2,0,B|312:192|312:192|224:72,1,280,10|2
480,32,53458,6,0,B|360:104,1,140,6|8
328,240,54283,2,0,B|448:168,1,140,2|8
416,304,55107,2,0,B|312:368,2,105,2|2|0
472,264,55932,1,2
264,80,56757,6,0,B|224:112|176:112|136:80,1,140,6|8
8,80,57582,2,0,B|48:47|96:47|136:79,1,140,2|8
136,219,58406,2,0,B|136:331,2,105,2|2|0
136,152,59231,1,2
256,80,59644,5,2
392,80,60056,2,0,B|480:192|480:192|392:296,1,280,6|0
256,248,61293,1,10
128,296,61705,2,0,B|40:184|40:184|128:80,2,280,6|2|6
256,248,63767,5,10
352,144,64180,2,0,B|432:56,2,105,2|2|0
280,152,65004,2,0,B|176:160,2,105,6|6|0
312,88,65829,1,6
48,56,67272,6,0,B|48:128,1,70,8|8
80,192,67685,2,0,B|120:256,1,70,0|8
184,280,68097,2,0,B|256:296,1,70,8|14
320,304,68510,1,2
432,192,68922,6,0,B|256:64,1,210,2|10
208,112,69747,2,0,B|83:203,1,140,2|2
48,248,70365,2,0,B|48:296|16:328,1,70,8|2
256,296,71190,6,0,B|256:200,2,70,10|0|2
392,248,72015,1,10
392,112,72427,1,2
256,64,72839,2,0,B|256:152,2,70,10|0|2
8,192,74077,6,0,B|96:192,2,70,8|8|8
24,256,74695,2,0,B|48:304|96:320|152:304,1,140,14|2
256,224,75520,5,2
256,224,75726,2,0,B|256:64,1,140,2|10
320,56,76345,2,0,B|352:96|408:96|440:56,1,140,2|2
480,112,76963,2,0,B|520:176,1,70,8|2
368,320,77788,6,0,B|296:320,1,70,10|0
232,320,78200,1,2
112,248,78613,2,0,B|48:208,1,70,10|0
0,176,79025,1,2
112,96,79437,1,10
176,72,79644,2,0,B|208:32|264:32|296:72,1,140,2|2
464,192,80675,6,0,B|464:120,2,70,8|8|8
424,248,81293,2,0,B|392:288|336:288|304:248,1,140,14|2
256,120,82118,5,2
256,120,82324,1,2
120,144,82736,1,10
120,144,82943,2,0,B|112:208|80:240|32:256,1,140,2|2
48,320,83561,2,0,B|88:312|112:344,1,70,8|2
256,192,84386,5,10
256,192,84798,1,2
488,40,85623,1,2
368,120,86035,1,10
368,120,86448,1,2
96,40,87272,6,0,B|240:40,1,140,8|8
224,112,87891,2,0,B|192:144|176:192|192:240,1,140,14|2
320,336,88716,5,2
320,336,88922,2,0,B|400:336,2,70,2|0|10
248,336,89540,2,0,B|88:336,1,140,2|2
40,304,90159,2,0,B|0:272|16:224,1,70,8|2
120,64,90984,6,0,B|152:24|208:24|240:64,1,140,10|2
304,192,91809,2,0,B|272:232|216:232|184:192,2,140,10|2|10
344,136,92839,2,0,B|376:96|432:96|464:136,1,140,2|0
504,192,93458,1,10
88,136,94695,6,0,B|120:160|120:160|184:160|184:160|216:184,1,140,6|8
144,304,95520,2,0,B|176:280|176:280|240:280|240:280|272:256,1,140,2|8
376,168,96345,2,0,B|416:144|416:144|512:144,2,140,2|8|2
376,168,97582,1,8
240,192,97994,6,0,B|192:272,2,70,14|8|2
208,120,98613,2,0,B|160:40,2,70,8|8|2
136,152,99231,2,0,B|88:72,1,70,8|2
256,192,99644,12,4,101293
88,240,102118,6,0,B|152:272|152:272|216:240,1,140,2|8
152,112,102943,2,0,B|216:80|216:80|280:112,1,140,2|8
392,189,103767,2,0,B|328:221|328:221|264:189,1,140,2|8
256,328,104592,6,0,B|400:328,1,140,12|2
280,248,105417,2,0,B|136:248,1,140,12|2
256,192,106242,12,4,107892
48,96,121087,6,0,B|64:136|104:168|160:176,1,140,8|8
208,304,121912,2,0,B|224:264|264:232|320:224,1,140,8|8
448,192,122736,2,0,B|408:176|376:136|368:80,1,140,8|8
240,136,123561,1,8
448,320,124386,6,0,B|296:320,1,140,8|8
192,240,125211,2,0,B|344:240,1,140,8|8
448,160,126035,2,0,B|328:160,2,105,8|0|0
448,160,126860,1,8
192,40,127685,6,0,B|56:120,1,140,8|8
24,240,128510,2,0,B|128:176,2,105,8|0|0
24,240,129334,1,8
296,320,130159,6,0,B|400:384|496:312|440:192,1,280,8|8
304,192,131396,1,8
272,56,131809,2,0,B|168:-8|72:64|128:184,1,280,8|12
392,264,133458,1,8
120,320,134283,5,6
240,248,134695,1,8
256,112,135107,1,2
384,56,135520,1,8
448,176,135932,2,0,B|504:272,2,105,2|2|0
448,176,136757,1,2
192,56,137582,6,0,B|152:96|152:96|64:96,1,140,6|8
176,184,138406,2,0,B|216:144|216:144|304:144,1,140,2|8
256,280,139231,2,0,B|256:384,2,105,2|2|0
256,280,140056,1,2
392,256,140468,5,10
480,152,140881,2,0,B|424:152|384:120|384:48,2,140,6|10|2
344,176,142118,5,10
304,40,142530,2,0,B|248:40|208:72|208:144,3,140,6|10|2|10
200,264,144180,1,6
328,320,144592,1,10
424,216,145004,6,0,B|496:136,2,105,2|2|0
368,168,145829,2,0,B|296:88,2,105,6|6|0
368,168,146654,1,6
80,120,148303,5,8
80,264,148716,1,0
96,192,148922,2,0,B|168:192,1,70,8|14
232,192,149334,1,2
448,192,149953,6,0,B|520:192,2,70,2|0|10
392,152,150571,2,0,B|344:120|352:112|360:88|360:88|280:88,1,140,2|2
232,88,151190,2,0,B|160:88,1,70,0|2
256,280,152015,5,10
128,224,152427,2,0,B|88:200|88:200|72:144|72:144|40:112,1,140,2|10
184,120,153252,2,0,B|224:88|224:88|320:88,2,140,2|10|2
456,48,154901,6,0,B|456:120,2,70,8|8|8
384,48,155520,2,0,B|352:88|296:88|264:48,1,140,14|2
256,256,156551,5,2
168,368,156963,1,10
120,312,157169,2,0,B|32:200,1,140,2|2
56,136,157788,2,0,B|96:128|104:88,1,70,8|2
312,64,158613,6,0,B|384:32,2,70,10|0|2
416,152,159437,1,10
280,192,159850,1,2
344,320,160262,2,0,B|416:352,1,70,0|2
480,224,160881,1,2
344,64,161499,5,8
200,64,161912,1,8
200,64,162118,2,0,B|48:64,1,140,14|2
32,200,162943,5,2
32,200,163149,2,0,B|72:232|72:232|160:232,1,140,2|10
232,232,163767,2,0,B|320:232|320:232|360:264,2,140,2|2|2
112,56,165211,6,0,B|176:80,2,70,10|0|2
40,176,166035,1,10
168,232,166448,1,2
80,344,166860,2,0,B|16:320,2,70,10|0|2
288,344,167891,5,8
360,328,168097,2,0,B|416:312|448:280|448:232,1,140,8|8
447,162,168716,2,0,B|447:115|415:83|359:67,1,140,14|2
304,200,169540,5,2
304,200,169747,2,0,B|384:200,2,70,2|0|10
232,200,170365,2,0,B|136:200|136:200|96:232,1,140,2|2
48,272,170984,2,0,B|-8:320,1,70,8|2
80,128,171809,5,10
192,48,172221,1,2
320,96,172633,1,10
456,64,173046,2,0,B|528:48,2,70,2|0|10
256,192,173664,12,4,175520
120,200,188716,6,0,B|232:288,1,140,8|8
192,152,189540,2,0,B|80:64,1,140,8|8
216,40,190365,6,0,B|440:40,1,210,12|8
496,40,191190,2,0,B|424:80|424:168|496:208,1,210,8|8
392,296,192221,2,0,B|320:352,2,70,8|0|8
72,160,193664,6,0,B|8:136,2,70,12|8|8
136,128,194283,2,0,B|80:80,2,70,8|0|8
208,128,194901,2,0,B|184:56,1,70,8|0
256,40,195314,2,0,B|288:56|328:48,1,70,8|0
392,64,195726,2,0,B|432:72|456:104,2,70,8|0|8
464,184,196551,1,8
376,296,196963,6,0,B|328:336|328:336|176:336,1,210,12|8
112,336,197788,2,0,B|40:336,2,70,8|0|8
104,264,198406,2,0,B|40:224,2,70,8|0|8
128,200,199025,2,0,B|88:136,1,70,8|8
152,112,199437,2,0,B|152:40,1,70,8|0
216,72,199850,2,0,B|256:8,1,70,8|0
320,32,200262,5,12
440,104,200675,1,8
448,240,201087,1,8
344,336,201499,1,8
208,352,201912,6,0,B|96:368,1,105,4|8
304,32,203561,6,0,B|416:24,1,105,4|8
424,200,204386,5,2
312,288,204798,1,2
256,240,205004,2,0,B|256:88,1,140,0|2
72,152,217376,5,8
88,224,217582,2,0,B|112:272|160:288|208:272,1,140,8|8
264,232,218200,2,0,B|296:216|336:224,2,70,8|14|2
400,272,219025,5,2
456,232,219231,2,0,B|456:136|456:136|416:88,1,140,2|10
360,80,219850,2,0,B|326:108|326:108|222:108,1,140,2|2
160,108,220468,2,0,B|112:108|112:108|88:132,1,70,8|2
56,328,221293,6,0,B|112:272,1,70,10|0
152,232,221705,1,2
280,296,222118,1,10
416,264,222530,1,2
472,136,222943,2,0,B|416:80,1,70,10|0
376,40,223355,1,2
256,216,223973,5,8
256,144,224180,2,0,B|256:48,2,70,8|8|8
200,184,224798,2,0,B|168:224|112:224|80:184,1,140,14|2
80,320,225623,5,2
144,344,225829,2,0,B|208:368,1,70,2|0
280,344,226242,1,10
320,288,226448,2,0,B|352:248|408:248|440:288,1,140,2|2
440,360,227066,2,0,B|480:384|512:360,1,70,8|2
464,160,227891,6,0,B|472:80,2,70,10|0|2
360,64,228716,1,10
232,112,229128,2,0,B|224:32,2,70,2|0|10
168,136,229747,2,0,B|48:48,1,140,2|2
24,192,230571,5,8
48,256,230778,2,0,B|72:328,2,70,8|8|8
104,216,231396,2,0,B|240:256,1,140,14|2
376,288,232221,5,2
440,264,232427,2,0,B|480:248|488:208,1,70,2|0
488,144,232839,1,10
440,96,233046,2,0,B|392:72|392:72|304:72,1,140,2|2
240,104,233664,2,0,B|200:120|160:112,1,70,8|2
240,312,234489,5,10
240,312,234901,1,2
120,240,235314,2,0,B|48:200,2,70,10|0|2
112,104,236138,1,10
112,104,236551,1,2
312,56,237169,6,0,B|384:64,1,70,8|8
400,128,237582,2,0,B|464:160,1,70,8|8
432,224,237994,2,0,B|456:288,2,70,14|0|2
344,336,238819,5,2
272,336,239025,2,0,B|120:336,1,140,2|10
64,336,239644,2,0,B|104:304|104:248|64:216,1,140,2|2
8,168,240262,2,0,B|0:128|16:96,1,70,8|2
216,40,241087,5,10
216,40,241499,1,2
352,88,241912,2,0,B|416:112,2,70,10|0|2
408,216,242736,1,10
376,280,242943,2,0,B|352:320|352:320|248:320,1,140,2|2
118,320,243767,5,8
64,280,243973,2,0,B|0:232,1,70,8|8
64,200,244386,2,0,B|48:128,1,70,8|14
168,56,245004,1,2
312,56,245417,5,2
328,120,245623,2,0,B|344:192,2,70,0|0|2
384,80,246242,2,0,B|496:176,1,140,2|2
424,184,246860,2,0,B|456:256,1,70,8|2
256,320,247685,5,10
128,264,248097,1,2
128,120,248510,1,10
256,56,248922,1,2
384,120,249334,1,10
384,264,249747,1,2
256,152,250365,6,0,B|256:224,1,70,8|8
184,208,250778,2,0,B|128:264,1,70,8|8
104,192,251190,2,0,B|-24:256,1,140,6|2
88,344,252015,5,2
152,328,252221,2,0,B|232:304,1,70,2|0
280,344,252633,1,10
312,280,252839,2,0,B|368:152,1,140,2|2
432,128,253458,2,0,B|512:104,1,70,8|2
296,72,254283,6,0,B|264:112|208:112|176:72,1,140,10|2
152,208,255107,2,0,B|120:168|64:168|32:208,2,140,10|2|10
192,264,256138,2,0,B|224:304|280:304|312:264,1,140,2|2
384,248,256757,6,0,B|456:232,1,70,12|0
416,176,257169,2,0,B|480:136,1,70,4|0
408,112,257582,2,0,B|440:48,1,70,4|12
368,40,257994,6,0,B|216:40,1,140,14|8
112,120,258819,2,0,B|264:120,1,140,2|8
368,200,259644,2,0,B|216:200,1,140,2|8
112,280,260468,2,0,B|264:280,1,140,2|8
384,312,261293,6,0,B|496:344,2,105,14|8|8
424,256,262118,2,0,B|464:200,1,70,8|2
416,152,262530,2,0,B|432:80,1,70,8|2
360,64,262943,6,0,B|248:32,2,105,12|10|2
296,96,263767,2,0,B|232:120,1,70,8|8
272,176,264180,2,0,B|232:232,1,70,8|8
184,288,264592,5,6
56,240,265004,1,8
56,96,265417,1,2
184,32,265829,1,8
312,96,266242,1,2
312,240,266654,1,8
440,288,267066,1,2
440,288,267479,1,8
256,192,267891,12,4,269540
72,304,271190,6,0,B|100:275|100:275|151:270|151:270|185:236,1,140,6|8
325,235,272015,2,0,B|358:271|358:271|406:271|406:271|438:303,2,140,2|8|2
256,360,273252,2,0,B|256:216,1,140,8|2
256,80,274077,1,8
120,120,274489,6,0,B|48:144,2,70,14|8|2
112,192,275107,2,0,B|72:248,2,70,8|8|2
120,264,275726,2,0,B|112:336,1,70,8|2
176,304,276138,5,12
312,336,276551,1,8
440,280,276963,2,0,B|504:248,2,70,8|8|8
416,216,277582,1,8
392,152,277788,5,6
312,40,278200,1,8
168,40,278613,1,2
88,152,279025,1,8
168,264,279437,1,2
312,264,279850,1,8
392,152,280262,2,0,B|224:152,1,140,2|8
144,64,281087,6,0,B|112:24|56:24|24:64,1,140,12|2
23,205,281912,2,0,B|55:245|111:245|143:205,1,140,12|2
240,104,282736,6,0,B|352:16,1,140,12|8
392,72,283355,1,8
352,128,283561,2,0,B|464:216,1,140,8|8
400,256,284180,1,8
256,192,284386,12,4,286035
