osu file format v9

[General]
AudioFilename: FripSide - Fortissimo -The Ultimate Crisis-.mp3
AudioLeadIn: 2000
PreviewTime: 67066
Countdown: 0
SampleSet: Soft
StackLeniency: 0.7
Mode: 0
LetterboxInBreaks: 1

[Editor]
Bookmarks: 14679,28390,39731,54576,67050,92927,111174,146844,174679,189731,204885,220040,254267,270349
DistanceSpacing: 1
BeatDivisor: 4
GridSize: 8

[Metadata]
Title:fortissimo -the ultimate crisis-
Artist:fripSide
Creator:Nekoo[]
Version:Easy
Source:fortissimo//Akkord:Bsusvier
Tags:Roddie visual novel

[Difficulty]
HPDrainRate:2
CircleSize:3
OverallDifficulty:3
ApproachRate:3
SliderMultiplier:1
SliderTickRate:1

[Events]
//Background and Video events
0,0,"BGfort.jpg"
//Break Periods
2,27266,38822
2,108091,119647
2,175720,188925
2,205616,216142
//Storyboard Layer 0 (Background)
//Storyboard Layer 1 (Fail)
//Storyboard Layer 2 (Pass)
//Storyboard Layer 3 (Foreground)
//Storyboard Sound Samples
//Background Colour Transformations
3,100,163,162,255

[TimingPoints]
675,412.371134020619,4,2,1,100,1,0
68303,-100,4,2,1,100,0,1
94283,-100,4,2,1,100,0,0
149128,-100,4,2,1,100,0,1
175520,-100,4,2,1,100,0,0
218406,-100,4,2,1,100,0,1
256551,-100,4,2,1,100,0,0

[Colours]
Combo1 : 112,27,29
Combo2 : 247,215,220
Combo3 : 237,84,96

[HitObjects]
40,192,675,6,0,B|136:224,1,100,6|8
200,152,1499,2,0,B|296:120,1,100,2|8
352,200,2324,2,0,B|448:232,1,100,2|8
488,136,3149,2,0,B|488:24,1,100,2|8
392,32,3973,6,0,B|360:136|192:136|160:32,1,300,6|8
72,72,5623,2,0,B|184:176|-8:264|80:352,1,300,6|8
176,328,7272,6,0,B|280:304,1,100,6|8
328,224,8097,2,0,B|328:120,2,100,2|8|2
384,304,9334,2,0,B|488:328,1,100,8|2
481,326,10159,1,8
480,224,10571,5,4
336,80,11396,1,4
136,80,12221,1,4
48,256,13046,5,2
48,256,13458,2,0,B|40:320|96:352|160:328,1,150,2|2
256,232,14695,5,2
256,136,15107,1,8
186,206,15520,2,0,B|234:246|274:246|322:206,1,150,2|2
472,48,16757,6,0,B|472:160,1,100,10|2
384,96,17582,2,0,B|296:152,1,100,10|2
216,96,18406,2,0,B|104:96,1,100,10|2
152,296,19644,6,0,B|208:376|304:376|360:296,1,250,8|8
256,192,21293,5,2
184,120,21705,2,0,B|240:40|336:40|392:120,1,250,8|2
472,248,23355,5,10
376,280,23767,2,0,B|280:304,1,100,2|10
184,328,24592,2,0,B|88:304,2,100,2|10|0
256,192,25623,12,4,27066
16,232,40262,6,0,B|24:360|200:360|208:232,1,300,2|0
308,233,41912,2,0,B|316:361|492:361|500:233,1,300,2|0
488,136,43561,6,0,B|400:208|264:152|272:32,1,300,2|0
364,76,45211,2,0,B|324:140|252:148|188:92,1,200,2|2
32,224,46860,6,0,B|40:344|198:374|266:275,1,300,2|0
257,286,48510,1,2
188,98,49334,6,0,B|196:178|316:178|324:98,1,200,2|2
408,48,50571,1,2
480,120,50984,2,0,B|432:168|432:168|432:312,1,200,2|4
432,300,52633,1,2
231,300,53458,5,6
128,312,53870,1,8
48,248,54283,2,0,B|16:224|8:192|8:160,1,100,2|8
104,160,55107,2,0,B|176:176|248:144|264:72,1,200,2|2
448,152,56757,6,0,B|448:48,2,100,6|8|2
448,256,57994,1,8
376,328,58406,2,0,B|336:376|336:376|192:376,1,200,2|2
98,376,59644,5,10
16,328,60056,2,0,B|56:272|80:208|88:136,1,200,6|0
88,40,61293,5,10
184,64,61705,2,0,B|288:88,1,100,6|8
336,168,62530,2,0,B|432:224,1,100,2|8
512,264,63355,5,6
456,344,63767,1,10
368,296,64180,2,0,B|272:240,1,100,2|8
208,312,65004,2,0,B|144:360|80:360|24:312,1,200,4|4
256,56,67479,6,0,B|304:120|208:184|256:248,1,200,8|6
448,192,69128,5,2
416,288,69540,1,8
328,336,69953,2,0,B|280:360|216:352|176:320,1,150,2|2
104,200,71190,6,0,B|48:112,1,100,10|2
144,80,72015,2,0,B|200:168,1,100,10|2
288,120,72839,2,0,B|376:64,1,100,10|2
472,240,74077,6,0,B|472:352|368:376|288:328,1,250,8|2
160,272,75726,5,2
256,240,76138,1,8
344,184,76551,2,0,B|392:152|416:112|424:48,1,150,2|2
272,48,77788,5,10
272,48,78200,1,0
72,88,79025,1,2
32,176,79437,2,2,B|16:216|16:216|16:328,1,150,10|2
168,344,80675,6,0,B|432:344,1,250,8|2
464,200,82324,6,0,B|368:248,1,100,2|8
360,144,83149,2,0,B|320:192|272:192|232:144,1,150,2|2
120,48,84386,5,10
120,48,84798,1,2
56,240,85623,1,2
232,336,86448,1,2
424,288,87272,6,0,B|480:224|368:144|424:48,1,250,8|2
288,104,88922,5,2
240,192,89334,1,8
288,104,89747,2,0,B|232:112|168:88|144:48,1,150,2|2
72,184,90984,6,0,B|8:264,1,100,10|2
104,296,91809,2,0,B|168:376,1,100,10|2
248,312,92633,2,0,B|400:312,1,150,10|2
176,40,94695,6,0,B|280:64,1,100,6|8
192,128,95520,2,0,B|88:152,1,100,2|8
94,150,96345,1,2
94,150,96758,1,8
64,248,97169,2,0,B|24:344,1,100,2|8
256,192,97994,12,4,99644
256,232,101293,6,0,B|256:336,2,100,6|8|2
307,145,102530,2,0,B|379:73,2,100,8|2|8
206,145,103767,2,0,B|134:73,1,100,2|8
135,74,104592,5,4
40,248,105417,1,4
256,192,106242,12,4,107891
64,192,121087,6,0,B|104:224|104:224|144:192,1,100,8|8
216,120,121912,2,0,B|256:88|256:88|296:120,1,100,8|8
368,192,122736,2,0,B|408:224|408:224|448:192,1,100,8|8
446,193,123561,1,8
272,288,124386,6,0,B|240:312|240:312|176:312,1,100,8|8
96,256,125211,2,0,B|24:168,1,100,8|8
56,80,126035,2,0,B|112:136|168:136|232:80,1,200,8|8
432,48,127685,6,0,B|432:112|408:176|360:248,1,200,8|8
368,234,129334,1,8
176,296,130159,6,0,B|80:336,1,100,8|8
56,240,130984,2,0,B|32:136,1,100,8|8
128,104,131809,2,0,B|224:64,1,100,8|8
220,65,132633,1,12
220,65,133458,1,8
416,80,134283,6,0,B|416:192,1,100,6|8
416,180,135107,2,0,B|368:272,1,100,2|8
288,328,135932,2,0,B|232:384|176:384|112:328,1,200,2|2
56,136,137582,6,0,B|56:240,1,100,6|8
152,240,138406,1,2
232,184,138819,1,8
146,131,139231,2,0,B|202:75|258:75|322:131,1,200,2|2
384,208,140468,5,10
320,288,140881,2,0,B|272:336|272:336|136:336,1,200,6|0
39,336,142118,5,10
89,249,142530,2,0,B|89:49,1,200,6|2
256,160,144180,5,6
256,64,144592,1,10
344,112,145004,1,2
344,216,145417,1,8
256,272,145829,2,0,B|184:312|184:312|56:312,1,200,4|4
432,144,148303,5,8
328,152,148716,1,0
248,88,149128,1,6
56,152,149953,6,0,B|136:216,1,100,2|8
72,288,150778,2,0,B|224:328,1,150,2|2
360,360,152015,5,10
440,304,152427,2,0,B|480:264|464:208,1,100,2|10
392,144,153252,2,0,B|352:184|368:240,1,100,2|10
366,235,154077,1,2
256,64,154901,6,0,B|240:144|160:200|56:184,1,250,8|2
160,72,156551,5,2
256,64,156963,1,8
352,80,157376,2,0,B|384:120|440:144|488:144,1,150,2|2
488,296,158613,6,0,B|400:224,1,100,10|2
328,288,159437,2,0,B|240:360,1,100,10|2
168,288,160262,2,0,B|8:288,1,150,10|2
40,136,161499,6,0,B|128:176|224:144|232:40,1,250,8|2
384,48,163149,5,2
312,112,163561,1,8
352,200,163973,2,0,B|416:344,1,150,2|2
280,264,165211,6,0,B|200:328,1,100,10|2
128,264,166035,2,0,B|24:264,1,100,10|2
88,184,166860,2,0,B|166:121,1,100,10|2
256,296,168097,5,8
256,296,168510,2,0,B|256:144,1,150,0|2
256,48,169747,5,2
160,80,170159,1,8
256,48,170571,2,0,B|312:80|312:80|408:80,1,150,2|2
464,216,171809,5,10
464,216,172221,1,2
288,320,173046,1,2
288,320,173458,1,10
256,192,173664,12,4,175520
256,64,190365,6,0,B|256:168,1,100,4|8
192,240,191190,2,0,B|256:280|256:280|320:240,2,150,8|8|8
464,328,193664,6,0,B|352:328,1,100,12|0
320,240,194489,2,0,B|232:288,1,100,8|0
176,208,195314,2,0,B|264:160,1,100,8|8
263,160,196138,1,8
352,112,196551,5,8
352,112,196963,2,0,B|440:160,1,100,12|0
496,240,197788,2,0,B|408:288,1,100,8|0
320,328,198613,2,0,B|272:384|184:384|144:328,1,200,8|8
145,329,199850,1,8
88,248,200262,5,12
64,152,200675,1,0
72,56,201087,1,8
160,96,201499,1,0
256,112,201912,5,4
256,112,203561,1,4
152,280,204386,6,0,B|200:352|304:352|368:280,1,250,2|2
256,80,217582,6,0,B|256:280,1,200,8|6
80,192,219231,5,2
168,152,219644,1,8
72,120,220056,2,0,B|64:176|88:232|120:264,1,150,2|2
256,312,221293,5,10
256,312,221705,1,2
448,256,222530,1,2
416,56,223355,1,2
216,56,224180,6,0,B|168:104|168:104|48:128|48:128|8:176,1,250,8|2
9,324,225829,5,2
104,344,226242,1,8
104,344,226654,2,0,B|160:328|160:328|256:328,1,150,2|2
376,240,227891,6,0,B|464:176,1,100,10|2
456,80,228716,2,0,B|368:144,1,100,10|2
288,88,229540,2,0,B|232:56|232:56|136:56,1,150,10|2
32,152,230778,5,8
32,152,231190,2,0,B|32:312,1,150,0|2
168,232,232427,6,0,B|256:288,1,100,2|8
336,232,233252,2,0,B|432:232|432:232|488:200,1,150,2|2
464,56,234489,6,0,B|408:56|376:96,1,100,10|2
296,152,235314,2,0,B|256:184|200:184,1,100,10|2
152,96,236138,2,0,B|128:48|72:40,1,100,10|2
24,232,237376,6,0,B|48:328|120:360|224:312,1,250,8|2
160,176,239025,5,2
248,136,239437,1,8
344,128,239850,2,0,B|400:120|440:88|456:40,1,150,2|2
488,184,241087,5,10
448,280,241499,1,2
360,328,241912,1,10
264,312,242324,1,2
168,328,242736,2,0,B|80:328|80:328|32:288,1,150,10|2
32,138,243973,5,8
96,64,244386,2,0,B|184:64|184:64|232:104,1,150,0|2
336,208,245623,5,2
424,168,246035,1,8
448,72,246448,2,0,B|408:40|408:40|304:40,1,150,2|2
256,184,247685,5,10
256,184,248097,1,2
160,360,248922,1,2
360,360,249747,1,2
472,192,250571,6,0,B|408:256|408:256|248:256,1,250,8|2
98,256,252221,6,0,B|42:240|42:176,1,100,2|8
144,168,253046,2,0,B|200:152|232:120|248:56,1,150,2|2
392,40,254283,6,0,B|464:112,1,100,10|2
392,176,255107,2,0,B|392:280,1,100,10|2
392,276,255932,1,10
200,320,256757,5,12
104,336,257169,1,4
24,280,257582,1,12
24,184,257994,6,0,B|24:64,1,100,6|8
112,40,258819,2,0,B|136:64|136:64|208:64,1,100,2|8
302,64,259644,2,0,B|368:64|368:64|392:40,1,100,2|8
480,80,260468,2,0,B|480:184,1,100,2|8
424,264,261293,6,0,B|376:360|224:360|176:264,1,300,6|8
277,265,262943,2,0,B|229:361|77:361|29:265,1,300,6|8
29,166,264592,6,0,B|29:46,2,100,6|8|2
128,136,265829,2,0,B|224:96,1,100,8|2
312,64,266654,2,0,B|408:104,2,100,8|2|8
256,192,267891,12,4,269540
256,192,271190,5,6
216,104,271602,1,8
120,112,272015,1,2
96,208,272427,1,8
184,256,272839,1,2
256,192,273252,2,0,B|336:128,2,100,8|2|8
336,256,274489,6,0,B|432:176|432:176|520:176|520:176|488:96,1,300,6|8
400,56,276138,2,0,B|336:24|336:24|176:24|176:24|112:56,1,300,6|8
32,112,277788,5,6
112,176,278200,2,0,B|144:216|200:216,1,100,8|2
264,136,279025,2,0,B|304:168|304:224,1,100,8|2
392,280,279850,2,0,B|360:320|304:320,2,100,8|2|8
440,192,281087,6,0,B|480:96,1,100,4|8
424,16,281912,2,0,B|384:112,1,100,4|10
288,128,282736,2,0,B|328:32,1,100,4|8
224,56,283561,2,0,B|184:152,1,100,8|8
256,192,284386,12,4,286035
