osu file format v9

[General]
AudioFilename: fortissimo -the ultimate crisis-.mp3
AudioLeadIn: 2000
PreviewTime: 67056
Countdown: 0
SampleSet: Normal
StackLeniency: 0.7
Mode: 0
LetterboxInBreaks: 0

[Editor]
DistanceSpacing: 1
BeatDivisor: 4
GridSize: 32

[Metadata]
Title:fortissimo -the ultimate crisis-
Artist:fripSide
Creator:Kuria
Version:Easy
Source:fortissimo//Akkord:Bsusvier
Tags:envi nanjou yoshino puella magi madoka magica mad amv

[Difficulty]
HPDrainRate:1
CircleSize:3
OverallDifficulty:1
ApproachRate:3
SliderMultiplier:0.8
SliderTickRate:1

[Events]
//Background and Video events
Video,0,"the ultimate modification_.avi"
0,0,"Wallpapers-n-Stuff-puella-magi-madoka-magica-24619575-1024-768.jpg"
//Break Periods
2,111278,119533
//Storyboard Layer 0 (Background)
//Storyboard Layer 1 (Fail)
//Storyboard Layer 2 (Pass)
//Storyboard Layer 3 (Foreground)
//Storyboard Sound Samples
//Background Colour Transformations
3,100,163,162,255

[TimingPoints]
589.290193884696,412.27479489329,4,2,1,70,1,0
6361,-100,4,1,1,70,0,0
7185,-100,4,2,2,70,0,0
12132,-100,4,1,1,70,0,0
26974,-125,4,2,1,70,0,0
33571,-125,4,1,1,30,0,0
34395,-125,4,2,1,70,0,0
38518,-125,4,2,1,60,0,0
40167,-125,4,1,1,70,0,0
40992,-125,4,2,1,70,0,0
41816,-125,4,1,1,70,0,0
41919,-125,4,2,1,70,0,0
43465,-125,4,1,1,70,0,0
43568,-125,4,2,1,70,0,0
45114,-125,4,1,1,70,0,0
45217,-125,4,2,1,70,0,0
46763,-125,4,1,1,70,0,0
46866,-125,4,2,1,70,0,0
48413,-125,4,1,1,70,0,0
48515,-125,4,2,1,70,0,0
50061,-125,4,1,1,70,0,0
50164,-125,4,2,1,70,0,0
51711,-125,4,1,1,70,0,0
53360,-100,4,1,1,70,0,0
53566,-100,4,2,2,70,0,0
66552,-100,4,1,1,70,0,0
68202,-100,4,1,1,70,0,1
96237,-100,4,2,2,70,0,0
109429,-100,4,1,1,70,0,0
111078,-100,4,2,1,70,0,0
122621,-100,4,1,1,70,0,0
137464,-100,4,1,1,70,0,1
163850,-100,4,2,2,70,0,0
168797,-100,4,1,1,70,0,0
170446,-100,4,2,2,70,0,0
172095,-100,4,1,1,40,0,0
172506,-100,4,2,1,65,0,0
173331,-100,4,2,1,50,0,0
174155,-100,4,2,1,35,0,0
174980,-100,4,2,1,20,0,0
175598,-100,4,2,1,5,0,0

[Colours]
Combo1 : 91,255,255
Combo2 : 255,128,128
Combo3 : 255,128,64
Combo4 : 128,0,64
Combo5 : 255,128,192

[HitObjects]
48,141,589,2,0,B|121:98|205:125,1,160,4|2
269,168,1826,1,2
288,245,2238,2,0,B|311:330|405:345,1,160,0|2
479,328,3475,1,2
487,248,3887,6,0,B|464:163|370:148,1,160,0|2
294,140,5124,1,2
228,185,5536,2,0,B|155:226|70:192,1,160,0|8
40,120,6773,1,0
108,79,7185,6,0,B|158:44|221:114|271:64,1,160,4|8
335,38,8422,1,2
392,93,8834,2,0,B|443:162|420:252,1,160,0|8
387,317,10071,1,2
312,347,10483,6,0,B|233:356,1,80,0|2
225,276,11308,2,0,B|159:213,1,80,0|2
204,150,12132,2,0,B|237:123|233:77,1,80,0|0
153,87,12957,2,0,B|120:114|124:160,1,80,0|8
165,226,13782,6,0,B|179:316|272:351,1,160,4|0
339,330,15018,1,8
363,253,15431,2,0,B|349:163|256:128,1,160
191,110,16668,1,8
137,169,17080,6,0,B|134:215|84:234,1,80,0|8
15,250,17904,2,0,B|21:299|72:307,1,80,0|8
143,316,18729,2,0,B|197:278|248:343|299:302,1,160
342,238,19966,1,8
307,165,20378,6,0,B|249:101|150:113,1,160,4|0
93,152,21615,1,8
127,224,22027,2,0,B|185:288|284:276,1,160
342,238,23264,1,8
399,182,23676,6,0,B|427:150|421:105,1,80,4|8
499,87,24501,2,0,B|485:46|443:28,1,80,4|8
366,33,25325,2,0,B|307:50|299:113|218:104,1,160,4|0
163,56,26562,1,8
102,113,26974,5,2
108,240,27799,1,0
212,313,28623,2,0,B|276:344|342:311,1,128,2|2
430,228,30273,5,2
343,134,31097,1,0
253,225,31922,2,0,B|194:254|127:224,1,128,2|2
38,135,33571,5,0
114,32,34395,1,0
218,106,35220,2,0,B|275:141|347:113,1,128,2|2
439,197,36869,5,2
398,318,37694,1,0
280,267,38518,2,0,B|217:237|155:269,1,128,2|2
43,185,40167,5,4
132,76,40992,1,2
236,170,41816,2,0,B|297:198|363:167,1,128,0|2
294,44,43465,5,0
154,60,44290,1,2
153,200,45114,2,0,B|159:269|237:301,1,128,0|2
367,292,46764,5,0
434,168,47588,1,2
333,69,48413,2,0,B|266:36|212:77,1,128,0|2
281,200,50062,5,0
160,272,50886,1,2
73,160,51711,2,0,B|16:197|24:273,1,128,4|0
63,342,52948,1,0
141,358,53360,6,0,B|228:369|290:296,1,160,4|8
303,225,54597,1,2
233,186,55009,6,0,B|145:174|83:247,1,160,0|8
89,320,56246,1,2
162,352,56658,6,0,B|219:380|260:304|317:330,1,160,0|8
389,356,57895,1,2
446,300,58307,2,0,B|498:233,1,80,8|0
426,195,59132,2,0,B|442:117,1,80,8|2
386,58,59956,6,0,B|335:27|281:85|221:42,1,160,4|2
150,56,61193,1,2
98,117,61605,2,0,B|60:195|99:277,1,160,0|2
143,336,62842,1,2
218,311,63255,6,0,B|293:274|386:312,2,160,4|2|12
143,340,65316,1,0
114,265,65728,2,0,B|79:179,1,80,2|2
145,139,66553,2,0,B|209:144|252:86,2,120,0|0|0
84,191,68202,6,0,B|39:268|82:359,1,160,4|0
154,358,69439,1,8
228,329,69851,2,0,B|308:300|389:334,1,160
276,214,71500,6,0,B|196:243|115:209,1,160
79,141,72737,1,8
122,73,73149,2,0,B|202:44|283:78,1,160
323,142,74386,1,8
397,170,74798,6,0,B|446:181|487:151,1,80,4|8
500,234,75623,2,0,B|512:274|493:322,1,80,0|8
418,322,76447,2,0,B|341:283|258:314,1,160
153,195,78096,6,0,B|230:234|313:203,1,160,4|4
344,133,79333,1,8
313,58,79746,2,0,B|236:19|153:50,1,160,4|0
115,116,80982,1,8
151,187,81395,6,0,B|182:268|139:348|139:349,2,160,4|0|0
103,122,83456,2,0,B|139:44,1,80,8|0
296,53,84693,6,0,B|283:140|343:214,1,160
359,279,85930,1,8
301,334,86342,2,0,B|217:361|146:307,1,160
115,237,87579,1,8
175,185,87991,6,0,B|259:158|330:212,1,160,4|0
392,254,89228,1,8
452,201,89640,2,0,B|493:127|460:46,1,160
304,84,91289,6,0,B|239:142|141:118,1,160,4|4
80,89,92526,1,0
44,160,92938,2,0,B|10:240|59:321,1,160,4|0
132,295,94175,2,0,B|172:280|227:301,1,80,8|0
363,342,95412,2,0,B|393:314|397:255,1,80
346,207,96237,6,0,B|292:137|188:154,1,160,4|0
132,188,97473,1,2
160,262,97886,2,0,B|214:332|318:315,1,160
371,277,99122,1,2
390,199,99535,6,0,B|411:113|497:88,2,160
369,276,101596,1,2
307,322,102008,2,0,B|260:364|200:291|150:327,1,160,0|4
54,201,103657,6,0,B|101:159|161:232|211:196,1,160
269,148,104894,1,2
349,152,105307,2,0,B|435:177|447:267,1,160
413,338,106543,5,2
335,359,106956,2,0,B|249:334|237:244,1,160
221,166,108193,1,2
168,105,108605,2,0,B|133:82|88:89,1,80,0|2
36,146,109429,6,0,B|44:190|15:236,1,80
76,282,110254,2,0,B|118:310|189:255|235:295,1,160,0|4
256,192,120973,12,0,122622
88,202,123447,6,0,B|160:241,1,80
234,215,124271,2,0,B|303:162|403:196|404:196,1,160,4|0
443,249,125508,1,8
410,321,125920,2,0,B|341:374|241:340|240:340,1,160
199,288,127157,1,8
141,231,127569,6,0,B|108:201|66:203,1,80,0|8
21,139,128394,2,0,B|17:94|54:65,1,80,0|8
124,39,129219,2,0,B|173:71|228:1|285:31,1,160
348,66,130455,1,8
383,137,130868,6,0,B|412:218|345:292,1,160,4|0
276,313,132104,1,8
210,267,132517,2,0,B|140:211|52:235,1,160
107,80,134166,6,0,B|176:135|264:111,1,160,4|4
329,79,135403,1,8
407,98,135815,2,0,B|468:155|462:246,1,160,4|0
418,309,137052,1,8
344,278,137464,6,0,B|265:242|180:276|179:272,2,160,4|0|0
417,310,139525,1,8
441,233,139938,2,0,B|462:148,1,80,0|8
408,94,140762,6,0,B|365:127|297:66|254:106,1,160
185,65,141999,1,8
139,130,142411,2,0,B|96:213,1,80,0|8
168,246,143236,2,0,B|184:326,1,80,0|8
262,308,144060,6,0,B|337:268|430:308,2,160,4|0|0
184,326,146122,2,8,B|145:337|107:313,1,80,8|0
45,263,146946,1,8
71,187,147359,6,0,B|142:136|228:174,1,160,4|4
292,211,148595,1,8
360,169,149008,2,0,B|407:123|393:46,2,120,4|0|0
292,211,150657,6,0,B|228:235|191:182|128:225,1,160,4|0
70,271,151894,1,8
127,326,152306,2,0,B|191:350|228:297|291:340,1,160
357,365,153543,1,8
411,306,153955,6,0,B|458:226,1,80,0|8
395,179,154780,2,0,B|366:94,1,80,0|8
290,91,155604,2,0,B|203:122|137:77,1,160
68,34,156841,1,8
48,112,157253,6,0,B|63:198|5:267,1,160,4|0
84,292,158490,1,8
164,284,158902,2,0,B|233:249|338:287,1,160
444,180,160551,6,0,B|366:221|286:177,1,160,4|4
250,109,161788,1,8
182,151,162201,2,0,B|113:211|126:303,1,160,4|0
183,347,163437,2,0,B|223:328|272:349,1,80,8|4
406,277,164674,5,8
340,130,165499,2,0,B|261:87|171:128,1,160,0|8
94,253,167148,6,0,B|173:296|263:255,1,160,0|8
316,216,168385,1,2
394,225,168797,2,0,B|458:237|494:305,2,120,4|0|0
314,218,170446,6,0,B|233:250|148:188,1,160
109,136,171683,1,2
33,162,172095,1,0
256,192,172301,12,0,175599
