osu file format v12

[General]
AudioFilename: Fripside-The Ultimate Crisis.MP3
AudioLeadIn: 0
PreviewTime: 67116
Countdown: 0
SampleSet: Soft
StackLeniency: 0.7
Mode: 3
LetterboxInBreaks: 0
SpecialStyle: 0
WidescreenStoryboard: 0

[Editor]
DistanceSpacing: 1.2
BeatDivisor: 4
GridSize: 8

[Metadata]
Title:fortissimo -the ultimate crisis-
TitleUnicode:fortissimo -the ultimate crisis-
Artist:fripSide
ArtistUnicode:fripSide
Creator:- R u m i a -
Version:Insane
Source:fortissimo//Akkord:Bsusvier
Tags:Visual Novel
BeatmapID:273738
BeatmapSetID:103856

[Difficulty]
HPDrainRate:7
CircleSize:7
OverallDifficulty:7
ApproachRate:5
SliderMultiplier:1.4
SliderTickRate:1

[Events]
//Background and Video events
0,0,"Fortissimo -The Ultimate Crisis-.jpg",0,0
//Break Periods
//Storyboard Layer 0 (Background)
//Storyboard Layer 1 (Fail)
//Storyboard Layer 2 (Pass)
//Storyboard Layer 3 (Foreground)
//Storyboard Sound Samples
//Background Colour Transformations
3,100,163,162,255

[TimingPoints]
624,412.371134020619,4,2,0,30,1,0
13819,-100,4,2,0,30,0,0
19798,-100,4,2,0,30,0,0
27015,-125,4,2,0,30,0,0
39798,-250,4,2,0,30,0,0
40004,-125,4,2,0,30,0,0
40108,-100,4,2,0,30,0,0
68252,-100,4,2,0,30,0,1
94644,-100,4,2,0,30,0,0
149077,-100,4,2,0,30,0,1
155675,-100,4,2,0,30,0,1
175469,-100,4,2,0,30,0,0
205159,-125,4,2,0,30,0,0
218355,-100,4,2,0,30,0,1
257943,-100,4,2,0,30,0,0

[HitObjects]
256,192,417,1,0,0:0:0:70:bassdrum.wav
402,192,624,1,0,0:0:0:70:bassdrum.wav
36,192,624,1,0,0:0:0:70:cymbol.wav
109,192,830,1,0,0:0:0:70:hihat.wav
36,192,1036,1,0,0:0:0:30:
402,192,1036,1,0,0:0:0:70:bassdrum.wav
256,192,1139,1,0,0:0:0:70:hihat.wav
109,192,1242,1,0,0:0:0:70:hihat.wav
329,192,1448,1,0,0:0:0:70:bassdrum.wav
475,192,1448,1,0,0:0:0:30:
329,192,1654,1,0,0:0:0:70:hihat.wav
475,192,1758,1,0,0:0:0:70:hihat.wav
36,192,1861,1,0,0:0:0:30:
182,192,1861,1,0,0:0:0:70:bassdrum.wav
402,192,2067,1,0,0:0:0:70:hihat.wav
109,192,2273,1,0,0:0:0:30:
256,192,2273,1,0,0:0:0:70:bassdrum.wav
329,192,2376,1,0,0:0:0:70:hihat.wav
402,192,2479,1,0,0:0:0:70:hihat.wav
182,192,2685,1,0,0:0:0:70:bassdrum.wav
329,192,2685,1,0,0:0:0:30:
36,192,2892,1,0,0:0:0:70:hihat.wav
109,192,3098,1,0,0:0:0:70:bassdrum.wav
329,192,3098,1,0,0:0:0:30:
475,192,3304,1,0,0:0:0:70:hihat.wav
182,192,3407,1,0,0:0:0:70:hihat.wav
36,192,3510,1,0,0:0:0:70:bassdrum.wav
402,192,3510,1,0,0:0:0:30:
256,192,3716,1,0,0:0:0:70:hihat.wav
182,192,3922,1,0,0:0:0:70:bassdrum.wav
475,192,3922,128,0,5160:0:0:0:30:
329,192,3922,1,0,0:0:0:30:
109,192,4026,1,0,0:0:0:70:hihat.wav
36,192,4129,1,0,0:0:0:70:hihat.wav
182,192,4335,1,0,0:0:0:70:bassdrum.wav
329,192,4335,1,0,0:0:0:30:
109,192,4438,1,0,0:0:0:70:hihat.wav
402,192,4541,1,0,0:0:0:70:hihat.wav
109,192,4747,1,0,0:0:0:70:hihat.wav
256,192,4747,1,0,0:0:0:70:bassdrum.wav
329,192,4953,1,0,0:0:0:70:hihat.wav
182,192,5056,1,0,0:0:0:70:hihat.wav
256,192,5160,1,0,0:0:0:70:bassdrum.wav
109,192,5366,1,0,0:0:0:70:hihat.wav
402,192,5366,1,0,0:0:0:30:
256,192,5572,1,0,0:0:0:30:clap.wav
36,192,5572,1,0,0:0:0:0:
475,192,5572,1,0,0:0:0:0:
256,192,5984,1,0,0:0:0:70:bassdrum.wav
256,192,6191,1,0,0:0:0:70:bassdrum.wav
256,192,6397,1,0,0:0:0:70:bassdrum.wav
182,192,6603,1,0,0:0:0:70:bassdrum.wav
329,192,6706,1,0,0:0:0:70:bassdrum.wav
475,192,6809,1,0,0:0:0:70:bassdrum.wav
36,192,6809,1,0,0:0:0:30:clap.wav
36,192,7015,1,0,0:0:0:30:
475,192,7015,1,0,0:0:0:70:bassdrum.wav
182,192,7221,1,0,0:0:0:70:cymbol.wav
329,192,7221,1,0,0:0:0:70:bassdrum.wav
109,192,7428,1,0,0:0:0:70:hihat.wav
182,192,7634,1,0,0:0:0:70:bassdrum.wav
256,192,7634,1,0,0:0:0:70:clap.wav
36,192,7634,128,0,8046:0:0:0:30:bassdrum.wav
475,192,7737,1,0,0:0:0:30:
329,192,7840,1,0,0:0:0:70:hihat.wav
109,192,8046,1,0,0:0:0:30:
402,192,8046,1,0,0:0:0:70:bassdrum.wav
182,192,8252,1,0,0:0:0:70:hihat.wav
475,192,8355,1,0,0:0:0:70:hihat.wav
109,192,8459,1,0,0:0:0:70:bassdrum.wav
256,192,8459,1,0,0:0:0:70:clap.wav
36,192,8459,128,0,8871:0:0:0:30:bassdrum.wav
402,192,8665,1,0,0:0:0:70:hihat.wav
182,192,8871,1,0,0:0:0:70:bassdrum.wav
329,192,8871,1,0,0:0:0:30:
109,192,9077,1,0,0:0:0:70:hihat.wav
329,192,9283,1,0,0:0:0:70:bassdrum.wav
256,192,9283,1,0,0:0:0:70:clap.wav
475,192,9283,1,0,0:0:0:30:
402,192,9283,128,0,9696:0:0:0:30:
182,192,9386,1,0,0:0:0:70:hihat.wav
36,192,9489,1,0,0:0:0:70:hihat.wav
109,192,9696,1,0,0:0:0:30:
256,192,9696,1,0,0:0:0:70:bassdrum.wav
475,192,9902,1,0,0:0:0:70:hihat.wav
182,192,10005,1,0,0:0:0:70:hihat.wav
256,192,10108,1,0,0:0:0:70:clap.wav
329,192,10108,1,0,0:0:0:70:bassdrum.wav
402,192,10108,128,0,10520:0:0:0:30:bassdrum.wav
36,192,10314,1,0,0:0:0:70:hihat.wav
182,192,10520,1,0,0:0:0:70:bassdrum.wav
475,192,10520,1,0,0:0:0:30:
109,192,10727,1,0,0:0:0:30:
402,192,10727,1,0,0:0:0:70:hihat.wav
36,192,10933,1,0,0:0:0:70:bassdrum.wav
329,192,10933,1,0,0:0:0:70:clap.wav
109,192,10933,128,0,11345:0:0:0:30:
475,192,11139,1,0,0:0:0:30:
182,192,11139,1,0,0:0:0:70:hihat.wav
256,192,11345,1,0,0:0:0:30:
36,192,11345,1,0,0:0:0:70:bassdrum.wav
329,192,11551,1,0,0:0:0:70:hihat.wav
475,192,11551,1,0,0:0:0:30:
36,192,11758,1,0,0:0:0:70:bassdrum.wav
182,192,11758,1,0,0:0:0:70:clap.wav
109,192,11758,128,0,12170:0:0:0:30:
256,192,11964,1,0,0:0:0:30:
402,192,11964,1,0,0:0:0:70:hihat.wav
182,192,12170,1,0,0:0:0:70:bassdrum.wav
329,192,12170,1,0,0:0:0:30:
475,192,12376,1,0,0:0:0:70:hihat.wav
329,192,12479,1,0,0:0:0:70:hihat.wav
256,192,12582,1,0,0:0:0:70:bassdrum.wav
36,192,12582,1,0,0:0:0:70:clap.wav
109,192,12788,1,0,0:0:0:70:hihat.wav
182,192,12892,1,0,0:0:0:70:hihat.wav
256,192,12995,1,0,0:0:0:70:bassdrum.wav
36,192,12995,1,0,0:0:0:70:clap.wav
475,192,12995,1,0,0:0:0:30:
256,192,13201,1,0,0:0:0:70:bassdrum.wav
182,192,13304,1,0,0:0:0:70:hihat.wav
109,192,13407,1,0,0:0:0:70:clap.wav
402,192,13407,1,0,0:0:0:70:bassdrum.wav
256,192,13613,1,0,0:0:0:70:bassdrum.wav
36,192,13613,1,0,0:0:0:70:hihat.wav
182,192,13716,1,0,0:0:0:70:bassdrum.wav
329,192,13819,1,0,0:0:0:70:bassdrum.wav
475,192,13819,1,0,0:0:0:70:cymbol.wav
109,192,13819,128,0,15469:0:0:0:30:
36,192,14026,1,0,0:0:0:70:hihat.wav
256,192,14129,1,0,0:0:0:70:hihat.wav
402,192,14232,1,0,0:0:0:70:clap.wav
475,192,14232,1,0,0:0:0:70:bassdrum.wav
36,192,14438,1,0,0:0:0:70:hihat.wav
256,192,14644,1,0,0:0:0:70:bassdrum.wav
36,192,14850,1,0,0:0:0:70:hihat.wav
256,192,15056,1,0,0:0:0:70:clap.wav
475,192,15056,1,0,0:0:0:70:bassdrum.wav
36,192,15263,1,0,0:0:0:70:hihat.wav
182,192,15469,1,0,0:0:0:70:bassdrum.wav
475,192,15469,128,0,16294:0:0:0:30:bassdrum.wav
256,192,15675,1,0,0:0:0:70:hihat.wav
182,192,15881,1,0,0:0:0:70:clap.wav
402,192,15881,1,0,0:0:0:70:bassdrum.wav
256,192,16087,1,0,0:0:0:70:hihat.wav
182,192,16294,1,0,0:0:0:70:bassdrum.wav
329,192,16294,128,0,17118:0:0:0:30:
475,192,16500,1,0,0:0:0:70:hihat.wav
182,192,16603,1,0,0:0:0:70:hihat.wav
109,192,16706,1,0,0:0:0:70:bassdrum.wav
402,192,16706,1,0,0:0:0:70:clap.wav
182,192,16912,1,0,0:0:0:70:bassdrum.wav
182,192,17118,1,0,0:0:0:70:bassdrum.wav
36,192,17118,128,0,17943:0:0:0:30:
402,192,17325,1,0,0:0:0:70:hihat.wav
475,192,17325,1,0,0:0:0:30:
109,192,17531,1,0,0:0:0:70:bassdrum.wav
329,192,17531,1,0,0:0:0:70:clap.wav
402,192,17737,1,0,0:0:0:70:hihat.wav
182,192,17943,1,0,0:0:0:70:bassdrum.wav
475,192,17943,128,0,18768:0:0:0:30:
256,192,18149,1,0,0:0:0:70:hihat.wav
329,192,18355,1,0,0:0:0:70:bassdrum.wav
36,192,18355,1,0,0:0:0:70:clap.wav
402,192,18562,1,0,0:0:0:70:hihat.wav
109,192,18768,1,0,0:0:0:70:bassdrum.wav
402,192,18768,1,0,0:0:0:30:
182,192,18871,1,0,0:0:0:70:hihat.wav
256,192,18974,1,0,0:0:0:70:hihat.wav
329,192,19077,1,0,0:0:0:70:hihat.wav
109,192,19180,1,0,0:0:0:70:bassdrum.wav
402,192,19180,1,0,0:0:0:70:clap.wav
182,192,19386,1,0,0:0:0:70:hihat.wav
329,192,19386,1,0,0:0:0:30:
109,192,19593,1,0,0:0:0:70:bassdrum.wav
402,192,19593,1,0,0:0:0:30:
109,192,19799,1,0,0:0:0:70:bassdrum.wav
402,192,19902,1,0,0:0:0:70:bassdrum.wav
109,192,20211,1,0,0:0:0:70:bassdrum.wav
402,192,20211,1,0,0:0:0:30:bassdrum.wav
109,192,20417,1,0,0:0:0:70:bassdrum.wav
475,192,20417,1,0,0:0:0:70:cymbol.wav
256,192,20417,128,0,22067:0:0:0:30:
182,192,20624,1,0,0:0:0:70:hihat.wav
36,192,20727,1,0,0:0:0:70:hihat.wav
109,192,20830,1,0,0:0:0:70:bassdrum.wav
475,192,20830,1,0,0:0:0:70:clap.wav
329,192,21036,1,0,0:0:0:70:hihat.wav
36,192,21242,1,0,0:0:0:70:bassdrum.wav
475,192,21242,1,0,0:0:0:30:
182,192,21448,1,0,0:0:0:70:hihat.wav
36,192,21654,1,0,0:0:0:70:bassdrum.wav
475,192,21654,1,0,0:0:0:70:clap.wav
182,192,21861,1,0,0:0:0:70:hihat.wav
329,192,22067,1,0,0:0:0:70:cymbol.wav
109,192,22067,128,0,22892:0:0:0:70:bassdrum.wav
182,192,22273,1,0,0:0:0:70:hihat.wav
329,192,22479,1,0,0:0:0:70:clap.wav
36,192,22479,1,0,0:0:0:70:bassdrum.wav
402,192,22685,1,0,0:0:0:70:hihat.wav
329,192,22892,1,0,0:0:0:70:bassdrum.wav
475,192,22892,128,0,23716:0:0:0:30:
182,192,23098,1,0,0:0:0:70:hihat.wav
256,192,23201,1,0,0:0:0:70:hihat.wav
329,192,23304,1,0,0:0:0:70:clap.wav
109,192,23304,1,0,0:0:0:70:bassdrum.wav
109,192,23510,1,0,0:0:0:70:bassdrum.wav
329,192,23510,1,0,0:0:0:30:
109,192,23716,1,0,0:0:0:70:bassdrum.wav
329,192,23716,1,0,0:0:0:70:cymbol.wav
182,192,23716,128,0,24541:0:0:0:30:
36,192,23922,1,0,0:0:0:70:hihat.wav
329,192,24129,1,0,0:0:0:70:bassdrum.wav
475,192,24129,1,0,0:0:0:70:clap.wav
36,192,24335,1,0,0:0:0:70:hihat.wav
329,192,24541,1,0,0:0:0:70:cymbol.wav
109,192,24541,128,0,25366:0:0:0:70:bassdrum.wav
36,192,24747,1,0,0:0:0:70:hihat.wav
329,192,24953,1,0,0:0:0:70:bassdrum.wav
475,192,24953,1,0,0:0:0:70:clap.wav
182,192,25160,1,0,0:0:0:70:bassdrum.wav
256,192,25366,1,0,0:0:0:70:bassdrum.wav
475,192,25366,1,0,0:0:0:30:
36,192,25366,128,0,26191:0:0:0:30:
402,192,25469,1,0,0:0:0:70:hihat.wav
329,192,25572,1,0,0:0:0:70:hihat.wav
402,192,25675,1,0,0:0:0:70:hihat.wav
182,192,25778,1,0,0:0:0:30:
256,192,25778,1,0,0:0:0:70:bassdrum.wav
475,192,25778,1,0,0:0:0:70:clap.wav
329,192,25984,1,0,0:0:0:70:hihat.wav
109,192,26191,1,0,0:0:0:70:bassdrum.wav
402,192,26191,1,0,0:0:0:30:
256,192,26294,1,0,0:0:0:70:hihat.wav
402,192,26397,1,0,0:0:0:70:hihat.wav
182,192,26500,1,0,0:0:0:70:hihat.wav
329,192,26603,1,0,0:0:0:70:bassdrum.wav
36,192,26603,1,0,0:0:0:70:clap.wav
329,192,26809,1,0,0:0:0:70:bassdrum.wav
402,192,26912,1,0,0:0:0:70:hihat.wav
182,192,27015,1,0,0:0:0:70:bassdrum.wav
36,192,27015,1,0,0:0:0:70:cymbol.wav
256,192,27015,128,0,40211:0:0:0:30:bassdrum.wav
329,192,27221,1,0,0:0:0:30:
182,192,27428,1,0,0:0:0:30:
329,192,27634,1,0,0:0:0:30:
109,192,28665,1,0,0:0:0:30:
475,192,28665,1,0,0:0:0:30:
402,192,28871,1,0,0:0:0:30:
109,192,29077,1,0,0:0:0:30:
402,192,29283,1,0,0:0:0:30:
36,192,29489,1,0,0:0:0:30:
36,192,30314,1,0,0:0:0:30:
475,192,30314,1,0,0:0:0:30:
182,192,30520,1,0,0:0:0:30:
329,192,30727,1,0,0:0:0:30:
475,192,30933,1,0,0:0:0:30:
36,192,31964,1,0,0:0:0:30:
475,192,31964,1,0,0:0:0:30:
402,192,32170,1,0,0:0:0:30:
109,192,32376,1,0,0:0:0:30:
329,192,32582,1,0,0:0:0:30:
36,192,32788,1,0,0:0:0:30:
182,192,33613,1,0,0:0:0:30:bassdrum.wav
36,192,33613,1,0,0:0:0:30:bassdrum.wav
475,192,33613,128,0,34438:0:0:0:30:
402,192,33819,1,0,0:0:0:30:
109,192,34026,1,0,0:0:0:30:
402,192,34232,1,0,0:0:0:30:
36,192,35263,1,0,0:0:0:30:
475,192,35263,1,0,0:0:0:30:
182,192,35469,1,0,0:0:0:30:
329,192,35675,1,0,0:0:0:30:
475,192,35881,1,0,0:0:0:30:
109,192,36087,1,0,0:0:0:30:
36,192,36912,1,0,0:0:0:30:
475,192,36912,128,0,38562:0:0:0:30:
402,192,37118,1,0,0:0:0:30:
109,192,37325,1,0,0:0:0:30:
329,192,37531,1,0,0:0:0:30:
182,192,37737,1,0,0:0:0:30:
402,192,37943,1,0,0:0:0:30:
109,192,38149,1,0,0:0:0:30:
329,192,38355,1,0,0:0:0:30:
36,192,38562,1,0,0:0:0:30:
182,192,38768,1,0,0:0:0:30:
329,192,38974,1,0,0:0:0:30:
475,192,39180,1,0,0:0:0:30:
109,192,39386,1,0,0:0:0:30:
402,192,39386,1,0,0:0:0:30:
475,192,40211,1,0,0:0:0:70:cymbol.wav
36,192,40211,1,0,0:0:0:70:bassdrum.wav
109,192,40417,1,0,0:0:0:70:hihat.wav
402,192,40830,1,0,0:0:0:70:hihat.wav
109,192,41242,1,0,0:0:0:70:hihat.wav
256,192,41654,1,0,0:0:0:70:bassdrum.wav
402,192,41654,1,0,0:0:0:70:hihat.wav
256,192,41861,1,0,0:0:0:70:hihat.wav
36,192,42067,1,0,0:0:0:70:hihat.wav
475,192,42479,1,0,0:0:0:70:hihat.wav
36,192,42892,1,0,0:0:0:70:hihat.wav
475,192,43304,1,0,0:0:0:70:hihat.wav
256,192,43510,1,0,0:0:0:70:bassdrum.wav
109,192,43716,1,0,0:0:0:70:hihat.wav
402,192,44129,1,0,0:0:0:70:hihat.wav
109,192,44541,1,0,0:0:0:70:hihat.wav
256,192,44953,1,0,0:0:0:70:bassdrum.wav
402,192,44953,1,0,0:0:0:70:hihat.wav
256,192,45160,1,0,0:0:0:70:bassdrum.wav
36,192,45366,1,0,0:0:0:70:hihat.wav
475,192,45778,1,0,0:0:0:70:hihat.wav
36,192,46191,1,0,0:0:0:70:hihat.wav
475,192,46603,1,0,0:0:0:70:hihat.wav
256,192,46809,1,0,0:0:0:70:cymbol.wav
109,192,47015,1,0,0:0:0:70:hihat.wav
402,192,47428,1,0,0:0:0:70:hihat.wav
109,192,47840,1,0,0:0:0:70:hihat.wav
256,192,48252,1,0,0:0:0:70:bassdrum.wav
402,192,48252,1,0,0:0:0:70:hihat.wav
256,192,48459,1,0,0:0:0:70:bassdrum.wav
36,192,48665,1,0,0:0:0:70:hihat.wav
475,192,49077,1,0,0:0:0:70:hihat.wav
36,192,49489,1,0,0:0:0:70:hihat.wav
475,192,49902,1,0,0:0:0:70:hihat.wav
256,192,50108,1,0,0:0:0:70:bassdrum.wav
109,192,50314,1,0,0:0:0:70:hihat.wav
402,192,50727,1,0,0:0:0:70:hihat.wav
109,192,51139,1,0,0:0:0:70:hihat.wav
256,192,51551,1,0,0:0:0:70:bassdrum.wav
402,192,51551,1,0,0:0:0:70:hihat.wav
256,192,51758,1,0,0:0:0:70:cymbol.wav
36,192,51964,1,0,0:0:0:70:hihat.wav
256,192,52067,1,0,0:0:0:70:bassdrum.wav
256,192,52376,1,0,0:0:0:70:bassdrum.wav
475,192,52376,1,0,0:0:0:70:hihat.wav
256,192,52582,1,0,0:0:0:30:clap.wav
402,192,52685,1,0,0:0:0:70:hihat.wav
256,192,52788,1,0,0:0:0:70:bassdrum.wav
36,192,52788,1,0,0:0:0:70:hihat.wav
109,192,52995,1,0,0:0:0:70:hihat.wav
256,192,52995,1,0,0:0:0:30:clap.wav
402,192,52995,1,0,0:0:0:70:hihat.wav
475,192,53098,1,0,0:0:0:70:hihat.wav
182,192,53201,1,0,0:0:0:70:hihat.wav
402,192,53201,1,0,0:0:0:70:hihat.wav
329,192,53304,1,0,0:0:0:70:hihat.wav
109,192,53407,1,0,0:0:0:70:cymbol.wav
256,192,53407,1,0,0:0:0:70:bassdrum.wav
36,192,53407,128,0,55056:0:0:0:30:
329,192,53613,1,0,0:0:0:70:hihat.wav
256,192,53819,1,0,0:0:0:70:bassdrum.wav
475,192,53819,1,0,0:0:0:70:clap.wav
402,192,54026,1,0,0:0:0:70:hihat.wav
256,192,54232,1,0,0:0:0:70:bassdrum.wav
329,192,54438,1,0,0:0:0:70:hihat.wav
109,192,54644,1,0,0:0:0:70:clap.wav
256,192,54644,1,0,0:0:0:70:bassdrum.wav
329,192,54850,1,0,0:0:0:70:hihat.wav
109,192,55056,1,0,0:0:0:70:bassdrum.wav
402,192,55056,128,0,56706:0:0:0:30:
182,192,55263,1,0,0:0:0:70:hihat.wav
256,192,55469,1,0,0:0:0:70:bassdrum.wav
475,192,55469,1,0,0:0:0:70:clap.wav
329,192,55675,1,0,0:0:0:70:hihat.wav
256,192,55881,1,0,0:0:0:70:bassdrum.wav
182,192,56087,1,0,0:0:0:70:hihat.wav
256,192,56294,1,0,0:0:0:70:bassdrum.wav
36,192,56294,1,0,0:0:0:70:hihat.wav
475,192,56294,1,0,0:0:0:70:clap.wav
256,192,56500,1,0,0:0:0:70:bassdrum.wav
109,192,56706,1,0,0:0:0:70:cymbol.wav
256,192,56706,1,0,0:0:0:70:bassdrum.wav
182,192,56706,128,0,58355:0:0:0:30:
402,192,56912,1,0,0:0:0:70:hihat.wav
256,192,57118,1,0,0:0:0:70:bassdrum.wav
475,192,57118,1,0,0:0:0:70:clap.wav
36,192,57325,1,0,0:0:0:70:hihat.wav
256,192,57531,1,0,0:0:0:70:bassdrum.wav
402,192,57737,1,0,0:0:0:70:hihat.wav
109,192,57943,1,0,0:0:0:70:bassdrum.wav
475,192,57943,1,0,0:0:0:70:clap.wav
329,192,58149,1,0,0:0:0:70:hihat.wav
109,192,58355,1,0,0:0:0:30:
256,192,58355,1,0,0:0:0:70:bassdrum.wav
475,192,58355,128,0,60005:0:0:0:30:bassdrum.wav
182,192,58562,1,0,0:0:0:70:hihat.wav
402,192,58665,1,0,0:0:0:70:hihat.wav
256,192,58768,1,0,0:0:0:70:bassdrum.wav
36,192,58768,1,0,0:0:0:70:clap.wav
329,192,58974,1,0,0:0:0:70:hihat.wav
109,192,59180,1,0,0:0:0:30:
256,192,59283,1,0,0:0:0:70:bassdrum.wav
402,192,59283,1,0,0:0:0:70:bassdrum.wav
182,192,59386,1,0,0:0:0:70:hihat.wav
329,192,59489,1,0,0:0:0:70:hihat.wav
256,192,59593,1,0,0:0:0:70:bassdrum.wav
402,192,59593,1,0,0:0:0:30:
36,192,59593,1,0,0:0:0:70:clap.wav
329,192,59799,1,0,0:0:0:70:hihat.wav
402,192,59799,1,0,0:0:0:70:bassdrum.wav
256,192,59902,1,0,0:0:0:70:hihat.wav
182,192,60005,1,0,0:0:0:30:
36,192,60005,1,0,0:0:0:70:cymbol.wav
402,192,60005,1,0,0:0:0:70:bassdrum.wav
329,192,60211,1,0,0:0:0:70:hihat.wav
109,192,60314,1,0,0:0:0:70:hihat.wav
256,192,60417,1,0,0:0:0:70:bassdrum.wav
475,192,60417,1,0,0:0:0:70:clap.wav
182,192,60624,1,0,0:0:0:70:hihat.wav
402,192,60624,1,0,0:0:0:30:
109,192,60830,1,0,0:0:0:30:
329,192,60830,1,0,0:0:0:70:bassdrum.wav
256,192,61036,1,0,0:0:0:70:hihat.wav
36,192,61242,1,0,0:0:0:70:bassdrum.wav
475,192,61242,1,0,0:0:0:70:clap.wav
182,192,61448,1,0,0:0:0:70:hihat.wav
402,192,61448,1,0,0:0:0:70:bassdrum.wav
109,192,61654,1,0,0:0:0:30:bassdrum.wav
256,192,61654,1,0,0:0:0:70:bassdrum.wav
475,192,61654,1,0,0:0:0:70:cymbol.wav
329,192,61861,1,0,0:0:0:70:hihat.wav
182,192,62067,1,0,0:0:0:70:bassdrum.wav
475,192,62067,1,0,0:0:0:70:clap.wav
402,192,62273,1,0,0:0:0:70:hihat.wav
256,192,62479,1,0,0:0:0:70:bassdrum.wav
36,192,62479,1,0,0:0:0:30:
329,192,62685,1,0,0:0:0:70:hihat.wav
182,192,62788,1,0,0:0:0:70:hihat.wav
256,192,62892,1,0,0:0:0:70:bassdrum.wav
36,192,62892,1,0,0:0:0:30:
475,192,62892,1,0,0:0:0:70:clap.wav
109,192,63098,1,0,0:0:0:30:
256,192,63098,1,0,0:0:0:70:bassdrum.wav
402,192,63098,1,0,0:0:0:30:
256,192,63304,1,0,0:0:0:70:bassdrum.wav
475,192,63304,1,0,0:0:0:70:cymbol.wav
109,192,63510,1,0,0:0:0:70:hihat.wav
256,192,63716,1,0,0:0:0:70:bassdrum.wav
475,192,63716,1,0,0:0:0:70:clap.wav
36,192,63922,1,0,0:0:0:70:hihat.wav
182,192,64026,1,0,0:0:0:70:hihat.wav
402,192,64129,1,0,0:0:0:70:bassdrum.wav
329,192,64129,1,0,0:0:0:30:
109,192,64335,1,0,0:0:0:70:hihat.wav
182,192,64438,1,0,0:0:0:70:hihat.wav
329,192,64541,1,0,0:0:0:70:clap.wav
256,192,64541,1,0,0:0:0:70:bassdrum.wav
402,192,64747,1,0,0:0:0:70:bassdrum.wav
36,192,64747,1,0,0:0:0:30:
182,192,64953,1,0,0:0:0:30:
329,192,64953,1,0,0:0:0:70:bassdrum.wav
256,192,65056,1,0,0:0:0:70:hihat.wav
109,192,65160,1,0,0:0:0:70:hihat.wav
329,192,65263,1,0,0:0:0:70:hihat.wav
182,192,65366,1,0,0:0:0:70:clap.wav
402,192,65366,1,0,0:0:0:70:bassdrum.wav
36,192,65572,1,0,0:0:0:70:hihat.wav
182,192,65778,1,0,0:0:0:70:bassdrum.wav
475,192,65778,1,0,0:0:0:30:
256,192,65881,1,0,0:0:0:30:
109,192,65984,1,0,0:0:0:70:bassdrum.wav
182,192,66087,1,0,0:0:0:30:
256,192,66191,1,0,0:0:0:30:
475,192,66191,1,0,0:0:0:70:clap.wav
329,192,66397,1,0,0:0:0:70:bassdrum.wav
36,192,66397,1,0,0:0:0:70:hihat.wav
475,192,66603,1,0,0:0:0:70:bassdrum.wav
36,192,66603,1,0,0:0:0:70:cymbol.wav
256,192,66809,1,0,0:0:0:30:
109,192,66912,1,0,0:0:0:70:bassdrum.wav
329,192,66912,1,0,0:0:0:70:cymbol.wav
475,192,67015,1,0,0:0:0:70:bassdrum.wav
109,192,67221,1,0,0:0:0:70:bassdrum.wav
402,192,67221,1,0,0:0:0:70:cymbol.wav
36,192,67428,1,0,0:0:0:30:
475,192,67428,1,0,0:0:0:70:bassdrum.wav
182,192,67634,1,0,0:0:0:30:
329,192,67634,1,0,0:0:0:30:
109,192,67840,1,0,0:0:0:70:bassdrum.wav
402,192,67943,1,0,0:0:0:70:bassdrum.wav
109,192,68046,1,0,0:0:0:70:bassdrum.wav
402,192,68149,1,0,0:0:0:70:bassdrum.wav
182,192,68252,1,0,0:0:0:70:cymbol.wav
329,192,68252,1,0,0:0:0:70:bassdrum.wav
36,192,68252,1,0,0:0:0:30:
475,192,68252,128,0,69902:0:0:0:30:bassdrum.wav
109,192,68355,1,0,0:0:0:70:hihat.wav
329,192,68459,1,0,0:0:0:70:hihat.wav
182,192,68562,1,0,0:0:0:70:hihat.wav
402,192,68665,1,0,0:0:0:70:clap.wav
109,192,68768,1,0,0:0:0:70:hihat.wav
329,192,68871,1,0,0:0:0:70:hihat.wav
182,192,68974,1,0,0:0:0:70:hihat.wav
36,192,69077,1,0,0:0:0:70:bassdrum.wav
402,192,69077,1,0,0:0:0:30:
329,192,69180,1,0,0:0:0:70:hihat.wav
256,192,69283,1,0,0:0:0:70:hihat.wav
182,192,69386,1,0,0:0:0:70:hihat.wav
109,192,69489,1,0,0:0:0:70:clap.wav
402,192,69489,1,0,0:0:0:70:bassdrum.wav
182,192,69593,1,0,0:0:0:70:hihat.wav
256,192,69696,1,0,0:0:0:70:hihat.wav
329,192,69799,1,0,0:0:0:70:hihat.wav
36,192,69902,1,0,0:0:0:30:
109,192,69902,128,0,70314:0:0:0:30:bassdrum.wav
402,192,69902,1,0,0:0:0:70:bassdrum.wav
329,192,70108,1,0,0:0:0:70:hihat.wav
182,192,70314,1,0,0:0:0:70:clap.wav
256,192,70314,1,0,0:0:0:70:bassdrum.wav
475,192,70314,1,0,0:0:0:30:
329,192,70520,1,0,0:0:0:70:hihat.wav
36,192,70727,1,0,0:0:0:70:bassdrum.wav
402,192,70727,128,0,71139:0:0:0:30:
182,192,70933,1,0,0:0:0:70:hihat.wav
109,192,71036,1,0,0:0:0:70:hihat.wav
329,192,71139,1,0,0:0:0:70:bassdrum.wav
36,192,71139,1,0,0:0:0:70:clap.wav
256,192,71345,1,0,0:0:0:70:bassdrum.wav
475,192,71345,1,0,0:0:0:70:hihat.wav
109,192,71551,1,0,0:0:0:70:bassdrum.wav
402,192,71551,1,0,0:0:0:30:
256,192,71551,128,0,71964:0:0:0:30:
182,192,71758,1,0,0:0:0:70:hihat.wav
36,192,71964,1,0,0:0:0:70:bassdrum.wav
475,192,71964,1,0,0:0:0:70:clap.wav
475,192,72170,1,0,0:0:0:30:
182,192,72170,1,0,0:0:0:70:hihat.wav
329,192,72376,1,0,0:0:0:70:bassdrum.wav
475,192,72376,1,0,0:0:0:30:
109,192,72376,128,0,72788:0:0:0:30:
256,192,72582,1,0,0:0:0:70:hihat.wav
182,192,72788,1,0,0:0:0:70:clap.wav
402,192,72788,1,0,0:0:0:70:bassdrum.wav
475,192,72788,1,0,0:0:0:30:
109,192,72995,1,0,0:0:0:70:hihat.wav
329,192,72995,1,0,0:0:0:30:
256,192,73201,1,0,0:0:0:70:bassdrum.wav
36,192,73201,1,0,0:0:0:30:
475,192,73201,1,0,0:0:0:70:hihat.wav
402,192,73304,1,0,0:0:0:70:hihat.wav
329,192,73407,1,0,0:0:0:70:hihat.wav
256,192,73510,1,0,0:0:0:70:hihat.wav
109,192,73613,1,0,0:0:0:70:clap.wav
402,192,73613,1,0,0:0:0:70:bassdrum.wav
182,192,73819,1,0,0:0:0:70:hihat.wav
329,192,73819,1,0,0:0:0:30:
256,192,74026,1,0,0:0:0:70:bassdrum.wav
36,192,74026,1,0,0:0:0:70:hihat.wav
475,192,74026,1,0,0:0:0:30:
36,192,74232,1,0,0:0:0:70:bassdrum.wav
256,192,74335,1,0,0:0:0:70:bassdrum.wav
475,192,74335,1,0,0:0:0:30:
256,192,74644,1,0,0:0:0:70:bassdrum.wav
36,192,74644,1,0,0:0:0:70:hihat.wav
475,192,74644,1,0,0:0:0:30:
36,192,74850,1,0,0:0:0:70:bassdrum.wav
475,192,74850,1,0,0:0:0:70:cymbol.wav
182,192,74850,128,0,75263:0:0:0:70:bassdrum.wav
256,192,74953,1,0,0:0:0:70:hihat.wav
402,192,75056,1,0,0:0:0:70:hihat.wav
329,192,75160,1,0,0:0:0:70:hihat.wav
475,192,75263,1,0,0:0:0:70:clap.wav
256,192,75366,1,0,0:0:0:70:hihat.wav
402,192,75469,1,0,0:0:0:70:hihat.wav
329,192,75572,1,0,0:0:0:70:hihat.wav
182,192,75675,1,0,0:0:0:70:bassdrum.wav
475,192,75675,1,0,0:0:0:30:
36,192,75675,128,0,76087:0:0:0:30:
256,192,75778,1,0,0:0:0:70:hihat.wav
402,192,75881,1,0,0:0:0:70:hihat.wav
329,192,75984,1,0,0:0:0:70:hihat.wav
109,192,76087,1,0,0:0:0:70:bassdrum.wav
475,192,76087,1,0,0:0:0:70:clap.wav
182,192,76191,1,0,0:0:0:70:hihat.wav
402,192,76294,1,0,0:0:0:70:hihat.wav
329,192,76397,1,0,0:0:0:70:hihat.wav
36,192,76500,1,0,0:0:0:70:cymbol.wav
256,192,76500,128,0,76912:0:0:0:70:bassdrum.wav
109,192,76603,1,0,0:0:0:70:hihat.wav
402,192,76706,1,0,0:0:0:70:hihat.wav
109,192,76809,1,0,0:0:0:70:hihat.wav
329,192,76912,1,0,0:0:0:70:bassdrum.wav
182,192,76912,1,0,0:0:0:70:clap.wav
475,192,77015,1,0,0:0:0:70:hihat.wav
402,192,77118,1,0,0:0:0:70:hihat.wav
329,192,77221,1,0,0:0:0:70:hihat.wav
36,192,77325,1,0,0:0:0:30:
475,192,77325,128,0,77737:0:0:0:30:
256,192,77325,1,0,0:0:0:70:bassdrum.wav
256,192,77531,1,0,0:0:0:70:hihat.wav
329,192,77634,1,0,0:0:0:70:hihat.wav
256,192,77737,1,0,0:0:0:70:clap.wav
402,192,77737,1,0,0:0:0:70:hihat.wav
256,192,77943,1,0,0:0:0:70:bassdrum.wav
475,192,77943,1,0,0:0:0:70:hihat.wav
256,192,78149,1,0,0:0:0:70:bassdrum.wav
402,192,78149,1,0,0:0:0:30:
36,192,78149,1,0,0:0:0:70:cymbol.wav
109,192,78149,128,0,78562:0:0:0:30:bassdrum.wav
329,192,78355,1,0,0:0:0:70:hihat.wav
256,192,78562,1,0,0:0:0:70:bassdrum.wav
36,192,78562,1,0,0:0:0:70:clap.wav
475,192,78562,1,0,0:0:0:30:
182,192,78768,1,0,0:0:0:70:hihat.wav
109,192,78974,1,0,0:0:0:70:bassdrum.wav
329,192,78974,1,0,0:0:0:70:cymbol.wav
475,192,78974,128,0,79386:0:0:0:30:
36,192,79180,1,0,0:0:0:70:hihat.wav
109,192,79386,1,0,0:0:0:70:hihat.wav
256,192,79386,1,0,0:0:0:70:bassdrum.wav
329,192,79386,1,0,0:0:0:70:clap.wav
109,192,79593,1,0,0:0:0:70:bassdrum.wav
182,192,79696,1,0,0:0:0:30:
36,192,79799,1,0,0:0:0:70:cymbol.wav
475,192,79799,128,0,80108:0:0:0:30:bassdrum.wav
256,192,79799,1,0,0:0:0:70:bassdrum.wav
109,192,79902,1,0,0:0:0:70:hihat.wav
36,192,80005,1,0,0:0:0:70:hihat.wav
329,192,80005,1,0,0:0:0:70:hihat.wav
109,192,80108,1,0,0:0:0:70:hihat.wav
402,192,80211,1,0,0:0:0:70:bassdrum.wav
256,192,80211,1,0,0:0:0:70:clap.wav
109,192,80417,1,0,0:0:0:70:hihat.wav
182,192,80417,1,0,0:0:0:30:
256,192,80624,1,0,0:0:0:70:bassdrum.wav
402,192,80624,1,0,0:0:0:30:
329,192,80624,128,0,80933:0:0:0:30:
182,192,80830,1,0,0:0:0:70:hihat.wav
109,192,80933,1,0,0:0:0:70:hihat.wav
256,192,81036,1,0,0:0:0:70:clap.wav
475,192,81036,1,0,0:0:0:30:
36,192,81036,1,0,0:0:0:30:
256,192,81242,1,0,0:0:0:70:bassdrum.wav
402,192,81242,1,0,0:0:0:30:
109,192,81345,1,0,0:0:0:70:hihat.wav
182,192,81448,1,0,0:0:0:70:bassdrum.wav
329,192,81448,1,0,0:0:0:30:bassdrum.wav
36,192,81448,1,0,0:0:0:70:cymbol.wav
475,192,81448,128,0,81861:0:0:0:30:bassdrum.wav
109,192,81654,1,0,0:0:0:70:hihat.wav
329,192,81861,1,0,0:0:0:70:bassdrum.wav
402,192,81861,1,0,0:0:0:70:clap.wav
256,192,82067,1,0,0:0:0:70:hihat.wav
329,192,82273,1,0,0:0:0:30:
36,192,82273,1,0,0:0:0:70:bassdrum.wav
182,192,82479,1,0,0:0:0:70:hihat.wav
109,192,82685,1,0,0:0:0:70:clap.wav
402,192,82685,1,0,0:0:0:70:bassdrum.wav
256,192,82892,1,0,0:0:0:70:hihat.wav
402,192,83098,1,0,0:0:0:70:bassdrum.wav
109,192,83098,128,0,83510:0:0:0:30:
329,192,83304,1,0,0:0:0:70:hihat.wav
256,192,83510,1,0,0:0:0:70:clap.wav
36,192,83510,1,0,0:0:0:70:bassdrum.wav
329,192,83716,1,0,0:0:0:70:hihat.wav
36,192,83922,1,0,0:0:0:70:bassdrum.wav
402,192,83922,128,0,84335:0:0:0:30:
182,192,84129,1,0,0:0:0:70:hihat.wav
256,192,84335,1,0,0:0:0:70:clap.wav
36,192,84335,1,0,0:0:0:70:bassdrum.wav
256,192,84541,1,0,0:0:0:70:bassdrum.wav
475,192,84541,1,0,0:0:0:70:hihat.wav
109,192,84747,1,0,0:0:0:70:bassdrum.wav
402,192,84747,1,0,0:0:0:70:cymbol.wav
256,192,84747,128,0,85160:0:0:0:30:
182,192,84953,1,0,0:0:0:70:hihat.wav
36,192,85160,1,0,0:0:0:70:bassdrum.wav
475,192,85160,1,0,0:0:0:70:clap.wav
182,192,85366,1,0,0:0:0:70:hihat.wav
402,192,85366,1,0,0:0:0:70:hihat.wav
329,192,85572,1,0,0:0:0:70:bassdrum.wav
475,192,85572,1,0,0:0:0:30:
109,192,85572,128,0,85984:0:0:0:30:bassdrum.wav
256,192,85778,1,0,0:0:0:70:hihat.wav
182,192,85984,1,0,0:0:0:70:bassdrum.wav
475,192,85984,1,0,0:0:0:70:clap.wav
402,192,86191,1,0,0:0:0:30:
109,192,86191,1,0,0:0:0:70:hihat.wav
36,192,86397,1,0,0:0:0:70:bassdrum.wav
475,192,86397,1,0,0:0:0:70:hihat.wav
402,192,86500,1,0,0:0:0:70:hihat.wav
329,192,86603,1,0,0:0:0:70:hihat.wav
256,192,86706,1,0,0:0:0:70:hihat.wav
109,192,86809,1,0,0:0:0:70:bassdrum.wav
402,192,86809,1,0,0:0:0:70:clap.wav
182,192,87015,1,0,0:0:0:70:hihat.wav
329,192,87015,1,0,0:0:0:30:
256,192,87221,1,0,0:0:0:70:bassdrum.wav
36,192,87221,1,0,0:0:0:70:hihat.wav
475,192,87221,1,0,0:0:0:30:
36,192,87428,1,0,0:0:0:70:bassdrum.wav
256,192,87531,1,0,0:0:0:70:bassdrum.wav
475,192,87634,1,0,0:0:0:30:
109,192,87634,1,0,0:0:0:70:hihat.wav
36,192,87840,1,0,0:0:0:70:hihat.wav
256,192,87840,1,0,0:0:0:70:bassdrum.wav
36,192,88046,1,0,0:0:0:70:bassdrum.wav
475,192,88046,1,0,0:0:0:70:cymbol.wav
182,192,88046,128,0,88459:0:0:0:30:bassdrum.wav
402,192,88252,1,0,0:0:0:70:hihat.wav
109,192,88459,1,0,0:0:0:70:bassdrum.wav
36,192,88459,1,0,0:0:0:70:clap.wav
329,192,88665,1,0,0:0:0:70:hihat.wav
182,192,88871,1,0,0:0:0:70:bassdrum.wav
475,192,88871,1,0,0:0:0:30:
36,192,88871,128,0,89283:0:0:0:30:
402,192,89077,1,0,0:0:0:70:hihat.wav
109,192,89283,1,0,0:0:0:70:bassdrum.wav
182,192,89283,1,0,0:0:0:30:
329,192,89283,1,0,0:0:0:70:clap.wav
402,192,89489,1,0,0:0:0:70:hihat.wav
36,192,89696,1,0,0:0:0:70:cymbol.wav
256,192,89696,128,0,90108:0:0:0:30:bassdrum.wav
475,192,89902,1,0,0:0:0:70:hihat.wav
182,192,90108,1,0,0:0:0:70:clap.wav
329,192,90108,1,0,0:0:0:70:bassdrum.wav
36,192,90108,1,0,0:0:0:30:
402,192,90314,1,0,0:0:0:70:hihat.wav
36,192,90520,1,0,0:0:0:70:bassdrum.wav
475,192,90520,128,0,90933:0:0:0:30:bassdrum.wav
182,192,90933,1,0,0:0:0:70:clap.wav
256,192,90933,1,0,0:0:0:30:
402,192,90933,1,0,0:0:0:30:
36,192,90933,1,0,0:0:0:70:bassdrum.wav
256,192,91139,1,0,0:0:0:70:bassdrum.wav
475,192,91139,1,0,0:0:0:30:
256,192,91345,1,0,0:0:0:70:bassdrum.wav
402,192,91345,1,0,0:0:0:30:
36,192,91345,1,0,0:0:0:70:cymbol.wav
109,192,91345,128,0,91758:0:0:0:30:bassdrum.wav
329,192,91551,1,0,0:0:0:70:hihat.wav
256,192,91758,1,0,0:0:0:70:bassdrum.wav
36,192,91758,1,0,0:0:0:30:
475,192,91758,1,0,0:0:0:70:clap.wav
182,192,91964,1,0,0:0:0:70:hihat.wav
109,192,92170,1,0,0:0:0:70:bassdrum.wav
329,192,92170,1,0,0:0:0:70:cymbol.wav
475,192,92170,128,0,92582:0:0:0:30:
36,192,92376,1,0,0:0:0:70:hihat.wav
109,192,92582,1,0,0:0:0:30:
256,192,92582,1,0,0:0:0:70:bassdrum.wav
329,192,92582,1,0,0:0:0:70:clap.wav
182,192,92788,1,0,0:0:0:70:bassdrum.wav
182,192,92892,1,0,0:0:0:70:hihat.wav
36,192,92995,1,0,0:0:0:70:hihat.wav
475,192,92995,128,0,93304:0:0:0:30:
329,192,92995,1,0,0:0:0:70:bassdrum.wav
109,192,93098,1,0,0:0:0:70:hihat.wav
36,192,93201,1,0,0:0:0:70:hihat.wav
256,192,93201,1,0,0:0:0:70:hihat.wav
109,192,93304,1,0,0:0:0:70:hihat.wav
402,192,93407,1,0,0:0:0:70:bassdrum.wav
329,192,93407,1,0,0:0:0:70:clap.wav
109,192,93613,1,0,0:0:0:70:hihat.wav
182,192,93716,1,0,0:0:0:70:hihat.wav
256,192,93819,1,0,0:0:0:70:bassdrum.wav
402,192,93819,1,0,0:0:0:30:
329,192,93819,128,0,94129:0:0:0:30:
182,192,94026,1,0,0:0:0:70:hihat.wav
36,192,94129,1,0,0:0:0:70:hihat.wav
256,192,94232,1,0,0:0:0:70:bassdrum.wav
475,192,94232,1,0,0:0:0:70:clap.wav
256,192,94438,1,0,0:0:0:70:bassdrum.wav
256,192,94644,1,0,0:0:0:70:bassdrum.wav
402,192,94644,1,0,0:0:0:30:
36,192,94644,1,0,0:0:0:70:cymbol.wav
109,192,94850,1,0,0:0:0:30:
475,192,94850,1,0,0:0:0:70:hihat.wav
182,192,95056,1,0,0:0:0:70:clap.wav
402,192,95056,1,0,0:0:0:70:bassdrum.wav
475,192,95160,1,0,0:0:0:70:hihat.wav
329,192,95263,1,0,0:0:0:70:hihat.wav
402,192,95469,1,0,0:0:0:70:bassdrum.wav
36,192,95469,1,0,0:0:0:30:
182,192,95675,1,0,0:0:0:70:hihat.wav
475,192,95778,1,0,0:0:0:70:hihat.wav
109,192,95881,1,0,0:0:0:70:clap.wav
402,192,96087,1,0,0:0:0:70:hihat.wav
109,192,96294,1,0,0:0:0:70:bassdrum.wav
329,192,96294,1,0,0:0:0:30:
182,192,96500,1,0,0:0:0:70:hihat.wav
402,192,96500,1,0,0:0:0:30:
109,192,96706,1,0,0:0:0:70:bassdrum.wav
475,192,96706,1,0,0:0:0:70:clap.wav
182,192,96809,1,0,0:0:0:70:hihat.wav
36,192,96912,1,0,0:0:0:70:hihat.wav
109,192,97118,1,0,0:0:0:70:bassdrum.wav
329,192,97118,1,0,0:0:0:30:
475,192,97325,1,0,0:0:0:70:hihat.wav
182,192,97428,1,0,0:0:0:70:hihat.wav
256,192,97531,1,0,0:0:0:70:bassdrum.wav
402,192,97531,1,0,0:0:0:70:clap.wav
36,192,97737,1,0,0:0:0:70:hihat.wav
256,192,97943,1,0,0:0:0:70:bassdrum.wav
475,192,97943,128,0,99180:0:0:0:30:
329,192,98149,1,0,0:0:0:30:
36,192,98149,1,0,0:0:0:70:hihat.wav
182,192,98355,1,0,0:0:0:70:clap.wav
256,192,98355,1,0,0:0:0:70:bassdrum.wav
36,192,98459,1,0,0:0:0:70:hihat.wav
402,192,98562,1,0,0:0:0:70:hihat.wav
109,192,98768,1,0,0:0:0:30:
256,192,98768,1,0,0:0:0:70:bassdrum.wav
329,192,98974,1,0,0:0:0:70:hihat.wav
182,192,99077,1,0,0:0:0:70:hihat.wav
256,192,99180,1,0,0:0:0:70:clap.wav
109,192,99386,1,0,0:0:0:70:hihat.wav
402,192,99386,1,0,0:0:0:30:
256,192,99593,1,0,0:0:0:70:bassdrum.wav
256,192,100005,1,0,0:0:0:70:clap.wav
256,192,100211,1,0,0:0:0:70:bassdrum.wav
256,192,100417,1,0,0:0:0:70:bassdrum.wav
36,192,100624,1,0,0:0:0:70:hihat.wav
182,192,100727,1,0,0:0:0:70:hihat.wav
256,192,100830,1,0,0:0:0:70:clap.wav
402,192,100830,1,0,0:0:0:70:hihat.wav
36,192,101036,1,0,0:0:0:70:hihat.wav
475,192,101036,1,0,0:0:0:70:bassdrum.wav
109,192,101139,1,0,0:0:0:70:hihat.wav
402,192,101139,1,0,0:0:0:0:
182,192,101242,1,0,0:0:0:70:cymbol.wav
329,192,101242,1,0,0:0:0:70:bassdrum.wav
109,192,101448,1,0,0:0:0:30:
475,192,101448,1,0,0:0:0:70:hihat.wav
182,192,101654,1,0,0:0:0:70:clap.wav
402,192,101654,1,0,0:0:0:70:bassdrum.wav
475,192,101758,1,0,0:0:0:70:hihat.wav
329,192,101861,1,0,0:0:0:30:
109,192,102067,1,0,0:0:0:30:
402,192,102067,1,0,0:0:0:70:bassdrum.wav
182,192,102273,1,0,0:0:0:70:hihat.wav
475,192,102376,1,0,0:0:0:70:hihat.wav
109,192,102479,1,0,0:0:0:70:clap.wav
256,192,102479,1,0,0:0:0:70:bassdrum.wav
329,192,102685,1,0,0:0:0:70:hihat.wav
402,192,102685,1,0,0:0:0:30:
109,192,102892,1,0,0:0:0:70:bassdrum.wav
329,192,102892,1,0,0:0:0:30:
182,192,103098,1,0,0:0:0:70:hihat.wav
402,192,103098,1,0,0:0:0:30:
109,192,103304,1,0,0:0:0:70:bassdrum.wav
475,192,103304,1,0,0:0:0:70:clap.wav
182,192,103407,1,0,0:0:0:70:hihat.wav
36,192,103510,1,0,0:0:0:70:hihat.wav
109,192,103716,1,0,0:0:0:70:bassdrum.wav
256,192,103716,1,0,0:0:0:30:
329,192,103716,1,0,0:0:0:30:
475,192,103922,1,0,0:0:0:70:hihat.wav
182,192,104026,1,0,0:0:0:70:hihat.wav
256,192,104129,1,0,0:0:0:70:bassdrum.wav
329,192,104129,1,0,0:0:0:70:clap.wav
109,192,104335,1,0,0:0:0:70:hihat.wav
36,192,104335,1,0,0:0:0:30:
182,192,104541,1,0,0:0:0:70:bassdrum.wav
475,192,104541,1,0,0:0:0:30:
109,192,104747,1,0,0:0:0:70:hihat.wav
402,192,104747,1,0,0:0:0:30:
36,192,104953,1,0,0:0:0:70:bassdrum.wav
329,192,104953,1,0,0:0:0:70:clap.wav
256,192,105160,1,0,0:0:0:30:
109,192,105160,1,0,0:0:0:70:hihat.wav
329,192,105366,1,0,0:0:0:30:
182,192,105366,1,0,0:0:0:70:bassdrum.wav
256,192,105572,1,0,0:0:0:70:hihat.wav
402,192,105572,1,0,0:0:0:30:
329,192,105778,1,0,0:0:0:70:bassdrum.wav
475,192,105778,1,0,0:0:0:70:clap.wav
109,192,105778,128,0,106191:0:0:0:30:
256,192,105984,1,0,0:0:0:70:hihat.wav
402,192,105984,1,0,0:0:0:30:
329,192,106191,1,0,0:0:0:30:
182,192,106191,1,0,0:0:0:70:bassdrum.wav
475,192,106397,1,0,0:0:0:70:bassdrum.wav
36,192,106500,1,0,0:0:0:70:bassdrum.wav
182,192,106603,1,0,0:0:0:30:
329,192,106603,1,0,0:0:0:70:clap.wav
256,192,106603,1,0,0:0:0:30:
109,192,106809,1,0,0:0:0:70:hihat.wav
256,192,106809,1,0,0:0:0:70:bassdrum.wav
256,192,107015,1,0,0:0:0:70:bassdrum.wav
36,192,107015,1,0,0:0:0:30:
475,192,107015,1,0,0:0:0:30:bassdrum.wav
256,192,107221,1,0,0:0:0:70:bassdrum.wav
475,192,107325,1,0,0:0:0:70:hihat.wav
109,192,107428,1,0,0:0:0:30:
256,192,107428,1,0,0:0:0:70:bassdrum.wav
402,192,107428,1,0,0:0:0:70:clap.wav
256,192,107634,1,0,0:0:0:70:bassdrum.wav
36,192,107634,1,0,0:0:0:70:hihat.wav
256,192,107737,1,0,0:0:0:30:
256,192,107840,1,0,0:0:0:70:bassdrum.wav
475,192,107840,1,0,0:0:0:70:cymbol.wav
256,192,109283,1,0,0:0:0:70:bassdrum.wav
256,192,109489,1,0,0:0:0:70:bassdrum.wav
475,192,109489,1,0,0:0:0:30:
182,192,110314,1,0,0:0:0:30:
256,192,111139,1,0,0:0:0:70:bassdrum.wav
402,192,111139,1,0,0:0:0:30:
256,192,112582,1,0,0:0:0:70:bassdrum.wav
256,192,112788,1,0,0:0:0:70:bassdrum.wav
475,192,112788,1,0,0:0:0:30:
182,192,113613,1,0,0:0:0:30:
256,192,114438,1,0,0:0:0:70:bassdrum.wav
402,192,114438,1,0,0:0:0:30:
256,192,115881,1,0,0:0:0:70:bassdrum.wav
256,192,116087,1,0,0:0:0:70:bassdrum.wav
36,192,116087,1,0,0:0:0:30:
402,192,116912,1,0,0:0:0:30:
109,192,117737,1,0,0:0:0:30:
256,192,117737,1,0,0:0:0:70:bassdrum.wav
402,192,117737,128,0,119799:0:0:0:30:
256,192,119180,1,0,0:0:0:70:bassdrum.wav
109,192,119386,1,0,0:0:0:70:bassdrum.wav
256,192,119593,1,0,0:0:0:30:
329,192,119799,1,0,0:0:0:30:
182,192,120005,1,0,0:0:0:30:
475,192,120211,1,0,0:0:0:30:
329,192,120211,1,0,0:0:0:30:
182,192,121036,1,0,0:0:0:70:cymbol.wav
402,192,121036,1,0,0:0:0:70:bassdrum.wav
36,192,121036,1,0,0:0:0:30:
256,192,121139,1,0,0:0:0:30:
329,192,121242,1,0,0:0:0:70:hihat.wav
402,192,121345,1,0,0:0:0:30:
109,192,121448,1,0,0:0:0:70:bassdrum.wav
475,192,121448,1,0,0:0:0:30:
402,192,121551,1,0,0:0:0:30:
329,192,121654,1,0,0:0:0:70:hihat.wav
256,192,121758,1,0,0:0:0:30:
402,192,121861,1,0,0:0:0:70:bassdrum.wav
182,192,121861,1,0,0:0:0:30:
109,192,121964,1,0,0:0:0:30:
182,192,122067,1,0,0:0:0:70:hihat.wav
256,192,122170,1,0,0:0:0:30:
36,192,122273,1,0,0:0:0:30:
475,192,122273,1,0,0:0:0:30:
329,192,122273,1,0,0:0:0:70:bassdrum.wav
256,192,122479,1,0,0:0:0:70:hihat.wav
109,192,122685,1,0,0:0:0:70:bassdrum.wav
475,192,122685,1,0,0:0:0:30:
329,192,122892,1,0,0:0:0:70:hihat.wav
182,192,123098,1,0,0:0:0:70:bassdrum.wav
36,192,123098,1,0,0:0:0:30:
402,192,123304,1,0,0:0:0:70:hihat.wav
109,192,123510,1,0,0:0:0:70:bassdrum.wav
475,192,123510,1,0,0:0:0:30:
182,192,123613,1,0,0:0:0:70:hihat.wav
256,192,123716,1,0,0:0:0:70:hihat.wav
182,192,123819,1,0,0:0:0:70:hihat.wav
109,192,123922,1,0,0:0:0:70:bassdrum.wav
402,192,123922,1,0,0:0:0:30:
329,192,124129,1,0,0:0:0:70:hihat.wav
402,192,124335,1,0,0:0:0:70:bassdrum.wav
36,192,124335,1,0,0:0:0:30:
329,192,124438,1,0,0:0:0:30:
256,192,124541,1,0,0:0:0:70:hihat.wav
182,192,124644,1,0,0:0:0:30:
109,192,124747,1,0,0:0:0:70:bassdrum.wav
475,192,124747,1,0,0:0:0:30:
182,192,124850,1,0,0:0:0:30:
256,192,124953,1,0,0:0:0:70:hihat.wav
329,192,125056,1,0,0:0:0:30:
36,192,125160,1,0,0:0:0:70:bassdrum.wav
402,192,125160,128,0,125366:0:0:0:30:
109,192,125366,1,0,0:0:0:70:hihat.wav
256,192,125366,128,0,125572:0:0:0:30:
36,192,125572,1,0,0:0:0:70:bassdrum.wav
475,192,125572,1,0,0:0:0:30:bassdrum.wav
329,192,125572,128,0,125778:0:0:0:30:
256,192,125778,1,0,0:0:0:70:hihat.wav
182,192,125881,1,0,0:0:0:30:
109,192,125984,1,0,0:0:0:70:bassdrum.wav
475,192,125984,1,0,0:0:0:30:
182,192,126087,1,0,0:0:0:30:
329,192,126191,1,0,0:0:0:70:hihat.wav
256,192,126294,1,0,0:0:0:30:
182,192,126397,1,0,0:0:0:70:bassdrum.wav
36,192,126397,1,0,0:0:0:30:
402,192,126603,1,0,0:0:0:70:hihat.wav
256,192,126706,1,0,0:0:0:30:
109,192,126809,1,0,0:0:0:30:
475,192,126809,1,0,0:0:0:70:bassdrum.wav
329,192,126912,1,0,0:0:0:30:
182,192,127015,1,0,0:0:0:70:hihat.wav
36,192,127118,1,0,0:0:0:30:
256,192,127221,1,0,0:0:0:70:bassdrum.wav
475,192,127221,1,0,0:0:0:30:
256,192,127428,1,0,0:0:0:70:bassdrum.wav
402,192,127428,1,0,0:0:0:70:hihat.wav
256,192,127634,1,0,0:0:0:70:bassdrum.wav
475,192,127634,1,0,0:0:0:70:cymbol.wav
329,192,127634,128,0,128046:0:0:0:30:bassdrum.wav
36,192,127840,1,0,0:0:0:70:hihat.wav
182,192,127840,1,0,0:0:0:30:
402,192,128046,1,0,0:0:0:70:bassdrum.wav
182,192,128046,128,0,128459:0:0:0:30:bassdrum.wav
36,192,128252,1,0,0:0:0:70:hihat.wav
329,192,128252,1,0,0:0:0:30:
475,192,128459,1,0,0:0:0:70:bassdrum.wav
329,192,128459,128,0,128871:0:0:0:30:bassdrum.wav
36,192,128665,1,0,0:0:0:70:hihat.wav
182,192,128665,1,0,0:0:0:30:
402,192,128871,1,0,0:0:0:70:bassdrum.wav
182,192,128871,128,0,129283:0:0:0:30:bassdrum.wav
36,192,129077,1,0,0:0:0:70:hihat.wav
329,192,129077,1,0,0:0:0:30:
256,192,129283,1,0,0:0:0:70:bassdrum.wav
475,192,129283,1,0,0:0:0:30:
329,192,129283,128,0,129696:0:0:0:30:bassdrum.wav
109,192,129489,1,0,0:0:0:70:hihat.wav
402,192,129696,1,0,0:0:0:70:bassdrum.wav
182,192,129696,128,0,130108:0:0:0:30:bassdrum.wav
109,192,129902,1,0,0:0:0:70:hihat.wav
256,192,130108,1,0,0:0:0:70:bassdrum.wav
475,192,130108,1,0,0:0:0:30:
329,192,130108,128,0,130520:0:0:0:30:bassdrum.wav
109,192,130314,1,0,0:0:0:70:hihat.wav
402,192,130520,1,0,0:0:0:70:bassdrum.wav
182,192,130520,128,0,130933:0:0:0:30:bassdrum.wav
109,192,130727,1,0,0:0:0:70:hihat.wav
256,192,130933,1,0,0:0:0:70:bassdrum.wav
475,192,130933,1,0,0:0:0:30:
402,192,130933,128,0,131345:0:0:0:30:bassdrum.wav
329,192,131036,1,0,0:0:0:30:
182,192,131139,1,0,0:0:0:70:hihat.wav
256,192,131242,1,0,0:0:0:30:
329,192,131345,1,0,0:0:0:70:bassdrum.wav
109,192,131345,128,0,131758:0:0:0:30:bassdrum.wav
182,192,131551,1,0,0:0:0:70:hihat.wav
475,192,131758,1,0,0:0:0:70:bassdrum.wav
402,192,131758,128,0,132170:0:0:0:30:bassdrum.wav
182,192,131964,1,0,0:0:0:70:hihat.wav
182,192,132170,1,0,0:0:0:70:bassdrum.wav
109,192,132170,128,0,132582:0:0:0:30:bassdrum.wav
256,192,132273,1,0,0:0:0:30:
329,192,132376,1,0,0:0:0:70:hihat.wav
402,192,132479,1,0,0:0:0:30:
256,192,132582,1,0,0:0:0:70:cymbol.wav
475,192,132582,1,0,0:0:0:70:bassdrum.wav
36,192,132788,1,0,0:0:0:70:hihat.wav
109,192,132892,1,0,0:0:0:70:bassdrum.wav
329,192,132892,1,0,0:0:0:30:
475,192,132995,1,0,0:0:0:30:
329,192,133098,1,0,0:0:0:30:
182,192,133201,1,0,0:0:0:70:hihat.wav
402,192,133201,1,0,0:0:0:70:bassdrum.wav
36,192,133201,1,0,0:0:0:30:
109,192,133407,1,0,0:0:0:70:bassdrum.wav
475,192,133407,1,0,0:0:0:30:
256,192,133510,128,0,133716:0:0:0:30:
109,192,133819,1,0,0:0:0:70:bassdrum.wav
256,192,133819,1,0,0:0:0:30:
475,192,133819,1,0,0:0:0:30:
182,192,133922,1,0,0:0:0:30:
329,192,133922,1,0,0:0:0:30:
256,192,134026,1,0,0:0:0:70:bassdrum.wav
402,192,134026,1,0,0:0:0:30:
182,192,134129,1,0,0:0:0:30:
329,192,134129,1,0,0:0:0:30:
109,192,134232,1,0,0:0:0:70:cymbol.wav
256,192,134232,1,0,0:0:0:70:bassdrum.wav
36,192,134232,128,0,135881:0:0:0:30:bassdrum.wav
329,192,134438,1,0,0:0:0:70:hihat.wav
256,192,134644,1,0,0:0:0:70:bassdrum.wav
475,192,134644,1,0,0:0:0:70:clap.wav
402,192,134850,1,0,0:0:0:70:hihat.wav
256,192,135056,1,0,0:0:0:70:bassdrum.wav
329,192,135263,1,0,0:0:0:70:hihat.wav
256,192,135469,1,0,0:0:0:70:bassdrum.wav
475,192,135469,1,0,0:0:0:70:clap.wav
182,192,135675,1,0,0:0:0:70:hihat.wav
109,192,135881,1,0,0:0:0:30:bassdrum.wav
256,192,135881,1,0,0:0:0:70:bassdrum.wav
402,192,135881,128,0,137531:0:0:0:30:bassdrum.wav
182,192,136087,1,0,0:0:0:70:hihat.wav
256,192,136294,1,0,0:0:0:70:bassdrum.wav
475,192,136294,1,0,0:0:0:70:clap.wav
329,192,136500,1,0,0:0:0:70:hihat.wav
256,192,136706,1,0,0:0:0:70:bassdrum.wav
182,192,136912,1,0,0:0:0:70:hihat.wav
256,192,137118,1,0,0:0:0:70:bassdrum.wav
36,192,137118,1,0,0:0:0:30:
475,192,137118,1,0,0:0:0:70:clap.wav
256,192,137325,1,0,0:0:0:70:bassdrum.wav
109,192,137531,1,0,0:0:0:70:cymbol.wav
256,192,137531,1,0,0:0:0:70:bassdrum.wav
182,192,137531,128,0,139180:0:0:0:30:
402,192,137737,1,0,0:0:0:70:hihat.wav
256,192,137943,1,0,0:0:0:70:bassdrum.wav
475,192,137943,1,0,0:0:0:70:clap.wav
329,192,138149,1,0,0:0:0:70:hihat.wav
36,192,138149,1,0,0:0:0:30:
256,192,138355,1,0,0:0:0:70:bassdrum.wav
402,192,138562,1,0,0:0:0:70:hihat.wav
256,192,138768,1,0,0:0:0:70:bassdrum.wav
475,192,138768,1,0,0:0:0:70:clap.wav
329,192,138974,1,0,0:0:0:70:hihat.wav
109,192,139180,1,0,0:0:0:30:bassdrum.wav
256,192,139180,1,0,0:0:0:70:bassdrum.wav
475,192,139180,128,0,140830:0:0:0:30:bassdrum.wav
182,192,139386,1,0,0:0:0:70:hihat.wav
402,192,139489,1,0,0:0:0:30:
256,192,139593,1,0,0:0:0:70:bassdrum.wav
36,192,139593,1,0,0:0:0:70:clap.wav
109,192,139799,1,0,0:0:0:70:hihat.wav
329,192,139799,1,0,0:0:0:30:
109,192,140005,1,0,0:0:0:30:
256,192,140005,1,0,0:0:0:70:bassdrum.wav
402,192,140108,1,0,0:0:0:70:bassdrum.wav
182,192,140314,1,0,0:0:0:70:bassdrum.wav
329,192,140417,1,0,0:0:0:70:clap.wav
36,192,140417,1,0,0:0:0:70:bassdrum.wav
109,192,140624,1,0,0:0:0:70:bassdrum.wav
402,192,140727,1,0,0:0:0:30:
256,192,140830,1,0,0:0:0:70:bassdrum.wav
36,192,140830,1,0,0:0:0:70:cymbol.wav
329,192,141036,1,0,0:0:0:70:hihat.wav
109,192,141139,1,0,0:0:0:70:hihat.wav
256,192,141242,1,0,0:0:0:70:bassdrum.wav
475,192,141242,1,0,0:0:0:70:clap.wav
182,192,141448,1,0,0:0:0:70:hihat.wav
402,192,141448,1,0,0:0:0:30:
256,192,141654,1,0,0:0:0:70:bassdrum.wav
182,192,141758,1,0,0:0:0:70:hihat.wav
329,192,141861,1,0,0:0:0:70:hihat.wav
256,192,141964,1,0,0:0:0:70:hihat.wav
109,192,142067,1,0,0:0:0:70:clap.wav
402,192,142067,1,0,0:0:0:70:bassdrum.wav
182,192,142273,1,0,0:0:0:70:hihat.wav
402,192,142273,1,0,0:0:0:70:bassdrum.wav
109,192,142479,1,0,0:0:0:30:
256,192,142479,1,0,0:0:0:70:bassdrum.wav
475,192,142479,1,0,0:0:0:70:cymbol.wav
329,192,142685,1,0,0:0:0:70:hihat.wav
182,192,142892,1,0,0:0:0:70:clap.wav
256,192,142892,1,0,0:0:0:70:bassdrum.wav
475,192,142892,1,0,0:0:0:30:
402,192,143098,1,0,0:0:0:70:hihat.wav
256,192,143304,1,0,0:0:0:70:bassdrum.wav
36,192,143304,1,0,0:0:0:30:
475,192,143407,1,0,0:0:0:70:hihat.wav
329,192,143510,1,0,0:0:0:70:hihat.wav
182,192,143613,1,0,0:0:0:70:hihat.wav
256,192,143716,1,0,0:0:0:70:bassdrum.wav
36,192,143716,1,0,0:0:0:70:clap.wav
475,192,143716,1,0,0:0:0:30:
109,192,143922,1,0,0:0:0:70:hihat.wav
256,192,143922,1,0,0:0:0:70:bassdrum.wav
402,192,143922,1,0,0:0:0:30:
256,192,144129,1,0,0:0:0:70:bassdrum.wav
475,192,144129,1,0,0:0:0:70:cymbol.wav
109,192,144335,1,0,0:0:0:70:hihat.wav
256,192,144541,1,0,0:0:0:70:bassdrum.wav
402,192,144541,1,0,0:0:0:70:clap.wav
36,192,144747,1,0,0:0:0:70:hihat.wav
256,192,144953,1,0,0:0:0:70:bassdrum.wav
329,192,144953,1,0,0:0:0:30:
109,192,145160,1,0,0:0:0:70:hihat.wav
475,192,145263,1,0,0:0:0:70:hihat.wav
182,192,145366,1,0,0:0:0:70:clap.wav
256,192,145366,1,0,0:0:0:70:bassdrum.wav
402,192,145572,1,0,0:0:0:70:hihat.wav
36,192,145572,1,0,0:0:0:30:
182,192,145778,1,0,0:0:0:70:bassdrum.wav
329,192,145778,1,0,0:0:0:30:
182,192,145984,1,0,0:0:0:70:hihat.wav
402,192,145984,1,0,0:0:0:30:
475,192,146087,1,0,0:0:0:30:
182,192,146191,1,0,0:0:0:70:clap.wav
256,192,146191,1,0,0:0:0:70:bassdrum.wav
402,192,146191,1,0,0:0:0:30:
329,192,146397,1,0,0:0:0:70:hihat.wav
36,192,146397,1,0,0:0:0:30:
475,192,146397,1,0,0:0:0:30:
182,192,146603,1,0,0:0:0:70:bassdrum.wav
475,192,146603,1,0,0:0:0:30:
109,192,146809,1,0,0:0:0:70:bassdrum.wav
402,192,146809,1,0,0:0:0:70:hihat.wav
182,192,146912,1,0,0:0:0:70:hihat.wav
256,192,147015,1,0,0:0:0:70:bassdrum.wav
475,192,147015,1,0,0:0:0:70:clap.wav
329,192,147221,1,0,0:0:0:70:hihat.wav
36,192,147221,1,0,0:0:0:30:
109,192,147428,1,0,0:0:0:70:bassdrum.wav
402,192,147428,1,0,0:0:0:70:cymbol.wav
256,192,147634,1,0,0:0:0:30:
182,192,147737,1,0,0:0:0:70:bassdrum.wav
329,192,147737,1,0,0:0:0:70:cymbol.wav
109,192,148046,1,0,0:0:0:70:bassdrum.wav
402,192,148046,1,0,0:0:0:70:cymbol.wav
256,192,148252,1,0,0:0:0:30:
36,192,148252,1,0,0:0:0:70:bassdrum.wav
475,192,148252,1,0,0:0:0:30:
36,192,148459,1,0,0:0:0:30:
475,192,148459,1,0,0:0:0:70:bassdrum.wav
329,192,148665,1,0,0:0:0:30:
402,192,148665,1,0,0:0:0:70:bassdrum.wav
109,192,148768,1,0,0:0:0:70:bassdrum.wav
182,192,148768,1,0,0:0:0:30:
329,192,148871,1,0,0:0:0:30:
402,192,148871,1,0,0:0:0:70:bassdrum.wav
109,192,148974,1,0,0:0:0:70:bassdrum.wav
182,192,148974,1,0,0:0:0:30:
36,192,149077,1,0,0:0:0:70:cymbol.wav
475,192,149077,128,0,149489:0:0:0:70:bassdrum.wav
109,192,149180,1,0,0:0:0:30:
182,192,149283,1,0,0:0:0:70:hihat.wav
256,192,149386,1,0,0:0:0:30:
329,192,149489,1,0,0:0:0:70:clap.wav
402,192,149489,1,0,0:0:0:70:bassdrum.wav
256,192,149593,1,0,0:0:0:30:
182,192,149696,1,0,0:0:0:70:hihat.wav
109,192,149799,1,0,0:0:0:30:
329,192,149902,1,0,0:0:0:30:
36,192,149902,1,0,0:0:0:70:bassdrum.wav
475,192,150005,1,0,0:0:0:30:
329,192,150108,1,0,0:0:0:70:hihat.wav
402,192,150211,1,0,0:0:0:30:
109,192,150314,1,0,0:0:0:70:clap.wav
256,192,150314,1,0,0:0:0:70:bassdrum.wav
329,192,150417,1,0,0:0:0:30:
182,192,150520,1,0,0:0:0:70:hihat.wav
256,192,150624,1,0,0:0:0:30:
36,192,150727,1,0,0:0:0:70:bassdrum.wav
109,192,150727,128,0,151139:0:0:0:30:
475,192,150830,1,0,0:0:0:30:
329,192,150933,1,0,0:0:0:70:hihat.wav
402,192,151036,1,0,0:0:0:30:
256,192,151139,1,0,0:0:0:70:bassdrum.wav
36,192,151139,1,0,0:0:0:70:clap.wav
182,192,151242,1,0,0:0:0:30:
329,192,151345,1,0,0:0:0:70:hihat.wav
256,192,151448,1,0,0:0:0:30:
36,192,151551,1,0,0:0:0:70:bassdrum.wav
402,192,151551,128,0,151964:0:0:0:30:
109,192,151758,1,0,0:0:0:70:hihat.wav
182,192,151861,1,0,0:0:0:30:
256,192,151964,1,0,0:0:0:70:bassdrum.wav
36,192,151964,1,0,0:0:0:70:clap.wav
256,192,152170,1,0,0:0:0:70:bassdrum.wav
475,192,152170,1,0,0:0:0:70:hihat.wav
109,192,152376,1,0,0:0:0:70:bassdrum.wav
402,192,152376,1,0,0:0:0:30:
256,192,152376,128,0,152788:0:0:0:30:
182,192,152582,1,0,0:0:0:70:hihat.wav
36,192,152788,1,0,0:0:0:70:clap.wav
475,192,152788,1,0,0:0:0:70:bassdrum.wav
402,192,152995,1,0,0:0:0:70:hihat.wav
329,192,153201,1,0,0:0:0:30:
475,192,153201,1,0,0:0:0:70:bassdrum.wav
109,192,153201,128,0,153613:0:0:0:30:
256,192,153407,1,0,0:0:0:70:hihat.wav
182,192,153613,1,0,0:0:0:70:clap.wav
475,192,153613,1,0,0:0:0:70:bassdrum.wav
109,192,153819,1,0,0:0:0:70:hihat.wav
256,192,154026,1,0,0:0:0:30:
36,192,154026,1,0,0:0:0:30:
475,192,154026,1,0,0:0:0:70:bassdrum.wav
402,192,154129,1,0,0:0:0:70:hihat.wav
329,192,154232,1,0,0:0:0:70:hihat.wav
256,192,154335,1,0,0:0:0:70:hihat.wav
109,192,154438,1,0,0:0:0:70:clap.wav
402,192,154438,1,0,0:0:0:70:bassdrum.wav
182,192,154644,1,0,0:0:0:30:
329,192,154644,1,0,0:0:0:30:
256,192,154850,1,0,0:0:0:70:bassdrum.wav
36,192,154850,1,0,0:0:0:30:
475,192,154850,1,0,0:0:0:30:
36,192,155056,1,0,0:0:0:70:bassdrum.wav
256,192,155160,1,0,0:0:0:70:bassdrum.wav
475,192,155160,1,0,0:0:0:70:hihat.wav
256,192,155469,1,0,0:0:0:70:bassdrum.wav
402,192,155469,1,0,0:0:0:30:
36,192,155675,1,0,0:0:0:70:bassdrum.wav
475,192,155675,1,0,0:0:0:70:cymbol.wav
182,192,155675,128,0,156087:0:0:0:30:
402,192,155881,1,0,0:0:0:70:hihat.wav
109,192,156087,1,0,0:0:0:70:bassdrum.wav
36,192,156087,1,0,0:0:0:70:clap.wav
329,192,156294,1,0,0:0:0:70:hihat.wav
182,192,156500,1,0,0:0:0:70:bassdrum.wav
475,192,156500,1,0,0:0:0:30:
36,192,156500,128,0,156912:0:0:0:30:
402,192,156706,1,0,0:0:0:70:hihat.wav
109,192,156912,1,0,0:0:0:70:bassdrum.wav
329,192,156912,1,0,0:0:0:70:clap.wav
402,192,157118,1,0,0:0:0:70:hihat.wav
36,192,157325,1,0,0:0:0:70:cymbol.wav
256,192,157325,128,0,157737:0:0:0:70:bassdrum.wav
475,192,157531,1,0,0:0:0:70:hihat.wav
329,192,157737,1,0,0:0:0:70:clap.wav
36,192,157737,1,0,0:0:0:70:bassdrum.wav
402,192,157943,1,0,0:0:0:70:hihat.wav
36,192,158149,1,0,0:0:0:70:bassdrum.wav
475,192,158149,128,0,158562:0:0:0:30:
256,192,158562,1,0,0:0:0:30:
402,192,158562,1,0,0:0:0:70:clap.wav
36,192,158562,1,0,0:0:0:70:bassdrum.wav
256,192,158768,1,0,0:0:0:70:bassdrum.wav
329,192,158768,1,0,0:0:0:30:
256,192,158974,1,0,0:0:0:30:bassdrum.wav
402,192,158974,1,0,0:0:0:70:cymbol.wav
36,192,158974,1,0,0:0:0:70:bassdrum.wav
109,192,158974,128,0,159386:0:0:0:30:bassdrum.wav
329,192,159180,1,0,0:0:0:70:hihat.wav
256,192,159386,1,0,0:0:0:70:bassdrum.wav
36,192,159386,1,0,0:0:0:30:
475,192,159386,1,0,0:0:0:70:clap.wav
182,192,159593,1,0,0:0:0:70:hihat.wav
109,192,159799,1,0,0:0:0:70:bassdrum.wav
329,192,159799,1,0,0:0:0:70:cymbol.wav
475,192,159799,128,0,160211:0:0:0:30:
36,192,160005,1,0,0:0:0:70:hihat.wav
109,192,160211,1,0,0:0:0:70:bassdrum.wav
329,192,160211,1,0,0:0:0:70:clap.wav
182,192,160417,1,0,0:0:0:70:hihat.wav
36,192,160417,1,0,0:0:0:30:
256,192,160520,1,0,0:0:0:30:
182,192,160624,1,0,0:0:0:70:bassdrum.wav
475,192,160624,128,0,160933:0:0:0:30:
329,192,160624,1,0,0:0:0:70:bassdrum.wav
109,192,160727,1,0,0:0:0:70:hihat.wav
36,192,160830,1,0,0:0:0:70:hihat.wav
256,192,160830,1,0,0:0:0:70:hihat.wav
109,192,160933,1,0,0:0:0:70:hihat.wav
402,192,161036,1,0,0:0:0:70:bassdrum.wav
329,192,161036,1,0,0:0:0:70:clap.wav
109,192,161242,1,0,0:0:0:70:hihat.wav
182,192,161345,1,0,0:0:0:70:hihat.wav
256,192,161448,1,0,0:0:0:70:hihat.wav
402,192,161448,1,0,0:0:0:70:bassdrum.wav
329,192,161448,128,0,161758:0:0:0:30:
36,192,161551,1,0,0:0:0:70:hihat.wav
109,192,161654,1,0,0:0:0:70:hihat.wav
182,192,161758,1,0,0:0:0:70:hihat.wav
256,192,161861,1,0,0:0:0:70:bassdrum.wav
475,192,161861,1,0,0:0:0:70:clap.wav
256,192,162067,1,0,0:0:0:70:bassdrum.wav
182,192,162273,1,0,0:0:0:30:bassdrum.wav
329,192,162273,1,0,0:0:0:70:bassdrum.wav
36,192,162273,1,0,0:0:0:70:cymbol.wav
475,192,162273,128,0,162685:0:0:0:30:bassdrum.wav
402,192,162376,1,0,0:0:0:70:hihat.wav
256,192,162479,1,0,0:0:0:70:hihat.wav
329,192,162582,1,0,0:0:0:70:hihat.wav
182,192,162685,1,0,0:0:0:70:clap.wav
256,192,162788,1,0,0:0:0:70:hihat.wav
109,192,162892,1,0,0:0:0:70:hihat.wav
182,192,162995,1,0,0:0:0:70:hihat.wav
329,192,163098,1,0,0:0:0:70:bassdrum.wav
36,192,163098,1,0,0:0:0:70:hihat.wav
256,192,163201,1,0,0:0:0:70:hihat.wav
182,192,163304,1,0,0:0:0:70:hihat.wav
256,192,163407,1,0,0:0:0:70:hihat.wav
109,192,163510,1,0,0:0:0:70:clap.wav
329,192,163510,1,0,0:0:0:70:bassdrum.wav
402,192,163613,1,0,0:0:0:70:hihat.wav
329,192,163716,1,0,0:0:0:70:hihat.wav
256,192,163819,1,0,0:0:0:70:hihat.wav
36,192,163922,1,0,0:0:0:30:
109,192,163922,128,0,164335:0:0:0:30:bassdrum.wav
402,192,163922,1,0,0:0:0:70:bassdrum.wav
329,192,164129,1,0,0:0:0:70:hihat.wav
256,192,164335,1,0,0:0:0:70:bassdrum.wav
36,192,164335,1,0,0:0:0:70:clap.wav
329,192,164541,1,0,0:0:0:70:hihat.wav
36,192,164747,1,0,0:0:0:70:bassdrum.wav
402,192,164747,128,0,165160:0:0:0:30:
109,192,164953,1,0,0:0:0:70:hihat.wav
329,192,165056,1,0,0:0:0:70:hihat.wav
256,192,165160,1,0,0:0:0:70:clap.wav
36,192,165160,1,0,0:0:0:70:bassdrum.wav
256,192,165366,1,0,0:0:0:70:bassdrum.wav
475,192,165366,1,0,0:0:0:70:hihat.wav
109,192,165572,1,0,0:0:0:70:bassdrum.wav
402,192,165572,1,0,0:0:0:70:cymbol.wav
256,192,165572,128,0,165984:0:0:0:30:
182,192,165778,1,0,0:0:0:70:hihat.wav
109,192,165984,1,0,0:0:0:70:bassdrum.wav
36,192,165984,1,0,0:0:0:30:
475,192,165984,1,0,0:0:0:70:clap.wav
402,192,166191,1,0,0:0:0:70:hihat.wav
329,192,166397,1,0,0:0:0:70:bassdrum.wav
475,192,166397,1,0,0:0:0:30:
109,192,166397,128,0,166809:0:0:0:30:
256,192,166603,1,0,0:0:0:70:hihat.wav
182,192,166809,1,0,0:0:0:70:clap.wav
402,192,166809,1,0,0:0:0:70:bassdrum.wav
475,192,166809,1,0,0:0:0:30:
109,192,167015,1,0,0:0:0:70:hihat.wav
256,192,167221,1,0,0:0:0:70:bassdrum.wav
36,192,167221,1,0,0:0:0:30:
475,192,167221,1,0,0:0:0:30:
402,192,167325,1,0,0:0:0:70:hihat.wav
329,192,167428,1,0,0:0:0:70:hihat.wav
256,192,167531,1,0,0:0:0:70:hihat.wav
109,192,167634,1,0,0:0:0:70:clap.wav
402,192,167634,1,0,0:0:0:70:bassdrum.wav
182,192,167840,1,0,0:0:0:70:hihat.wav
329,192,167840,1,0,0:0:0:30:
256,192,168046,1,0,0:0:0:70:bassdrum.wav
36,192,168046,1,0,0:0:0:30:
475,192,168046,1,0,0:0:0:30:
36,192,168252,1,0,0:0:0:70:bassdrum.wav
256,192,168355,1,0,0:0:0:70:bassdrum.wav
475,192,168355,1,0,0:0:0:30:
402,192,168665,1,0,0:0:0:70:hihat.wav
256,192,168665,1,0,0:0:0:70:bassdrum.wav
36,192,168871,1,0,0:0:0:70:bassdrum.wav
475,192,168871,1,0,0:0:0:70:cymbol.wav
182,192,168871,128,0,169283:0:0:0:30:
402,192,169077,1,0,0:0:0:70:hihat.wav
109,192,169283,1,0,0:0:0:70:bassdrum.wav
36,192,169283,1,0,0:0:0:70:clap.wav
329,192,169489,1,0,0:0:0:70:hihat.wav
182,192,169696,1,0,0:0:0:70:bassdrum.wav
475,192,169696,1,0,0:0:0:30:
36,192,169696,128,0,170108:0:0:0:30:
402,192,169902,1,0,0:0:0:70:hihat.wav
109,192,170108,1,0,0:0:0:70:bassdrum.wav
182,192,170108,1,0,0:0:0:70:clap.wav
329,192,170108,1,0,0:0:0:30:
402,192,170314,1,0,0:0:0:70:hihat.wav
36,192,170520,1,0,0:0:0:70:cymbol.wav
256,192,170520,128,0,170933:0:0:0:70:bassdrum.wav
475,192,170727,1,0,0:0:0:70:hihat.wav
182,192,170933,1,0,0:0:0:70:bassdrum.wav
329,192,170933,1,0,0:0:0:70:clap.wav
36,192,170933,1,0,0:0:0:30:
402,192,171139,1,0,0:0:0:70:hihat.wav
182,192,171345,1,0,0:0:0:70:bassdrum.wav
475,192,171345,128,0,171758:0:0:0:30:bassdrum.wav
36,192,171551,1,0,0:0:0:0:
109,192,171654,1,0,0:0:0:0:
182,192,171758,1,0,0:0:0:70:clap.wav
256,192,171758,1,0,0:0:0:70:bassdrum.wav
402,192,171758,1,0,0:0:0:30:bassdrum.wav
256,192,171964,1,0,0:0:0:70:bassdrum.wav
475,192,171964,1,0,0:0:0:70:hihat.wav
256,192,172170,1,0,0:0:0:70:bassdrum.wav
402,192,172170,1,0,0:0:0:30:bassdrum.wav
36,192,172170,1,0,0:0:0:70:cymbol.wav
109,192,172170,128,0,172582:0:0:0:30:bassdrum.wav
329,192,172376,1,0,0:0:0:70:hihat.wav
256,192,172582,1,0,0:0:0:70:bassdrum.wav
36,192,172582,1,0,0:0:0:30:bassdrum.wav
475,192,172582,1,0,0:0:0:70:clap.wav
182,192,172788,1,0,0:0:0:70:hihat.wav
109,192,172995,1,0,0:0:0:70:bassdrum.wav
329,192,172995,1,0,0:0:0:30:
475,192,172995,128,0,173407:0:0:0:30:
36,192,173201,1,0,0:0:0:70:hihat.wav
109,192,173407,1,0,0:0:0:70:clap.wav
256,192,173407,1,0,0:0:0:70:bassdrum.wav
329,192,173407,1,0,0:0:0:30:
182,192,173613,1,0,0:0:0:70:bassdrum.wav
182,192,173716,1,0,0:0:0:30:
256,192,173819,1,0,0:0:0:70:bassdrum.wav
36,192,173819,1,0,0:0:0:30:
475,192,173819,1,0,0:0:0:30:
109,192,173922,1,0,0:0:0:70:hihat.wav
182,192,174026,1,0,0:0:0:70:hihat.wav
256,192,174129,1,0,0:0:0:70:hihat.wav
329,192,174232,1,0,0:0:0:70:bassdrum.wav
36,192,174232,1,0,0:0:0:30:
475,192,174232,1,0,0:0:0:70:clap.wav
256,192,174438,1,0,0:0:0:70:hihat.wav
182,192,174541,1,0,0:0:0:70:hihat.wav
329,192,174644,1,0,0:0:0:70:bassdrum.wav
36,192,174644,1,0,0:0:0:30:
475,192,174644,1,0,0:0:0:30:
256,192,174747,1,0,0:0:0:70:hihat.wav
182,192,174850,1,0,0:0:0:70:hihat.wav
256,192,174953,1,0,0:0:0:70:hihat.wav
109,192,175056,1,0,0:0:0:30:
329,192,175056,1,0,0:0:0:70:clap.wav
402,192,175056,1,0,0:0:0:70:bassdrum.wav
109,192,175263,1,0,0:0:0:70:hihat.wav
256,192,175263,1,0,0:0:0:30:
402,192,175263,1,0,0:0:0:70:bassdrum.wav
182,192,175366,1,0,0:0:0:30:
475,192,175469,1,0,0:0:0:30:
402,192,175572,1,0,0:0:0:70:hihat.wav
329,192,175675,1,0,0:0:0:70:hihat.wav
256,192,175778,1,0,0:0:0:70:hihat.wav
182,192,175881,1,0,0:0:0:70:hihat.wav
109,192,175984,1,0,0:0:0:70:hihat.wav
256,192,176087,1,0,0:0:0:70:hihat.wav
182,192,176191,1,0,0:0:0:70:hihat.wav
36,192,176294,1,0,0:0:0:70:hihat.wav
109,192,176397,1,0,0:0:0:70:hihat.wav
182,192,176500,1,0,0:0:0:70:hihat.wav
256,192,176603,1,0,0:0:0:70:hihat.wav
109,192,176706,1,0,0:0:0:70:hihat.wav
256,192,176912,1,0,0:0:0:70:hihat.wav
182,192,177015,1,0,0:0:0:70:hihat.wav
256,192,177118,1,0,0:0:0:70:bassdrum.wav
402,192,177118,1,0,0:0:0:30:
36,192,177118,1,0,0:0:0:30:
329,192,177325,1,0,0:0:0:30:
36,192,177325,1,0,0:0:0:70:hihat.wav
182,192,177531,1,0,0:0:0:70:clap.wav
402,192,177531,1,0,0:0:0:70:bassdrum.wav
109,192,177737,1,0,0:0:0:70:hihat.wav
329,192,177737,1,0,0:0:0:30:
402,192,177943,1,0,0:0:0:70:bassdrum.wav
36,192,177943,1,0,0:0:0:30:
109,192,178046,1,0,0:0:0:70:hihat.wav
182,192,178149,1,0,0:0:0:70:hihat.wav
329,192,178149,1,0,0:0:0:30:
402,192,178355,1,0,0:0:0:70:bassdrum.wav
475,192,178355,1,0,0:0:0:70:clap.wav
329,192,178562,1,0,0:0:0:70:hihat.wav
36,192,178768,1,0,0:0:0:70:bassdrum.wav
475,192,178768,1,0,0:0:0:30:
329,192,178974,1,0,0:0:0:70:hihat.wav
36,192,178974,1,0,0:0:0:30:
182,192,179180,1,0,0:0:0:70:clap.wav
402,192,179180,1,0,0:0:0:70:bassdrum.wav
475,192,179180,1,0,0:0:0:30:
109,192,179386,1,0,0:0:0:70:hihat.wav
329,192,179386,1,0,0:0:0:30:
36,192,179593,1,0,0:0:0:70:bassdrum.wav
475,192,179593,1,0,0:0:0:30:
109,192,179696,1,0,0:0:0:70:hihat.wav
182,192,179799,1,0,0:0:0:70:hihat.wav
329,192,179799,1,0,0:0:0:30:
256,192,180005,1,0,0:0:0:70:bassdrum.wav
402,192,180005,1,0,0:0:0:30:
475,192,180005,1,0,0:0:0:70:clap.wav
182,192,180108,1,0,0:0:0:70:hihat.wav
109,192,180211,1,0,0:0:0:70:bassdrum.wav
256,192,180417,1,0,0:0:0:70:bassdrum.wav
402,192,180417,1,0,0:0:0:30:
36,192,180417,1,0,0:0:0:30:bassdrum.wav
329,192,180624,1,0,0:0:0:70:hihat.wav
36,192,180624,1,0,0:0:0:30:
182,192,180830,1,0,0:0:0:30:
402,192,180830,1,0,0:0:0:70:bassdrum.wav
475,192,180830,1,0,0:0:0:70:clap.wav
109,192,181036,1,0,0:0:0:70:hihat.wav
329,192,181036,1,0,0:0:0:30:
402,192,181242,1,0,0:0:0:70:bassdrum.wav
36,192,181242,1,0,0:0:0:30:
109,192,181345,1,0,0:0:0:70:hihat.wav
182,192,181448,1,0,0:0:0:70:hihat.wav
329,192,181448,1,0,0:0:0:30:
402,192,181654,1,0,0:0:0:70:bassdrum.wav
475,192,181654,1,0,0:0:0:70:clap.wav
329,192,181861,1,0,0:0:0:70:hihat.wav
256,192,182067,1,0,0:0:0:70:bassdrum.wav
36,192,182067,1,0,0:0:0:70:cymbol.wav
109,192,182170,1,0,0:0:0:70:hihat.wav
182,192,182273,1,0,0:0:0:70:hihat.wav
109,192,182376,1,0,0:0:0:70:hihat.wav
256,192,182479,1,0,0:0:0:70:bassdrum.wav
475,192,182479,1,0,0:0:0:70:clap.wav
402,192,182582,1,0,0:0:0:70:hihat.wav
329,192,182685,1,0,0:0:0:70:hihat.wav
402,192,182788,1,0,0:0:0:70:hihat.wav
109,192,182892,1,0,0:0:0:30:
256,192,182892,1,0,0:0:0:70:bassdrum.wav
402,192,182995,1,0,0:0:0:70:hihat.wav
182,192,183201,1,0,0:0:0:70:bassdrum.wav
109,192,183304,1,0,0:0:0:30:
256,192,183304,1,0,0:0:0:70:bassdrum.wav
402,192,183304,1,0,0:0:0:70:clap.wav
402,192,183510,1,0,0:0:0:70:bassdrum.wav
109,192,183716,1,0,0:0:0:30:
256,192,183716,1,0,0:0:0:70:bassdrum.wav
475,192,183716,1,0,0:0:0:70:cymbol.wav
182,192,183922,1,0,0:0:0:70:hihat.wav
475,192,183922,1,0,0:0:0:30:
109,192,184129,1,0,0:0:0:70:bassdrum.wav
329,192,184129,1,0,0:0:0:70:clap.wav
36,192,184129,1,0,0:0:0:30:
182,192,184335,1,0,0:0:0:70:hihat.wav
402,192,184335,1,0,0:0:0:30:
109,192,184541,1,0,0:0:0:70:bassdrum.wav
475,192,184541,1,0,0:0:0:30:
402,192,184644,1,0,0:0:0:70:hihat.wav
182,192,184747,1,0,0:0:0:70:hihat.wav
329,192,184747,1,0,0:0:0:30:
109,192,184953,1,0,0:0:0:70:bassdrum.wav
36,192,184953,1,0,0:0:0:70:clap.wav
182,192,185160,1,0,0:0:0:70:hihat.wav
36,192,185366,1,0,0:0:0:70:bassdrum.wav
475,192,185366,1,0,0:0:0:70:cymbol.wav
182,192,185572,1,0,0:0:0:70:hihat.wav
475,192,185572,1,0,0:0:0:30:
109,192,185778,1,0,0:0:0:70:bassdrum.wav
329,192,185778,1,0,0:0:0:70:clap.wav
36,192,185778,1,0,0:0:0:30:
182,192,185984,1,0,0:0:0:70:hihat.wav
402,192,185984,1,0,0:0:0:30:
36,192,186191,1,0,0:0:0:30:
475,192,186191,1,0,0:0:0:70:bassdrum.wav
402,192,186294,1,0,0:0:0:30:
182,192,186397,1,0,0:0:0:70:hihat.wav
329,192,186397,1,0,0:0:0:30:
256,192,186603,1,0,0:0:0:70:bassdrum.wav
36,192,186603,1,0,0:0:0:70:clap.wav
182,192,186809,1,0,0:0:0:70:hihat.wav
256,192,186809,1,0,0:0:0:70:bassdrum.wav
256,192,187015,1,0,0:0:0:70:bassdrum.wav
475,192,187015,1,0,0:0:0:70:cymbol.wav
182,192,187221,1,0,0:0:0:70:hihat.wav
475,192,187221,1,0,0:0:0:30:
329,192,187428,1,0,0:0:0:70:bassdrum.wav
36,192,187428,1,0,0:0:0:70:clap.wav
182,192,187634,1,0,0:0:0:70:hihat.wav
402,192,187634,1,0,0:0:0:30:
109,192,187840,1,0,0:0:0:70:bassdrum.wav
475,192,187840,1,0,0:0:0:30:
402,192,187943,1,0,0:0:0:70:hihat.wav
182,192,188046,1,0,0:0:0:30:
329,192,188046,1,0,0:0:0:70:hihat.wav
256,192,188252,1,0,0:0:0:70:bassdrum.wav
36,192,188252,1,0,0:0:0:70:clap.wav
182,192,188459,1,0,0:0:0:70:hihat.wav
256,192,188459,1,0,0:0:0:70:bassdrum.wav
256,192,188665,1,0,0:0:0:70:bassdrum.wav
36,192,188665,1,0,0:0:0:30:
475,192,188665,1,0,0:0:0:30:
182,192,188871,1,0,0:0:0:70:hihat.wav
329,192,188974,1,0,0:0:0:70:hihat.wav
36,192,189077,1,0,0:0:0:70:bassdrum.wav
475,192,189077,1,0,0:0:0:70:clap.wav
182,192,189283,1,0,0:0:0:70:hihat.wav
256,192,189489,1,0,0:0:0:70:bassdrum.wav
36,192,189489,1,0,0:0:0:30:
402,192,189696,128,0,189902:0:0:0:30:
182,192,189902,128,0,190108:0:0:0:70:clap.wav
329,192,190108,128,0,190314:0:0:0:30:
109,192,190314,1,0,0:0:0:70:bassdrum.wav
182,192,190314,1,0,0:0:0:70:cymbol.wav
402,192,190314,128,0,190933:0:0:0:30:
36,192,190520,1,0,0:0:0:70:hihat.wav
109,192,190727,1,0,0:0:0:70:bassdrum.wav
182,192,190727,1,0,0:0:0:70:clap.wav
329,192,190933,1,0,0:0:0:30:
36,192,190933,1,0,0:0:0:70:hihat.wav
475,192,191036,1,0,0:0:0:30:
182,192,191139,1,0,0:0:0:70:bassdrum.wav
329,192,191139,128,0,191551:0:0:0:30:
36,192,191345,1,0,0:0:0:70:hihat.wav
109,192,191551,1,0,0:0:0:70:bassdrum.wav
182,192,191551,1,0,0:0:0:70:clap.wav
402,192,191758,1,0,0:0:0:30:
36,192,191758,1,0,0:0:0:70:hihat.wav
109,192,191964,1,0,0:0:0:70:bassdrum.wav
475,192,191964,1,0,0:0:0:30:
256,192,192170,1,0,0:0:0:70:hihat.wav
329,192,192170,1,0,0:0:0:30:
182,192,192376,1,0,0:0:0:70:clap.wav
402,192,192376,1,0,0:0:0:70:bassdrum.wav
329,192,192582,1,0,0:0:0:70:hihat.wav
36,192,192582,128,0,193407:0:0:0:0:
475,192,192788,1,0,0:0:0:70:bassdrum.wav
329,192,192995,1,0,0:0:0:70:hihat.wav
182,192,193201,1,0,0:0:0:70:bassdrum.wav
475,192,193201,1,0,0:0:0:70:clap.wav
329,192,193407,1,0,0:0:0:70:hihat.wav
109,192,193613,1,0,0:0:0:70:bassdrum.wav
475,192,193613,1,0,0:0:0:30:
402,192,193819,1,0,0:0:0:70:hihat.wav
36,192,193819,1,0,0:0:0:30:
329,192,193922,1,0,0:0:0:30:
109,192,194026,1,0,0:0:0:70:bassdrum.wav
402,192,194026,1,0,0:0:0:70:cymbol.wav
36,192,194232,1,0,0:0:0:30:
475,192,194232,1,0,0:0:0:70:hihat.wav
109,192,194438,1,0,0:0:0:70:bassdrum.wav
329,192,194438,1,0,0:0:0:30:
256,192,194541,1,0,0:0:0:30:
329,192,194644,1,0,0:0:0:70:hihat.wav
36,192,194644,1,0,0:0:0:30:
109,192,194850,1,0,0:0:0:70:bassdrum.wav
475,192,194850,1,0,0:0:0:70:cymbol.wav
182,192,195056,1,0,0:0:0:70:hihat.wav
36,192,195056,1,0,0:0:0:30:
109,192,195263,1,0,0:0:0:70:bassdrum.wav
402,192,195263,1,0,0:0:0:70:cymbol.wav
182,192,195469,1,0,0:0:0:70:hihat.wav
475,192,195469,1,0,0:0:0:30:
109,192,195675,1,0,0:0:0:70:bassdrum.wav
402,192,195675,1,0,0:0:0:70:clap.wav
36,192,195881,1,0,0:0:0:70:hihat.wav
475,192,195881,1,0,0:0:0:30:
182,192,196087,128,0,196294:0:0:0:30:
402,192,196087,1,0,0:0:0:70:bassdrum.wav
475,192,196294,1,0,0:0:0:70:hihat.wav
256,192,196294,128,0,196500:0:0:0:30:
36,192,196500,1,0,0:0:0:30:
109,192,196500,1,0,0:0:0:70:bassdrum.wav
329,192,196500,128,0,196706:0:0:0:30:
182,192,196706,1,0,0:0:0:70:hihat.wav
402,192,196706,128,0,196912:0:0:0:70:bassdrum.wav
36,192,196912,1,0,0:0:0:70:cymbol.wav
475,192,196912,128,0,197531:0:0:0:30:bassdrum.wav
329,192,197118,1,0,0:0:0:70:hihat.wav
109,192,197325,1,0,0:0:0:70:bassdrum.wav
182,192,197325,1,0,0:0:0:70:clap.wav
256,192,197531,1,0,0:0:0:70:hihat.wav
36,192,197531,1,0,0:0:0:30:
109,192,197737,1,0,0:0:0:30:
402,192,197737,1,0,0:0:0:70:bassdrum.wav
329,192,197840,1,0,0:0:0:70:hihat.wav
182,192,197943,1,0,0:0:0:70:hihat.wav
402,192,197943,1,0,0:0:0:70:hihat.wav
329,192,198046,1,0,0:0:0:70:hihat.wav
109,192,198149,1,0,0:0:0:70:bassdrum.wav
36,192,198149,1,0,0:0:0:30:
475,192,198149,1,0,0:0:0:70:clap.wav
256,192,198355,1,0,0:0:0:70:hihat.wav
402,192,198355,1,0,0:0:0:30:
329,192,198562,1,0,0:0:0:70:bassdrum.wav
182,192,198562,128,0,198768:0:0:0:30:
109,192,198768,1,0,0:0:0:70:hihat.wav
36,192,198768,128,0,198974:0:0:0:30:
182,192,198974,1,0,0:0:0:30:
256,192,198974,1,0,0:0:0:70:bassdrum.wav
475,192,198974,1,0,0:0:0:70:clap.wav
402,192,199077,1,0,0:0:0:30:
109,192,199180,1,0,0:0:0:70:hihat.wav
475,192,199180,1,0,0:0:0:30:
402,192,199283,1,0,0:0:0:30:
182,192,199386,1,0,0:0:0:30:
329,192,199386,1,0,0:0:0:70:bassdrum.wav
402,192,199593,1,0,0:0:0:30:
36,192,199593,1,0,0:0:0:70:hihat.wav
329,192,199661,1,0,0:0:0:0:
256,192,199730,1,0,0:0:0:0:
182,192,199799,1,0,0:0:0:30:
402,192,199799,1,0,0:0:0:70:bassdrum.wav
475,192,199799,1,0,0:0:0:70:clap.wav
109,192,200005,1,0,0:0:0:70:bassdrum.wav
329,192,200005,1,0,0:0:0:70:hihat.wav
182,192,200211,1,0,0:0:0:70:bassdrum.wav
402,192,200211,1,0,0:0:0:70:cymbol.wav
109,192,200417,1,0,0:0:0:30:
329,192,200417,1,0,0:0:0:70:hihat.wav
402,192,200624,1,0,0:0:0:70:clap.wav
182,192,200624,1,0,0:0:0:70:bassdrum.wav
109,192,200830,1,0,0:0:0:70:hihat.wav
329,192,200830,1,0,0:0:0:0:
256,192,201036,1,0,0:0:0:70:bassdrum.wav
475,192,201036,1,0,0:0:0:70:cymbol.wav
36,192,201036,1,0,0:0:0:0:
109,192,201242,1,0,0:0:0:30:
329,192,201242,1,0,0:0:0:70:hihat.wav
182,192,201448,1,0,0:0:0:70:bassdrum.wav
402,192,201448,1,0,0:0:0:70:clap.wav
109,192,201654,1,0,0:0:0:70:bassdrum.wav
329,192,201654,1,0,0:0:0:70:hihat.wav
256,192,201861,1,0,0:0:0:70:bassdrum.wav
475,192,201861,1,0,0:0:0:70:cymbol.wav
329,192,201964,1,0,0:0:0:0:
109,192,202067,1,0,0:0:0:30:
402,192,202067,1,0,0:0:0:30:
329,192,202170,1,0,0:0:0:30:
182,192,202273,1,0,0:0:0:70:clap.wav
256,192,202273,1,0,0:0:0:70:bassdrum.wav
36,192,202273,1,0,0:0:0:30:
475,192,202273,1,0,0:0:0:30:
329,192,202479,1,0,0:0:0:30:
256,192,202582,1,0,0:0:0:70:hihat.wav
109,192,202685,1,0,0:0:0:70:bassdrum.wav
475,192,202685,1,0,0:0:0:30:
329,192,202788,1,0,0:0:0:30:
182,192,202892,1,0,0:0:0:70:bassdrum.wav
329,192,202995,1,0,0:0:0:30:
182,192,203098,1,0,0:0:0:70:bassdrum.wav
36,192,203098,1,0,0:0:0:70:clap.wav
329,192,203201,1,0,0:0:0:30:
109,192,203304,1,0,0:0:0:70:bassdrum.wav
475,192,203304,1,0,0:0:0:30:
329,192,203407,1,0,0:0:0:30:
256,192,203510,1,0,0:0:0:70:bassdrum.wav
36,192,203510,1,0,0:0:0:30:
475,192,203510,1,0,0:0:0:70:cymbol.wav
256,192,203819,1,0,0:0:0:70:bassdrum.wav
36,192,203819,1,0,0:0:0:30:
475,192,203819,1,0,0:0:0:70:cymbol.wav
256,192,204129,1,0,0:0:0:70:bassdrum.wav
36,192,204129,1,0,0:0:0:30:
475,192,204129,1,0,0:0:0:70:cymbol.wav
182,192,204335,1,0,0:0:0:70:bassdrum.wav
329,192,204335,1,0,0:0:0:30:
182,192,204541,1,0,0:0:0:30:
329,192,204541,1,0,0:0:0:30:
182,192,204747,1,0,0:0:0:30:
329,192,204850,1,0,0:0:0:30:
182,192,204953,1,0,0:0:0:30:
329,192,205056,1,0,0:0:0:30:
109,192,205160,1,0,0:0:0:70:bassdrum.wav
402,192,205572,1,0,0:0:0:70:bassdrum.wav
109,192,205984,1,0,0:0:0:70:bassdrum.wav
402,192,206397,1,0,0:0:0:70:bassdrum.wav
182,192,206809,1,0,0:0:0:70:bassdrum.wav
329,192,207221,1,0,0:0:0:70:bassdrum.wav
182,192,207634,1,0,0:0:0:70:bassdrum.wav
329,192,208046,1,0,0:0:0:70:bassdrum.wav
36,192,208459,1,0,0:0:0:70:bassdrum.wav
182,192,208871,1,0,0:0:0:70:bassdrum.wav
475,192,208871,1,0,0:0:0:70:cymbol.wav
36,192,209283,1,0,0:0:0:70:bassdrum.wav
109,192,209696,1,0,0:0:0:70:bassdrum.wav
475,192,209696,1,0,0:0:0:70:cymbol.wav
329,192,210108,1,0,0:0:0:30:
36,192,210108,1,0,0:0:0:70:bassdrum.wav
402,192,210314,1,0,0:0:0:30:
329,192,210417,1,0,0:0:0:30:
36,192,210520,1,0,0:0:0:70:bassdrum.wav
475,192,210520,1,0,0:0:0:30:
402,192,210727,1,0,0:0:0:30:
36,192,210933,1,0,0:0:0:70:bassdrum.wav
475,192,210933,1,0,0:0:0:30:
329,192,211036,1,0,0:0:0:30:
182,192,211139,1,0,0:0:0:70:bassdrum.wav
109,192,211242,1,0,0:0:0:30:
36,192,211242,1,0,0:0:0:70:bassdrum.wav
402,192,211345,1,0,0:0:0:30:
475,192,211448,1,0,0:0:0:30:
402,192,211551,1,0,0:0:0:70:bassdrum.wav
36,192,211551,1,0,0:0:0:30:
329,192,211654,1,0,0:0:0:30:
109,192,211758,1,0,0:0:0:70:bassdrum.wav
402,192,212170,1,0,0:0:0:70:bassdrum.wav
109,192,212582,1,0,0:0:0:70:bassdrum.wav
402,192,212995,1,0,0:0:0:70:bassdrum.wav
36,192,213407,1,0,0:0:0:70:cymbol.wav
329,192,213819,1,0,0:0:0:70:bassdrum.wav
36,192,214232,1,0,0:0:0:70:bassdrum.wav
329,192,214644,1,0,0:0:0:70:bassdrum.wav
329,192,214850,1,0,0:0:0:70:bassdrum.wav
182,192,215056,1,0,0:0:0:70:bassdrum.wav
475,192,215056,1,0,0:0:0:70:cymbol.wav
109,192,215469,1,0,0:0:0:70:bassdrum.wav
402,192,215881,1,0,0:0:0:70:bassdrum.wav
475,192,215881,1,0,0:0:0:70:cymbol.wav
109,192,216294,1,0,0:0:0:70:bassdrum.wav
182,192,216706,1,0,0:0:0:70:bassdrum.wav
329,192,216706,1,0,0:0:0:30:
182,192,216912,1,0,0:0:0:70:hihat.wav
329,192,216912,1,0,0:0:0:70:hihat.wav
109,192,217015,1,0,0:0:0:70:hihat.wav
402,192,217118,1,0,0:0:0:70:hihat.wav
182,192,217325,1,0,0:0:0:70:hihat.wav
329,192,217325,1,0,0:0:0:70:hihat.wav
475,192,217531,1,0,0:0:0:70:bassdrum.wav
402,192,217634,1,0,0:0:0:70:hihat.wav
329,192,217737,1,0,0:0:0:70:hihat.wav
182,192,217840,1,0,0:0:0:70:hihat.wav
109,192,217943,1,0,0:0:0:70:hihat.wav
36,192,218046,1,0,0:0:0:70:hihat.wav
402,192,218149,1,0,0:0:0:70:bassdrum.wav
329,192,218252,1,0,0:0:0:30:
36,192,218355,1,0,0:0:0:70:cymbol.wav
475,192,218355,128,0,218768:0:0:0:70:bassdrum.wav
109,192,218459,1,0,0:0:0:30:
182,192,218562,1,0,0:0:0:70:hihat.wav
109,192,218665,1,0,0:0:0:30:
402,192,218768,1,0,0:0:0:70:clap.wav
329,192,218871,1,0,0:0:0:30:
256,192,218974,1,0,0:0:0:70:hihat.wav
329,192,219077,1,0,0:0:0:30:
256,192,219180,1,0,0:0:0:70:bassdrum.wav
36,192,219180,1,0,0:0:0:30:
475,192,219283,1,0,0:0:0:30:
329,192,219386,1,0,0:0:0:70:hihat.wav
182,192,219489,1,0,0:0:0:30:
109,192,219593,1,0,0:0:0:70:clap.wav
329,192,219593,1,0,0:0:0:30:
402,192,219593,1,0,0:0:0:70:bassdrum.wav
475,192,219696,1,0,0:0:0:30:
256,192,219799,1,0,0:0:0:70:hihat.wav
329,192,219902,1,0,0:0:0:30:
36,192,220005,1,0,0:0:0:70:bassdrum.wav
109,192,220005,128,0,220417:0:0:0:30:
402,192,220108,1,0,0:0:0:30:
329,192,220211,1,0,0:0:0:70:hihat.wav
402,192,220314,1,0,0:0:0:30:
182,192,220417,1,0,0:0:0:70:clap.wav
256,192,220417,1,0,0:0:0:70:bassdrum.wav
36,192,220417,1,0,0:0:0:30:
329,192,220624,1,0,0:0:0:70:hihat.wav
36,192,220830,1,0,0:0:0:70:bassdrum.wav
402,192,220830,128,0,221242:0:0:0:30:
475,192,221036,1,0,0:0:0:70:hihat.wav
329,192,221139,1,0,0:0:0:70:hihat.wav
256,192,221242,1,0,0:0:0:70:bassdrum.wav
36,192,221242,1,0,0:0:0:70:clap.wav
256,192,221448,1,0,0:0:0:70:bassdrum.wav
475,192,221448,1,0,0:0:0:70:hihat.wav
109,192,221654,1,0,0:0:0:70:bassdrum.wav
402,192,221654,1,0,0:0:0:30:
256,192,221654,128,0,222067:0:0:0:30:
182,192,221861,1,0,0:0:0:70:hihat.wav
109,192,222067,1,0,0:0:0:70:bassdrum.wav
475,192,222067,1,0,0:0:0:70:clap.wav
402,192,222273,1,0,0:0:0:70:hihat.wav
329,192,222479,1,0,0:0:0:70:bassdrum.wav
475,192,222479,1,0,0:0:0:30:
109,192,222479,128,0,222892:0:0:0:30:
256,192,222685,1,0,0:0:0:70:hihat.wav
182,192,222892,1,0,0:0:0:70:clap.wav
402,192,222892,1,0,0:0:0:70:bassdrum.wav
109,192,223098,1,0,0:0:0:70:hihat.wav
256,192,223304,1,0,0:0:0:70:bassdrum.wav
36,192,223304,1,0,0:0:0:30:
475,192,223304,1,0,0:0:0:30:
402,192,223407,1,0,0:0:0:70:hihat.wav
329,192,223510,1,0,0:0:0:70:hihat.wav
256,192,223613,1,0,0:0:0:70:hihat.wav
109,192,223716,1,0,0:0:0:70:bassdrum.wav
402,192,223716,1,0,0:0:0:70:clap.wav
182,192,223922,1,0,0:0:0:70:hihat.wav
329,192,223922,1,0,0:0:0:30:
256,192,224129,1,0,0:0:0:70:bassdrum.wav
36,192,224129,1,0,0:0:0:30:
475,192,224129,1,0,0:0:0:30:
36,192,224335,1,0,0:0:0:70:bassdrum.wav
256,192,224438,1,0,0:0:0:70:bassdrum.wav
475,192,224438,1,0,0:0:0:30:
256,192,224747,1,0,0:0:0:70:bassdrum.wav
402,192,224747,1,0,0:0:0:30:
36,192,224953,1,0,0:0:0:70:bassdrum.wav
475,192,224953,1,0,0:0:0:70:cymbol.wav
182,192,224953,128,0,225366:0:0:0:30:
402,192,225160,1,0,0:0:0:70:hihat.wav
109,192,225366,1,0,0:0:0:70:bassdrum.wav
36,192,225366,1,0,0:0:0:70:clap.wav
329,192,225572,1,0,0:0:0:70:hihat.wav
182,192,225778,1,0,0:0:0:70:bassdrum.wav
475,192,225778,1,0,0:0:0:30:
36,192,225778,128,0,226191:0:0:0:30:
402,192,225984,1,0,0:0:0:70:hihat.wav
109,192,226191,1,0,0:0:0:70:bassdrum.wav
182,192,226191,1,0,0:0:0:70:clap.wav
329,192,226191,1,0,0:0:0:30:
402,192,226397,1,0,0:0:0:70:hihat.wav
36,192,226603,1,0,0:0:0:70:cymbol.wav
256,192,226603,128,0,227015:0:0:0:70:bassdrum.wav
475,192,226809,1,0,0:0:0:30:
182,192,227015,1,0,0:0:0:70:bassdrum.wav
329,192,227015,1,0,0:0:0:70:clap.wav
36,192,227015,1,0,0:0:0:30:
402,192,227221,1,0,0:0:0:30:
36,192,227428,1,0,0:0:0:70:bassdrum.wav
475,192,227428,128,0,227840:0:0:0:30:
329,192,227634,1,0,0:0:0:30:
182,192,227840,1,0,0:0:0:70:clap.wav
256,192,227840,1,0,0:0:0:70:bassdrum.wav
402,192,227840,1,0,0:0:0:30:
36,192,227840,1,0,0:0:0:30:
256,192,228046,1,0,0:0:0:70:bassdrum.wav
475,192,228046,1,0,0:0:0:30:
256,192,228252,1,0,0:0:0:70:bassdrum.wav
402,192,228252,1,0,0:0:0:30:
36,192,228252,1,0,0:0:0:70:cymbol.wav
109,192,228252,128,0,228665:0:0:0:30:
329,192,228459,1,0,0:0:0:30:
256,192,228665,1,0,0:0:0:70:bassdrum.wav
36,192,228665,1,0,0:0:0:30:
475,192,228665,1,0,0:0:0:70:clap.wav
182,192,228871,1,0,0:0:0:30:
109,192,229077,1,0,0:0:0:70:bassdrum.wav
329,192,229077,1,0,0:0:0:30:
475,192,229077,128,0,229489:0:0:0:30:
36,192,229283,1,0,0:0:0:30:
109,192,229489,1,0,0:0:0:70:bassdrum.wav
256,192,229489,1,0,0:0:0:30:
329,192,229489,1,0,0:0:0:70:clap.wav
182,192,229696,1,0,0:0:0:30:
182,192,229799,1,0,0:0:0:30:
36,192,229902,1,0,0:0:0:70:bassdrum.wav
475,192,229902,128,0,230211:0:0:0:30:
109,192,230005,1,0,0:0:0:30:
36,192,230108,1,0,0:0:0:30:
109,192,230211,1,0,0:0:0:30:
402,192,230314,1,0,0:0:0:70:bassdrum.wav
182,192,230314,128,0,230624:0:0:0:30:
256,192,230727,1,0,0:0:0:70:bassdrum.wav
402,192,230727,1,0,0:0:0:30:
329,192,230727,128,0,231036:0:0:0:30:
256,192,231139,1,0,0:0:0:70:bassdrum.wav
475,192,231139,1,0,0:0:0:30:
256,192,231345,1,0,0:0:0:70:bassdrum.wav
402,192,231345,1,0,0:0:0:30:
36,192,231551,128,0,233201:0:0:0:30:
109,192,231551,1,0,0:0:0:70:bassdrum.wav
475,192,231551,1,0,0:0:0:70:cymbol.wav
329,192,231551,128,0,232788:0:0:0:30:
182,192,231654,1,0,0:0:0:30:
256,192,231758,1,0,0:0:0:30:
402,192,231861,1,0,0:0:0:30:
475,192,231964,1,0,0:0:0:70:clap.wav
402,192,232067,1,0,0:0:0:30:
256,192,232170,1,0,0:0:0:30:
182,192,232273,1,0,0:0:0:30:
109,192,232376,1,0,0:0:0:70:bassdrum.wav
182,192,232479,1,0,0:0:0:30:
256,192,232582,1,0,0:0:0:30:
402,192,232685,1,0,0:0:0:30:
475,192,232788,1,0,0:0:0:70:clap.wav
402,192,232892,1,0,0:0:0:30:
329,192,232995,1,0,0:0:0:30:
256,192,233098,1,0,0:0:0:30:
475,192,233201,1,0,0:0:0:30:
329,192,233201,128,0,234850:0:0:0:30:
182,192,233201,1,0,0:0:0:70:bassdrum.wav
256,192,233304,1,0,0:0:0:30:
182,192,233407,1,0,0:0:0:30:
109,192,233510,1,0,0:0:0:30:
36,192,233613,1,0,0:0:0:70:clap.wav
256,192,233613,1,0,0:0:0:70:bassdrum.wav
475,192,233716,1,0,0:0:0:30:
402,192,233819,1,0,0:0:0:30:
256,192,233922,1,0,0:0:0:30:
182,192,234026,128,0,234850:0:0:0:30:
109,192,234026,1,0,0:0:0:70:bassdrum.wav
36,192,234129,1,0,0:0:0:30:
475,192,234232,1,0,0:0:0:30:
402,192,234335,1,0,0:0:0:30:
256,192,234438,1,0,0:0:0:70:clap.wav
256,192,234644,1,0,0:0:0:30:
402,192,234644,1,0,0:0:0:30:
36,192,234850,128,0,236500:0:0:0:30:
475,192,234850,1,0,0:0:0:70:cymbol.wav
256,192,234850,1,0,0:0:0:70:bassdrum.wav
402,192,235056,128,0,235263:0:0:0:30:
109,192,235263,1,0,0:0:0:70:bassdrum.wav
329,192,235263,1,0,0:0:0:70:clap.wav
256,192,235469,128,0,235675:0:0:0:30:
475,192,235675,128,0,237325:0:0:0:30:
182,192,235675,1,0,0:0:0:70:bassdrum.wav
329,192,235881,128,0,236087:0:0:0:30:
402,192,236087,1,0,0:0:0:70:clap.wav
109,192,236087,1,0,0:0:0:70:bassdrum.wav
182,192,236294,128,0,236500:0:0:0:30:
256,192,236500,128,0,237325:0:0:0:30:
329,192,236500,1,0,0:0:0:70:bassdrum.wav
109,192,236603,1,0,0:0:0:30:
402,192,236706,1,0,0:0:0:30:
329,192,236809,1,0,0:0:0:30:
182,192,236912,1,0,0:0:0:70:bassdrum.wav
36,192,236912,1,0,0:0:0:70:clap.wav
109,192,237118,1,0,0:0:0:30:
182,192,237221,1,0,0:0:0:30:
329,192,237325,128,0,238149:0:0:0:30:
36,192,237325,1,0,0:0:0:70:bassdrum.wav
402,192,237325,1,0,0:0:0:30:
182,192,237531,1,0,0:0:0:70:bassdrum.wav
402,192,237531,1,0,0:0:0:30:
256,192,237634,1,0,0:0:0:70:bassdrum.wav
475,192,237634,1,0,0:0:0:30:
402,192,237737,1,0,0:0:0:30:
182,192,237737,1,0,0:0:0:30:
109,192,237943,1,0,0:0:0:70:bassdrum.wav
256,192,237943,1,0,0:0:0:30:
36,192,238149,128,0,239799:0:0:0:30:
475,192,238149,128,0,239386:0:0:0:30:
109,192,238149,1,0,0:0:0:70:bassdrum.wav
402,192,238149,1,0,0:0:0:70:cymbol.wav
256,192,238252,1,0,0:0:0:30:
329,192,238355,1,0,0:0:0:30:
256,192,238459,1,0,0:0:0:30:
402,192,238562,1,0,0:0:0:70:clap.wav
109,192,238562,1,0,0:0:0:70:bassdrum.wav
182,192,238665,1,0,0:0:0:30:
329,192,238768,1,0,0:0:0:30:
256,192,238871,1,0,0:0:0:30:
402,192,238974,1,0,0:0:0:70:bassdrum.wav
329,192,239077,1,0,0:0:0:30:
182,192,239180,1,0,0:0:0:30:
256,192,239283,1,0,0:0:0:30:
109,192,239386,1,0,0:0:0:70:clap.wav
402,192,239489,1,0,0:0:0:30:
182,192,239593,1,0,0:0:0:30:
329,192,239696,1,0,0:0:0:30:
475,192,239799,128,0,241448:0:0:0:30:
402,192,239799,1,0,0:0:0:70:bassdrum.wav
329,192,239902,1,0,0:0:0:30:
256,192,240005,1,0,0:0:0:30:
182,192,240108,1,0,0:0:0:30:
109,192,240211,1,0,0:0:0:70:bassdrum.wav
36,192,240211,1,0,0:0:0:30:
329,192,240211,1,0,0:0:0:70:clap.wav
256,192,240417,1,0,0:0:0:30:
402,192,240624,128,0,241448:0:0:0:30:
182,192,240624,1,0,0:0:0:30:
36,192,240624,1,0,0:0:0:70:bassdrum.wav
256,192,240830,1,0,0:0:0:30:
329,192,240933,1,0,0:0:0:30:
36,192,241036,1,0,0:0:0:70:bassdrum.wav
182,192,241036,1,0,0:0:0:70:clap.wav
36,192,241242,1,0,0:0:0:70:bassdrum.wav
182,192,241448,128,0,242273:0:0:0:30:bassdrum.wav
36,192,241448,1,0,0:0:0:70:bassdrum.wav
256,192,241448,1,0,0:0:0:70:cymbol.wav
329,192,241654,1,0,0:0:0:30:
256,192,241861,1,0,0:0:0:70:bassdrum.wav
402,192,241861,1,0,0:0:0:70:clap.wav
329,192,242067,1,0,0:0:0:30:
36,192,242273,128,0,243098:0:0:0:30:bassdrum.wav
475,192,242273,1,0,0:0:0:70:cymbol.wav
329,192,242273,1,0,0:0:0:70:bassdrum.wav
402,192,242479,1,0,0:0:0:30:
329,192,242582,1,0,0:0:0:70:hihat.wav
256,192,242685,1,0,0:0:0:70:bassdrum.wav
182,192,242685,1,0,0:0:0:70:clap.wav
402,192,242892,1,0,0:0:0:30:
329,192,242892,1,0,0:0:0:70:hihat.wav
475,192,243098,1,0,0:0:0:70:cymbol.wav
256,192,243098,1,0,0:0:0:70:bassdrum.wav
182,192,243098,128,0,244747:0:0:0:30:
109,192,243098,1,0,0:0:0:0:
402,192,243201,1,0,0:0:0:30:
329,192,243304,1,0,0:0:0:30:
256,192,243407,1,0,0:0:0:30:
475,192,243510,1,0,0:0:0:70:clap.wav
36,192,243510,1,0,0:0:0:70:bassdrum.wav
402,192,243716,1,0,0:0:0:30:
329,192,243819,1,0,0:0:0:30:
256,192,243922,1,0,0:0:0:30:
36,192,243922,1,0,0:0:0:70:bassdrum.wav
329,192,244129,1,0,0:0:0:30:
475,192,244129,1,0,0:0:0:30:
402,192,244232,1,0,0:0:0:30:
256,192,244335,1,0,0:0:0:70:clap.wav
109,192,244335,1,0,0:0:0:70:bassdrum.wav
329,192,244541,1,0,0:0:0:70:bassdrum.wav
475,192,244541,1,0,0:0:0:30:
36,192,244747,128,0,244850:0:0:0:30:
475,192,244747,1,0,0:0:0:70:cymbol.wav
402,192,244747,1,0,0:0:0:70:bassdrum.wav
256,192,244850,128,0,244953:0:0:0:30:
109,192,244953,128,0,245056:0:0:0:70:hihat.wav
329,192,245056,128,0,245160:0:0:0:30:
182,192,245160,128,0,245263:0:0:0:70:clap.wav
402,192,245263,128,0,245366:0:0:0:30:
256,192,245366,128,0,245469:0:0:0:70:hihat.wav
475,192,245469,128,0,245572:0:0:0:0:
329,192,245572,128,0,245675:0:0:0:70:bassdrum.wav
402,192,245675,128,0,245778:0:0:0:30:
256,192,245778,128,0,245881:0:0:0:0:
329,192,245881,128,0,245984:0:0:0:0:
182,192,245984,128,0,246087:0:0:0:70:clap.wav
256,192,246087,128,0,246191:0:0:0:30:
109,192,246191,128,0,246294:0:0:0:70:hihat.wav
182,192,246294,128,0,246397:0:0:0:30:
475,192,246397,128,0,246809:0:0:0:30:
402,192,246397,1,0,0:0:0:70:bassdrum.wav
329,192,246603,1,0,0:0:0:30:
256,192,246809,128,0,247221:0:0:0:30:
402,192,246809,1,0,0:0:0:70:bassdrum.wav
182,192,246809,1,0,0:0:0:70:clap.wav
329,192,247015,1,0,0:0:0:30:
36,192,247221,128,0,247634:0:0:0:30:
475,192,247221,1,0,0:0:0:30:
109,192,247221,1,0,0:0:0:70:bassdrum.wav
402,192,247428,1,0,0:0:0:30:
329,192,247531,1,0,0:0:0:30:
182,192,247634,128,0,248046:0:0:0:70:bassdrum.wav
256,192,247634,1,0,0:0:0:70:clap.wav
256,192,247840,1,0,0:0:0:70:bassdrum.wav
329,192,248046,128,0,248459:0:0:0:30:
256,192,248046,1,0,0:0:0:70:bassdrum.wav
402,192,248252,1,0,0:0:0:30:
256,192,248355,1,0,0:0:0:30:
475,192,248459,128,0,248871:0:0:0:30:
182,192,248459,1,0,0:0:0:70:clap.wav
36,192,248459,1,0,0:0:0:70:bassdrum.wav
402,192,248665,1,0,0:0:0:30:
256,192,248871,1,0,0:0:0:70:bassdrum.wav
109,192,248871,128,0,249283:0:0:0:30:
329,192,249077,1,0,0:0:0:30:
402,192,249180,1,0,0:0:0:30:
256,192,249283,128,0,249696:0:0:0:30:
475,192,249283,1,0,0:0:0:70:bassdrum.wav
182,192,249283,1,0,0:0:0:70:clap.wav
329,192,249489,1,0,0:0:0:30:
36,192,249696,1,0,0:0:0:70:bassdrum.wav
475,192,249696,1,0,0:0:0:30:
109,192,249799,1,0,0:0:0:70:hihat.wav
182,192,249902,1,0,0:0:0:30:
329,192,249902,1,0,0:0:0:70:hihat.wav
475,192,250108,1,0,0:0:0:70:clap.wav
36,192,250108,1,0,0:0:0:70:bassdrum.wav
256,192,250108,1,0,0:0:0:70:hihat.wav
329,192,250314,1,0,0:0:0:70:hihat.wav
182,192,250417,1,0,0:0:0:70:hihat.wav
475,192,250520,1,0,0:0:0:30:
36,192,250520,1,0,0:0:0:70:bassdrum.wav
109,192,250624,1,0,0:0:0:70:hihat.wav
402,192,250624,1,0,0:0:0:0:
329,192,250727,1,0,0:0:0:70:bassdrum.wav
182,192,250727,1,0,0:0:0:70:bassdrum.wav
402,192,250830,1,0,0:0:0:70:bassdrum.wav
109,192,250830,1,0,0:0:0:70:hihat.wav
36,192,250933,1,0,0:0:0:70:bassdrum.wav
475,192,250933,1,0,0:0:0:70:hihat.wav
256,192,250933,1,0,0:0:0:70:clap.wav
402,192,251036,1,0,0:0:0:70:hihat.wav
329,192,251139,1,0,0:0:0:70:bassdrum.wav
182,192,251139,1,0,0:0:0:70:hihat.wav
109,192,251242,1,0,0:0:0:70:hihat.wav
36,192,251345,1,0,0:0:0:70:cymbol.wav
475,192,251345,128,0,251448:0:0:0:30:
256,192,251345,1,0,0:0:0:70:bassdrum.wav
182,192,251448,128,0,251551:0:0:0:70:hihat.wav
402,192,251551,128,0,251654:0:0:0:70:hihat.wav
109,192,251654,128,0,251758:0:0:0:70:hihat.wav
36,192,251758,128,0,251861:0:0:0:70:clap.wav
475,192,251758,128,0,251861:0:0:0:30:
182,192,251861,128,0,251964:0:0:0:30:
329,192,251964,128,0,252067:0:0:0:0:
475,192,252067,128,0,252170:0:0:0:30:
182,192,252170,128,0,252273:0:0:0:70:bassdrum.wav
36,192,252273,128,0,252376:0:0:0:70:hihat.wav
256,192,252376,128,0,252479:0:0:0:70:hihat.wav
109,192,252479,128,0,252582:0:0:0:70:hihat.wav
329,192,252582,128,0,252685:0:0:0:30:
475,192,252582,128,0,252685:0:0:0:70:clap.wav
182,192,252685,128,0,252788:0:0:0:70:hihat.wav
402,192,252788,128,0,252892:0:0:0:70:hihat.wav
256,192,252892,128,0,252995:0:0:0:70:hihat.wav
475,192,252995,128,0,253098:0:0:0:70:bassdrum.wav
36,192,253098,128,0,253201:0:0:0:30:
402,192,253201,128,0,253304:0:0:0:70:hihat.wav
182,192,253304,128,0,253407:0:0:0:30:
329,192,253407,128,0,253510:0:0:0:70:clap.wav
109,192,253510,128,0,253613:0:0:0:30:
256,192,253613,128,0,253716:0:0:0:70:hihat.wav
475,192,253716,128,0,253819:0:0:0:70:hihat.wav
329,192,253819,128,0,253922:0:0:0:70:bassdrum.wav
36,192,253819,128,0,253922:0:0:0:30:
182,192,253922,128,0,254026:0:0:0:30:
402,192,254026,128,0,254129:0:0:0:70:hihat.wav
256,192,254129,128,0,254232:0:0:0:30:
329,192,254232,1,0,0:0:0:70:bassdrum.wav
109,192,254232,1,0,0:0:0:70:clap.wav
182,192,254438,1,0,0:0:0:70:hihat.wav
402,192,254438,1,0,0:0:0:70:bassdrum.wav
256,192,254644,128,0,254747:0:0:0:0:
36,192,254644,1,0,0:0:0:70:cymbol.wav
475,192,254644,1,0,0:0:0:70:bassdrum.wav
402,192,254747,128,0,254850:0:0:0:70:hihat.wav
182,192,254850,128,0,254953:0:0:0:70:hihat.wav
329,192,254953,128,0,255056:0:0:0:70:hihat.wav
109,192,255056,128,0,255160:0:0:0:70:hihat.wav
475,192,255056,1,0,0:0:0:70:clap.wav
256,192,255160,128,0,255263:0:0:0:30:
36,192,255263,128,0,255366:0:0:0:30:
182,192,255366,128,0,255469:0:0:0:30:
402,192,255469,128,0,255572:0:0:0:70:bassdrum.wav
475,192,255469,1,0,0:0:0:70:cymbol.wav
256,192,255572,128,0,255675:0:0:0:30:
36,192,255675,128,0,255778:0:0:0:70:hihat.wav
182,192,255778,128,0,255881:0:0:0:70:hihat.wav
402,192,255881,128,0,255984:0:0:0:70:clap.wav
475,192,255881,1,0,0:0:0:70:bassdrum.wav
256,192,255984,128,0,256087:0:0:0:30:
36,192,256087,128,0,256191:0:0:0:30:
182,192,256191,128,0,256294:0:0:0:30:
475,192,256294,1,0,0:0:0:70:bassdrum.wav
256,192,256294,1,0,0:0:0:70:cymbol.wav
402,192,256397,1,0,0:0:0:70:hihat.wav
329,192,256500,1,0,0:0:0:70:hihat.wav
256,192,256603,1,0,0:0:0:70:hihat.wav
36,192,256706,128,0,256912:0:0:0:30:
182,192,256706,1,0,0:0:0:70:clap.wav
329,192,256706,1,0,0:0:0:70:bassdrum.wav
402,192,256809,1,0,0:0:0:70:hihat.wav
256,192,256912,1,0,0:0:0:70:bassdrum.wav
402,192,257015,1,0,0:0:0:70:hihat.wav
109,192,257118,128,0,257325:0:0:0:30:
182,192,257118,1,0,0:0:0:70:bassdrum.wav
329,192,257118,1,0,0:0:0:30:
475,192,257221,1,0,0:0:0:70:hihat.wav
329,192,257325,1,0,0:0:0:30:
475,192,257428,1,0,0:0:0:70:hihat.wav
402,192,257531,128,0,257737:0:0:0:30:
182,192,257531,1,0,0:0:0:70:bassdrum.wav
329,192,257531,1,0,0:0:0:70:clap.wav
36,192,257531,1,0,0:0:0:0:
256,192,257737,1,0,0:0:0:70:bassdrum.wav
256,192,257840,1,0,0:0:0:70:bassdrum.wav
109,192,257943,128,0,258355:0:0:0:30:
475,192,257943,1,0,0:0:0:70:bassdrum.wav
329,192,257943,1,0,0:0:0:70:cymbol.wav
36,192,257943,1,0,0:0:0:70:hihat.wav
182,192,258149,1,0,0:0:0:70:hihat.wav
329,192,258355,128,0,258768:0:0:0:30:
475,192,258355,1,0,0:0:0:70:clap.wav
36,192,258355,1,0,0:0:0:70:bassdrum.wav
402,192,258459,1,0,0:0:0:70:hihat.wav
256,192,258562,1,0,0:0:0:70:hihat.wav
402,192,258768,1,0,0:0:0:30:
36,192,258768,1,0,0:0:0:70:bassdrum.wav
256,192,258768,128,0,259180:0:0:0:30:
475,192,258974,1,0,0:0:0:70:hihat.wav
329,192,259077,1,0,0:0:0:70:hihat.wav
36,192,259180,1,0,0:0:0:70:clap.wav
402,192,259180,128,0,259593:0:0:0:30:
109,192,259386,1,0,0:0:0:30:
475,192,259386,1,0,0:0:0:70:hihat.wav
329,192,259593,1,0,0:0:0:30:
36,192,259593,1,0,0:0:0:70:bassdrum.wav
256,192,259593,128,0,260005:0:0:0:30:
475,192,259799,1,0,0:0:0:70:hihat.wav
329,192,260005,1,0,0:0:0:70:clap.wav
36,192,260005,1,0,0:0:0:70:bassdrum.wav
182,192,260005,128,0,260417:0:0:0:30:
402,192,260108,1,0,0:0:0:30:
475,192,260211,1,0,0:0:0:0:
256,192,260417,1,0,0:0:0:70:bassdrum.wav
402,192,260417,1,0,0:0:0:30:
109,192,260417,128,0,260830:0:0:0:30:
475,192,260624,1,0,0:0:0:0:
329,192,260727,1,0,0:0:0:30:
256,192,260830,1,0,0:0:0:70:bassdrum.wav
36,192,260830,1,0,0:0:0:70:clap.wav
402,192,260830,128,0,261242:0:0:0:30:
475,192,261036,1,0,0:0:0:30:
109,192,261242,1,0,0:0:0:70:bassdrum.wav
36,192,261242,128,0,262892:0:0:0:30:
256,192,261345,1,0,0:0:0:0:
329,192,261448,1,0,0:0:0:30:
109,192,261654,1,0,0:0:0:70:bassdrum.wav
182,192,261654,1,0,0:0:0:70:clap.wav
475,192,261654,1,0,0:0:0:30:
329,192,261792,1,0,0:0:0:30:
256,192,261929,1,0,0:0:0:30:
182,192,262067,1,0,0:0:0:30:
402,192,262067,1,0,0:0:0:70:bassdrum.wav
256,192,262204,1,0,0:0:0:30:
329,192,262342,1,0,0:0:0:30:
182,192,262479,1,0,0:0:0:70:bassdrum.wav
475,192,262479,1,0,0:0:0:70:clap.wav
402,192,262617,1,0,0:0:0:30:
329,192,262754,1,0,0:0:0:30:
256,192,262892,1,0,0:0:0:30:
109,192,262892,1,0,0:0:0:70:bassdrum.wav
475,192,262892,1,0,0:0:0:30:
182,192,263029,1,0,0:0:0:30:
256,192,263166,1,0,0:0:0:30:
329,192,263304,1,0,0:0:0:70:clap.wav
36,192,263304,1,0,0:0:0:70:bassdrum.wav
402,192,263441,1,0,0:0:0:30:
475,192,263579,1,0,0:0:0:30:
256,192,263716,1,0,0:0:0:70:bassdrum.wav
36,192,263716,128,0,264335:0:0:0:0:
329,192,263819,1,0,0:0:0:30:
256,192,264026,1,0,0:0:0:70:bassdrum.wav
475,192,264026,1,0,0:0:0:30:
329,192,264129,1,0,0:0:0:30:
109,192,264335,1,0,0:0:0:70:bassdrum.wav
402,192,264335,1,0,0:0:0:30:
329,192,264438,1,0,0:0:0:30:
109,192,264541,1,0,0:0:0:70:bassdrum.wav
402,192,264541,1,0,0:0:0:70:cymbol.wav
256,192,264541,128,0,264953:0:0:0:30:
182,192,264644,1,0,0:0:0:30:
36,192,264747,1,0,0:0:0:30:
182,192,264850,1,0,0:0:0:30:
329,192,264953,1,0,0:0:0:70:bassdrum.wav
475,192,264953,1,0,0:0:0:70:clap.wav
109,192,264953,128,0,265366:0:0:0:30:
36,192,265056,1,0,0:0:0:30:
402,192,265160,1,0,0:0:0:30:
256,192,265263,1,0,0:0:0:30:
182,192,265366,1,0,0:0:0:70:bassdrum.wav
36,192,265366,1,0,0:0:0:30:
402,192,265366,128,0,265778:0:0:0:30:
256,192,265469,1,0,0:0:0:30:
329,192,265572,1,0,0:0:0:30:
109,192,265675,1,0,0:0:0:30:
475,192,265675,1,0,0:0:0:30:
182,192,265778,1,0,0:0:0:70:bassdrum.wav
329,192,265778,1,0,0:0:0:70:clap.wav
36,192,265778,128,0,266191:0:0:0:30:
109,192,265984,1,0,0:0:0:30:
256,192,265984,1,0,0:0:0:30:
182,192,266191,1,0,0:0:0:70:bassdrum.wav
475,192,266191,1,0,0:0:0:30:
402,192,266191,128,0,266603:0:0:0:30:
109,192,266397,1,0,0:0:0:30:
182,192,266500,1,0,0:0:0:30:
256,192,266603,1,0,0:0:0:70:bassdrum.wav
475,192,266603,1,0,0:0:0:70:clap.wav
329,192,266603,128,0,267015:0:0:0:30:
36,192,266706,1,0,0:0:0:30:
182,192,266809,1,0,0:0:0:30:
109,192,266912,1,0,0:0:0:30:
402,192,267015,1,0,0:0:0:30:
36,192,267015,1,0,0:0:0:70:bassdrum.wav
256,192,267015,128,0,267428:0:0:0:30:
475,192,267221,1,0,0:0:0:30:
402,192,267325,1,0,0:0:0:30:
182,192,267428,1,0,0:0:0:70:bassdrum.wav
329,192,267428,1,0,0:0:0:70:clap.wav
36,192,267428,128,0,267840:0:0:0:30:
109,192,267634,1,0,0:0:0:30:
256,192,267840,1,0,0:0:0:70:bassdrum.wav
182,192,267840,128,0,269489:0:0:0:30:
329,192,267840,1,0,0:0:0:30:
402,192,268046,1,0,0:0:0:30:
109,192,268252,1,0,0:0:0:70:bassdrum.wav
329,192,268252,1,0,0:0:0:70:clap.wav
475,192,268355,1,0,0:0:0:30:
402,192,268459,1,0,0:0:0:30:
329,192,268665,1,0,0:0:0:30:
36,192,268665,1,0,0:0:0:70:bassdrum.wav
402,192,268871,1,0,0:0:0:30:
475,192,268974,1,0,0:0:0:30:
329,192,269077,1,0,0:0:0:70:clap.wav
36,192,269077,1,0,0:0:0:70:bassdrum.wav
402,192,269283,1,0,0:0:0:30:
475,192,269283,1,0,0:0:0:30:
329,192,269489,1,0,0:0:0:30:
36,192,269489,1,0,0:0:0:70:bassdrum.wav
402,192,269593,1,0,0:0:0:30:
109,192,269696,1,0,0:0:0:30:
475,192,269696,1,0,0:0:0:30:
182,192,269799,1,0,0:0:0:30:
256,192,269902,1,0,0:0:0:70:bassdrum.wav
475,192,269902,1,0,0:0:0:70:clap.wav
402,192,270108,1,0,0:0:0:30:
36,192,270108,1,0,0:0:0:30:
109,192,270314,1,0,0:0:0:70:bassdrum.wav
329,192,270417,1,0,0:0:0:30:
109,192,270520,1,0,0:0:0:30:
402,192,270624,1,0,0:0:0:30:
109,192,270727,1,0,0:0:0:70:bassdrum.wav
256,192,270727,1,0,0:0:0:30:
475,192,270830,1,0,0:0:0:30:
109,192,270933,1,0,0:0:0:70:bassdrum.wav
36,192,270933,1,0,0:0:0:30:
329,192,271036,1,0,0:0:0:30:
182,192,271139,1,0,0:0:0:70:bassdrum.wav
402,192,271139,1,0,0:0:0:70:cymbol.wav
109,192,271139,128,0,272376:0:0:0:30:
36,192,271345,1,0,0:0:0:30:
475,192,271345,1,0,0:0:0:30:
256,192,271551,1,0,0:0:0:70:clap.wav
402,192,271551,1,0,0:0:0:70:bassdrum.wav
475,192,271654,1,0,0:0:0:30:
36,192,271758,1,0,0:0:0:30:
182,192,271964,1,0,0:0:0:30:
402,192,271964,1,0,0:0:0:70:bassdrum.wav
36,192,272170,1,0,0:0:0:30:
475,192,272273,1,0,0:0:0:30:
256,192,272376,1,0,0:0:0:70:clap.wav
402,192,272376,1,0,0:0:0:70:bassdrum.wav
36,192,272582,1,0,0:0:0:30:
475,192,272582,1,0,0:0:0:30:
109,192,272582,128,0,272788:0:0:0:30:
329,192,272788,1,0,0:0:0:70:bassdrum.wav
36,192,272788,128,0,272995:0:0:0:30:
402,192,272995,1,0,0:0:0:30:
109,192,272995,128,0,273201:0:0:0:30:
475,192,273201,1,0,0:0:0:70:clap.wav
182,192,273201,128,0,273407:0:0:0:30:
402,192,273304,1,0,0:0:0:30:
256,192,273407,128,0,274026:0:0:0:30:
329,192,273407,1,0,0:0:0:30:
182,192,273613,1,0,0:0:0:70:bassdrum.wav
475,192,273613,1,0,0:0:0:30:
36,192,273819,1,0,0:0:0:30:
402,192,273922,1,0,0:0:0:30:
329,192,274026,1,0,0:0:0:70:bassdrum.wav
475,192,274026,1,0,0:0:0:70:clap.wav
182,192,274026,128,0,274232:0:0:0:30:
402,192,274232,1,0,0:0:0:30:
109,192,274232,128,0,274438:0:0:0:30:
182,192,274438,1,0,0:0:0:70:bassdrum.wav
36,192,274438,1,0,0:0:0:30:
475,192,274438,1,0,0:0:0:30:
402,192,274541,1,0,0:0:0:30:
109,192,274644,1,0,0:0:0:30:
329,192,274644,1,0,0:0:0:30:
256,192,274747,1,0,0:0:0:30:
182,192,274850,1,0,0:0:0:70:bassdrum.wav
402,192,274850,1,0,0:0:0:70:clap.wav
329,192,274953,1,0,0:0:0:30:
256,192,275056,1,0,0:0:0:30:
475,192,275056,1,0,0:0:0:30:
182,192,275160,1,0,0:0:0:30:
256,192,275263,1,0,0:0:0:30:
36,192,275263,1,0,0:0:0:70:bassdrum.wav
475,192,275263,1,0,0:0:0:30:
329,192,275366,1,0,0:0:0:30:
402,192,275469,1,0,0:0:0:30:
109,192,275572,1,0,0:0:0:30:
256,192,275675,1,0,0:0:0:30:
402,192,275675,1,0,0:0:0:70:clap.wav
36,192,275675,1,0,0:0:0:70:bassdrum.wav
475,192,275778,1,0,0:0:0:30:
109,192,275881,1,0,0:0:0:30:
402,192,275881,1,0,0:0:0:30:
329,192,275984,1,0,0:0:0:30:
256,192,276087,1,0,0:0:0:30:
36,192,276087,1,0,0:0:0:70:bassdrum.wav
329,192,276191,1,0,0:0:0:30:
109,192,276294,1,0,0:0:0:30:
402,192,276294,1,0,0:0:0:30:
182,192,276397,1,0,0:0:0:30:
475,192,276397,128,0,277737:0:0:0:30:
329,192,276500,1,0,0:0:0:70:clap.wav
36,192,276500,1,0,0:0:0:70:bassdrum.wav
109,192,276706,1,0,0:0:0:30:
182,192,276706,1,0,0:0:0:30:
256,192,276912,1,0,0:0:0:30:
402,192,276912,1,0,0:0:0:30:
36,192,276912,1,0,0:0:0:70:bassdrum.wav
109,192,277118,1,0,0:0:0:70:bassdrum.wav
256,192,277118,1,0,0:0:0:0:
182,192,277221,1,0,0:0:0:70:bassdrum.wav
329,192,277221,1,0,0:0:0:0:
109,192,277325,1,0,0:0:0:70:bassdrum.wav
256,192,277325,1,0,0:0:0:70:clap.wav
402,192,277325,1,0,0:0:0:70:clap.wav
329,192,277531,1,0,0:0:0:70:bassdrum.wav
182,192,277531,1,0,0:0:0:30:
109,192,277737,1,0,0:0:0:70:bassdrum.wav
256,192,277737,1,0,0:0:0:70:cymbol.wav
36,192,277943,1,0,0:0:0:30:
402,192,277943,1,0,0:0:0:30:
109,192,278149,1,0,0:0:0:70:bassdrum.wav
256,192,278149,1,0,0:0:0:70:clap.wav
182,192,278355,1,0,0:0:0:30:
402,192,278355,1,0,0:0:0:30:
329,192,278562,1,0,0:0:0:30:
36,192,278562,1,0,0:0:0:70:bassdrum.wav
402,192,278768,1,0,0:0:0:30:
109,192,278871,1,0,0:0:0:30:
329,192,278974,1,0,0:0:0:70:clap.wav
36,192,278974,1,0,0:0:0:70:bassdrum.wav
182,192,279180,1,0,0:0:0:30:
402,192,279180,1,0,0:0:0:30:
256,192,279386,1,0,0:0:0:70:bassdrum.wav
329,192,279386,1,0,0:0:0:30:
36,192,279386,1,0,0:0:0:30:
109,192,279489,1,0,0:0:0:0:
182,192,279593,1,0,0:0:0:30:
475,192,279593,1,0,0:0:0:30:
109,192,279696,1,0,0:0:0:30:
182,192,279799,1,0,0:0:0:70:bassdrum.wav
402,192,279799,1,0,0:0:0:70:clap.wav
256,192,280005,1,0,0:0:0:30:
36,192,280005,1,0,0:0:0:30:
475,192,280005,1,0,0:0:0:30:
182,192,280211,1,0,0:0:0:70:bassdrum.wav
402,192,280211,1,0,0:0:0:30:
256,192,280417,1,0,0:0:0:30:
109,192,280520,1,0,0:0:0:30:
182,192,280624,1,0,0:0:0:70:bassdrum.wav
475,192,280624,1,0,0:0:0:70:clap.wav
109,192,280830,1,0,0:0:0:30:
329,192,280830,1,0,0:0:0:30:
256,192,281036,1,0,0:0:0:70:bassdrum.wav
36,192,281036,1,0,0:0:0:30:
475,192,281036,1,0,0:0:0:30:
182,192,281242,1,0,0:0:0:30:
402,192,281242,1,0,0:0:0:30:
109,192,281345,1,0,0:0:0:30:
329,192,281345,1,0,0:0:0:30:
402,192,281448,1,0,0:0:0:70:bassdrum.wav
36,192,281448,1,0,0:0:0:70:bassdrum.wav
475,192,281551,1,0,0:0:0:30:
109,192,281654,1,0,0:0:0:30:
402,192,281861,1,0,0:0:0:70:bassdrum.wav
36,192,281861,1,0,0:0:0:30:
329,192,282067,1,0,0:0:0:30:
109,192,282170,1,0,0:0:0:30:
182,192,282273,1,0,0:0:0:70:bassdrum.wav
402,192,282273,1,0,0:0:0:70:bassdrum.wav
256,192,282479,1,0,0:0:0:30:
475,192,282479,1,0,0:0:0:30:
109,192,282685,1,0,0:0:0:70:bassdrum.wav
402,192,282685,1,0,0:0:0:30:
36,192,282685,128,0,284335:0:0:0:30:
475,192,282685,128,0,284335:0:0:0:30:
256,192,282685,128,0,284335:0:0:0:30:
329,192,282892,1,0,0:0:0:30:
182,192,282995,1,0,0:0:0:30:
109,192,283098,1,0,0:0:0:70:bassdrum.wav
329,192,283304,1,0,0:0:0:30:
109,192,283510,1,0,0:0:0:70:bassdrum.wav
182,192,283613,1,0,0:0:0:30:
329,192,283716,1,0,0:0:0:30:
182,192,283819,1,0,0:0:0:30:
109,192,283922,1,0,0:0:0:70:bassdrum.wav
402,192,283922,1,0,0:0:0:30:
182,192,284026,1,0,0:0:0:30:
329,192,284129,1,0,0:0:0:30:
402,192,284129,1,0,0:0:0:30:
182,192,284232,1,0,0:0:0:30:
109,192,284335,1,0,0:0:0:70:bassdrum.wav
402,192,284335,1,0,0:0:0:30:
182,192,284438,1,0,0:0:0:0:
329,192,284541,1,0,0:0:0:30:
109,192,284644,1,0,0:0:0:0:
475,192,284747,1,0,0:0:0:30:
256,192,284747,1,0,0:0:0:0:
182,192,284953,1,0,0:0:0:0:
475,192,284953,1,0,0:0:0:0:
109,192,285056,1,0,0:0:0:0:
402,192,285056,1,0,0:0:0:0:
329,192,285160,1,0,0:0:0:30:
36,192,285160,1,0,0:0:0:0:
402,192,285263,1,0,0:0:0:30:
109,192,285263,1,0,0:0:0:0:
475,192,285366,1,0,0:0:0:30:
182,192,285366,1,0,0:0:0:30:
109,192,285469,1,0,0:0:0:30:
402,192,285469,1,0,0:0:0:30:
329,192,285572,1,0,0:0:0:30:
36,192,285572,1,0,0:0:0:30:
256,192,285572,1,0,0:0:0:0:
109,192,285778,1,0,0:0:0:30:
402,192,285778,1,0,0:0:0:30:
329,192,285881,1,0,0:0:0:30:
182,192,285881,1,0,0:0:0:0:
256,192,285984,1,0,0:0:0:30:
475,192,285984,128,0,292582:0:0:0:30:
36,192,285984,128,0,292582:0:0:0:30:
256,192,286603,1,0,0:0:0:30:
256,192,287221,1,0,0:0:0:30:
256,192,287840,1,0,0:0:0:30:
256,192,288459,128,0,292582:0:0:0:30:
