osu file format v12

[General]
AudioFilename: Eternal Reality.mp3
AudioLeadIn: 1500
PreviewTime: 51294
Countdown: 0
SampleSet: Soft
StackLeniency: 0.7
Mode: 0
LetterboxInBreaks: 0
WidescreenStoryboard: 0

[Editor]
DistanceSpacing: 1.1
BeatDivisor: 4
GridSize: 4

[Metadata]
Title:eternal reality - TV size -
TitleUnicode:eternal reality - TV size -
Artist:fripSide
ArtistUnicode:fripSide
Creator:xChippy
Version:Easy
Source:Toaru Kagaku no Railgun S
Tags:a certain scientific とある科学の超電磁砲 s -Umi- jonathanlfj Opening
BeatmapID:284696
BeatmapSetID:108719

[Difficulty]
HPDrainRate:2
CircleSize:3
OverallDifficulty:2
ApproachRate:3
SliderMultiplier:0.9
SliderTickRate:1

[Events]
//Background and Video events
Video,0,"Music Video.avi"
0,0,"Misaka~Kuroko.jpg",0,0
//Break Periods
//Storyboard Layer 0 (Background)
//Storyboard Layer 1 (Fail)
//Storyboard Layer 2 (Pass)
//Storyboard Layer 3 (Foreground)
//Storyboard Sound Samples
//Background Colour Transformations
3,100,163,162,255

[TimingPoints]
1625,413.793103448276,4,2,2,70,1,0
8245,-100,4,2,2,85,0,0
19831,-100,4,2,0,85,0,0
21280,-100,4,2,0,5,0,0
23142,-100,4,2,1,70,0,0
29349,-100,4,2,2,70,0,0
29762,-100,4,2,2,80,0,0
49625,-100,4,2,0,70,0,0
50866,-100,4,2,2,70,0,0
51280,-100,4,2,2,90,0,1
71142,-100,4,2,2,85,0,1
84383,-100,4,2,2,85,0,0
88107,-100,4,2,2,5,0,0

[Colours]
Combo1 : 194,138,236
Combo2 : 10,235,235
Combo3 : 5,5,240
Combo4 : 95,12,233

[HitObjects]
190,139,1625,2,0,P|256:120|326:145,2,135,4|0|0,0:0|0:0|0:0,0:0:0:0:
190,238,3280,2,0,P|256:257|326:232,2,135,2|0|0,0:0|0:0|0:0,0:0:0:0:
119,167,4935,6,0,L|151:31,2,135,4|0|0,0:0|0:0|0:0,0:0:0:0:
37,226,6590,2,0,L|73:322,1,90,2|0,0:0|0:0,0:0:0:0:
153,258,7418,2,0,L|226:329,1,90,2|0,0:0|0:0,0:0:0:0:
307,362,8245,6,0,P|398:338|433:255,1,180,4|0,0:0|0:0,0:0:0:0:
333,265,9487,1,8,0:0:0:0:
356,166,9900,2,0,P|266:192|232:272,1,180,2|0,0:0|0:0,0:0:0:0:
218,364,11142,1,8,0:0:0:0:
122,337,11556,6,0,P|93:253|125:166,1,180,4|4,0:0|0:0,0:0:0:0:
298,81,13211,1,4,0:0:0:0:
387,123,13625,1,8,0:0:0:0:
387,221,14038,1,4,0:0:0:0:
218,325,14866,6,0,P|127:301|92:218,1,180,4|0,0:0|0:0,0:0:0:0:
122,134,16107,1,8,0:0:0:0:
208,86,16521,2,0,P|298:112|333:184,1,180,4|0,0:0|0:0,0:0:0:0:
333,284,17762,1,8,0:0:0:0:
245,329,18176,6,0,P|162:357|78:328,2,180,4|2|4,0:0|0:0|0:0,0:0:0:0:
256,192,20038,12,0,21487,0:0:0:0:
136,100,23142,6,0,P|109:182|180:256,1,180,4|0,0:0|0:0,0:0:0:0:
257,277,24383,1,0,0:0:0:0:
349,250,24797,2,0,P|403:182|376:100,1,180,2|0,0:0|0:0,0:0:0:0:
184,50,26452,6,0,P|136:55|100:76,1,89.9999999999999,2|0,0:0|0:0,0:0:0:0:
64,168,27280,1,0,0:0:0:0:
101,259,27693,2,0,P|137:280|185:285,1,89.9999999999999,0|2,0:0|0:0,0:0:0:0:
276,328,28521,2,0,P|286:275|269:229,1,89.9999999999999,0|4,0:0|0:0,0:0:0:0:
221,157,29349,1,8,0:0:0:0:
122,157,29762,6,0,P|161:77|256:64,1,180,4|2,0:0|0:0,0:0:0:0:
325,116,31004,1,8,0:0:0:0:
336,215,31418,2,0,P|292:292|195:304,2,180,4|2|4,0:0|0:0|0:0,0:0:0:0:
325,116,33487,5,8,0:0:0:0:
230,87,33900,2,0,L|163:147,1,89.9999999999999,4|8,0:0|0:0,0:0:0:0:
63,147,34728,2,0,P|123:240|196:240,1,180,4|2,0:0|0:0,0:0:0:0:
268,191,35969,1,8,0:0:0:0:
350,135,36383,6,0,P|363:186|354:242,1,90,4|8,0:0|0:0,0:0:0:0:
314,311,37211,2,0,P|366:321|405:310,1,90,2|8,0:0|0:0,0:0:0:0:
490,268,38038,2,0,P|500:227|478:171,1,89.9999999999999,2|8,0:0|0:0,0:0:0:0:
400,136,38866,2,0,P|348:146|313:135,1,89.9999999999999,2|8,0:0|0:0,0:0:0:0:
313,36,39693,6,0,P|234:73|221:173,2,180,4|2|2,0:0|0:0|0:0,0:0:0:0:
314,135,41762,2,0,P|382:147|401:153,1,89.9999999999999,8|2,0:0|0:0,0:0:0:0:
471,224,42590,1,8,0:0:0:0:
402,295,43004,6,0,P|382:301|314:313,1,89.9999999999999,4|8,0:0|0:0,0:0:0:0:
216,331,43831,2,0,P|126:300|107:211,2,180,2|4|2,0:0|0:0|0:0,0:0:0:0:
201,234,45900,1,8,0:0:0:0:
181,133,46314,6,0,L|167:44,1,89.9999999999999,2|8,0:0|0:0,0:0:0:0:
267,50,47142,2,0,P|314:54|370:45,2,89.9999999999999,2|8|2,0:0|0:0|0:0,0:0:0:0:
167,44,48383,1,8,0:0:0:0:
73,75,48797,2,0,L|48:175,1,89.9999999999999,2|8,0:0|0:0,0:0:0:0:
45,262,49625,6,0,P|68:345|159:357,1,180,2|2,0:0|0:0,0:0:0:0:
244,324,50866,1,8,0:0:0:0:
324,263,51280,6,0,P|350:203|330:140,2,135,4|2|8,0:0|0:0|0:0,0:0:0:0:
252,199,52935,2,0,P|172:223|124:191,2,135,2|2|8,0:0|0:0|0:0,0:0:0:0:
330,140,54590,6,0,L|418:88,1,89.9999999999999,4|8,0:0|0:0,0:0:0:0:
407,193,55418,2,0,L|508:183,1,89.9999999999999,2|8,0:0|0:0,0:0:0:0:
496,283,56245,1,2,0:0:0:0:
419,345,56659,1,10,0:0:0:0:
319,345,57073,1,2,0:0:0:0:
317,143,57900,6,0,P|358:69|346:11,2,135,4|2|8,0:0|0:0|0:0,0:0:0:0:
246,213,59556,2,0,P|172:254|114:242,2,135,0|2|8,0:0|0:0|0:0,0:0:0:0:
344,220,61211,6,0,P|418:261|476:249,2,135,4|2|8,0:0|0:0|0:0,0:0:0:0:
273,149,62866,2,0,L|185:119,1,89.9999999999999,2|8,0:0|0:0,0:0:0:0:
94,85,63693,1,0,0:0:0:0:
56,280,64521,6,0,P|132:292|175:259,2,135,4|2|8,0:0|0:0|0:0,0:0:0:0:
104,191,66176,2,0,P|174:160|228:175,2,135,4|2|8,0:0|0:0|0:0,0:0:0:0:
32,264,67831,6,0,P|76:287|130:291,1,89.9999999999999,4|8,0:0|0:0,0:0:0:0:
214,292,68659,2,0,P|253:286|297:263,1,89.9999999999999,2|8,0:0|0:0,0:0:0:0:
378,205,69487,1,2,0:0:0:0:
307,134,69900,1,10,0:0:0:0:
207,134,70314,1,2,0:0:0:0:
136,205,70728,1,8,0:0:0:0:
174,296,71142,6,0,P|256:327|338:290,1,180,4|0,0:0|0:0,0:0:0:0:
396,213,72383,1,8,0:0:0:0:
337,132,72797,2,0,P|255:101|173:138,1,180,4|0,0:0|0:0,0:0:0:0:
103,202,74038,1,8,0:0:0:0:
28,268,74452,6,0,P|61:292|112:304,1,90,4|8,0:0|0:0,0:0:0:0:
207,303,75280,2,0,P|254:291|287:267,1,90,4|8,0:0|0:0,0:0:0:0:
340,183,76107,1,4,0:0:0:0:
431,145,76521,1,2,0:0:0:0:
498,218,76935,1,4,0:0:0:0:
301,231,77762,6,0,P|210:207|175:124,1,180,4|0,0:0|0:0,0:0:0:0:
276,136,79004,1,8,0:0:0:0:
248,40,79418,2,0,P|338:66|373:138,1,180,4|0,0:0|0:0,0:0:0:0:
402,233,80659,1,8,0:0:0:0:
340,308,81073,6,0,P|257:336|173:307,1,180,2|2,0:0|0:0,0:0:0:0:
110,233,82314,1,0,0:0:0:0:
132,136,82728,2,0,P|253:85|374:136,1,270,2|0,0:0|0:0,0:0:0:0:
256,192,84383,12,0,88107,0:0:0:0:
